osu file format v14

[General]
AudioFilename: audio.mp3
AudioLeadIn: 0
PreviewTime: 52897
Countdown: 0
SampleSet: Soft
StackLeniency: 0.7
Mode: 3
LetterboxInBreaks: 0
SpecialStyle: 0
WidescreenStoryboard: 0

[Editor]
DistanceSpacing: 0.8
BeatDivisor: 4
GridSize: 4
TimelineZoom: 1.9

[Metadata]
Title:Mr. Darling
TitleUnicode:Mr. Darling
Artist:mimimemeMIMI
ArtistUnicode:みみめめMIMI
Creator:ArcherLove
Version:4K MX
Source:
Tags:amazon センチメンタルラブ short ver 迷宮センチメンタル DJ_Profetti
BeatmapID:1185980
BeatmapSetID:560876

[Difficulty]
HPDrainRate:8
CircleSize:4
OverallDifficulty:8
ApproachRate:7
SliderMultiplier:1.4
SliderTickRate:1

[Events]
//Background and Video events
0,0,"BG.jpg",0,0
//Break Periods
//Storyboard Layer 0 (Background)
//Storyboard Layer 1 (Fail)
//Storyboard Layer 2 (Pass)
//Storyboard Layer 3 (Foreground)
//Storyboard Sound Samples

[TimingPoints]
1238,368.098159509202,4,2,1,30,1,0
24980,368.098159509202,4,2,1,30,1,0
45593,368.098159509202,3,2,1,30,1,0
52218,368.098159509202,4,2,1,30,1,0
55116,368.098159509202,4,2,1,30,1,0
96342,368.098159509202,3,2,1,30,1,0
100575,368.098159509202,4,2,1,30,1,0

[HitObjects]
182,192,1238,5,0,0:0:0:30:
448,192,1238,128,0,1330:0:0:0:0:
320,192,2710,1,0,0:0:0:30:
64,192,2710,128,0,2802:0:0:0:0:
320,192,4182,1,0,0:0:0:30:
192,192,4182,128,0,4274:0:0:0:0:
64,192,5655,1,0,0:0:0:30:
448,192,5655,128,0,5747:0:0:0:0:
320,192,6575,128,0,6667:0:0:0:30:
64,192,6575,1,0,0:0:0:0:
64,192,7127,1,0,0:0:0:30:
448,192,7127,1,0,0:0:0:0:
64,192,7495,1,0,0:0:0:0:
448,192,7679,1,0,0:0:0:30:
64,192,7863,1,0,0:0:0:0:
320,192,8047,1,0,0:0:0:30:
192,192,8231,1,0,0:0:0:0:
448,192,8415,1,0,0:0:0:30:
64,192,8599,1,0,0:0:0:0:
320,192,8599,1,0,0:0:0:0:
448,192,8784,1,0,0:0:0:30:
192,192,8968,1,0,0:0:0:0:
448,192,9152,1,0,0:0:0:30:
64,192,9336,1,0,0:0:0:0:
320,192,9520,1,0,0:0:0:30:
192,192,9704,1,0,0:0:0:0:
448,192,9888,1,0,0:0:0:30:
320,192,10072,1,0,0:0:0:0:
64,192,10072,1,0,0:0:0:0:
448,192,10256,1,0,0:0:0:30:
192,192,10440,1,0,0:0:0:0:
448,192,10624,1,0,0:0:0:30:
64,192,10808,1,0,0:0:0:0:
448,192,10992,1,0,0:0:0:30:
64,192,11176,1,0,0:0:0:0:
320,192,11360,1,0,0:0:0:30:
192,192,11544,128,0,11636:0:0:0:30:
64,192,11544,128,0,11636:0:0:0:30:
448,192,11912,128,0,12004:0:0:0:30:
192,192,11912,128,0,12004:0:0:0:0:
320,192,12096,128,0,12188:0:0:0:30:
192,192,12096,128,0,12188:0:0:0:0:
320,192,12280,128,0,12372:0:0:0:30:
64,192,12280,128,0,12372:0:0:0:0:
448,192,12649,1,0,0:0:0:0:
320,192,12649,128,0,12741:0:0:0:30:
320,192,12833,1,0,0:0:0:0:
192,192,12833,128,0,12925:0:0:0:30:
192,192,13017,1,0,0:0:0:30:
448,192,13017,128,0,13753:0:0:0:0:
64,192,13017,1,4,0:0:0:30:
320,192,13201,1,0,0:0:0:0:
64,192,13385,1,0,0:0:0:30:
192,192,13385,1,0,0:0:0:0:
320,192,13569,128,8,13753:0:0:0:0:
64,192,13569,128,0,13753:0:0:0:0:
192,192,13753,1,0,0:0:0:0:
64,192,13937,1,0,0:0:0:30:
448,192,13937,1,0,0:0:0:0:
320,192,14121,128,0,14213:0:0:0:0:
64,192,14121,128,0,14213:0:0:0:30:
192,192,14305,128,8,14397:0:0:0:0:
448,192,14305,128,0,14397:0:0:0:0:
448,192,14489,1,4,0:0:0:30:
320,192,14489,1,4,0:0:0:0:
64,192,14489,128,0,15225:0:0:0:0:
192,192,14673,1,0,0:0:0:0:
448,192,14857,1,0,0:0:0:30:
320,192,14857,1,0,0:0:0:0:
192,192,15041,128,8,15225:0:0:0:30:
448,192,15041,128,0,15225:0:0:0:0:
320,192,15225,1,0,0:0:0:0:
64,192,15409,1,0,0:0:0:30:
448,192,15409,1,0,0:0:0:0:
192,192,15593,128,0,15685:0:0:0:0:
448,192,15593,128,0,15685:0:0:0:30:
64,192,15777,128,8,15869:0:0:0:30:
320,192,15777,128,0,15869:0:0:0:0:
192,192,15961,1,4,0:0:0:30:
64,192,15961,128,4,16237:0:0:0:30:
448,192,15961,128,0,16237:0:0:0:0:
320,192,16330,1,0,0:0:0:30:
192,192,16330,1,0,0:0:0:0:
448,192,16514,128,8,16698:0:0:0:30:
192,192,16514,128,0,16698:0:0:0:0:
64,192,16514,128,0,16698:0:0:0:0:
320,192,16698,1,0,0:0:0:0:
64,192,16882,1,0,0:0:0:30:
448,192,16882,1,0,0:0:0:0:
448,192,17066,1,0,0:0:0:0:
192,192,17066,128,0,17158:0:0:0:0:
320,192,17250,1,8,0:0:0:30:
64,192,17250,128,0,17342:0:0:0:0:
448,192,17434,1,4,0:0:0:30:
192,192,17434,1,0,0:0:0:0:
64,192,17434,128,0,17802:0:0:0:0:
320,192,17802,128,0,17894:0:0:0:30:
192,192,17802,1,0,0:0:0:0:
448,192,17986,128,8,18262:0:0:0:30:
64,192,17986,1,0,0:0:0:0:
320,192,17986,1,0,0:0:0:0:
192,192,18170,1,0,0:0:0:0:
64,192,18354,1,0,0:0:0:30:
320,192,18354,128,8,18630:0:0:0:30:
448,192,18354,1,0,0:0:0:0:
192,192,18538,1,0,0:0:0:30:
64,192,18722,128,8,18814:0:0:0:30:
448,192,18722,1,0,0:0:0:0:
192,192,18906,128,4,19366:0:0:0:30:
448,192,18906,1,4,0:0:0:30:
320,192,18906,1,0,0:0:0:0:
320,192,19274,128,0,19366:0:0:0:30:
448,192,19274,1,0,0:0:0:0:
64,192,19458,1,8,0:0:0:30:
448,192,19458,128,0,19826:0:0:0:0:
192,192,19458,1,0,0:0:0:0:
64,192,19826,1,0,0:0:0:30:
448,192,20011,1,0,0:0:0:0:
64,192,20011,128,0,20103:0:0:0:0:
192,192,20011,128,0,20103:0:0:0:30:
192,192,20195,128,0,20287:0:0:0:0:
320,192,20195,128,8,20287:0:0:0:30:
320,192,20379,1,4,0:0:0:30:
448,192,20379,1,4,0:0:0:30:
64,192,20379,128,0,20839:0:0:0:0:
192,192,20747,1,0,0:0:0:30:
320,192,20747,128,0,20839:0:0:0:0:
64,192,20931,1,8,0:0:0:30:
192,192,20931,1,0,0:0:0:0:
448,192,20931,128,0,21483:0:0:0:0:
192,192,21299,1,0,0:0:0:30:
320,192,21299,1,0,0:0:0:0:
64,192,21483,128,0,21575:0:0:0:30:
320,192,21483,128,0,21575:0:0:0:0:
192,192,21667,128,8,21759:0:0:0:30:
448,192,21667,128,0,21759:0:0:0:0:
320,192,21851,128,4,21943:0:0:0:30:
448,192,21851,128,4,21943:0:0:0:30:
64,192,21851,128,0,22311:0:0:0:0:
192,192,22219,1,0,0:0:0:30:
320,192,22219,1,0,0:0:0:0:
320,192,22403,1,8,0:0:0:30:
64,192,22403,1,0,0:0:0:0:
448,192,22403,128,0,22495:0:0:0:0:
192,192,22587,1,0,0:0:0:0:
64,192,22771,1,0,0:0:0:30:
448,192,22771,1,0,0:0:0:0:
320,192,22955,1,0,0:0:0:30:
448,192,22955,1,0,0:0:0:0:
64,192,23139,1,8,0:0:0:30:
320,192,23139,1,0,0:0:0:0:
192,192,23139,1,0,0:0:0:0:
64,192,23323,1,0,0:0:0:30:
192,192,23415,1,0,0:0:0:0:
448,192,23507,128,8,23784:0:0:0:30:
320,192,23507,128,0,23599:0:0:0:0:
320,192,23691,128,0,23968:0:0:0:30:
192,192,23691,128,0,23784:0:0:0:0:
192,192,23876,128,8,24152:0:0:0:30:
448,192,23876,128,0,23968:0:0:0:0:
64,192,23876,128,0,23968:0:0:0:0:
320,192,24060,128,0,24152:0:0:0:30:
64,192,24060,128,0,24336:0:0:0:0:
448,192,24060,128,0,24152:0:0:0:0:
320,192,24244,128,8,24336:0:0:0:30:
448,192,24244,128,0,24520:0:0:0:0:
192,192,24244,128,0,24336:0:0:0:0:
192,192,24428,128,0,24520:0:0:0:30:
64,192,24428,128,0,24520:0:0:0:0:
320,192,24428,128,0,24704:0:0:0:0:
192,192,24612,128,8,24888:0:0:0:30:
64,192,24612,128,0,24704:0:0:0:0:
448,192,24612,128,0,24704:0:0:0:0:
320,192,24796,128,0,24888:0:0:0:30:
64,192,24796,128,0,24888:0:0:0:0:
448,192,24796,128,0,24888:0:0:0:0:
192,192,24980,1,4,0:0:0:30:
320,192,24980,1,0,0:0:0:30:
448,192,24980,1,0,0:0:0:0:
64,192,24980,1,0,0:0:0:0:
192,192,25164,1,0,0:0:0:0:
64,192,25348,1,0,0:0:0:30:
448,192,25348,1,0,0:0:0:0:
320,192,25532,1,0,0:0:0:30:
192,192,25716,1,0,0:0:0:30:
64,192,25716,1,0,0:0:0:0:
448,192,25900,1,0,0:0:0:0:
320,192,26084,1,0,0:0:0:30:
64,192,26084,1,0,0:0:0:0:
192,192,26268,1,0,0:0:0:30:
448,192,26268,1,0,0:0:0:0:
448,192,26452,1,0,0:0:0:30:
192,192,26452,1,0,0:0:0:0:
64,192,26636,1,0,0:0:0:30:
320,192,26820,1,0,0:0:0:30:
448,192,26820,1,0,0:0:0:0:
192,192,27004,1,0,0:0:0:30:
64,192,27188,1,0,0:0:0:0:
448,192,27188,1,0,0:0:0:0:
320,192,27372,1,0,0:0:0:30:
192,192,27372,1,0,0:0:0:0:
64,192,27556,1,0,0:0:0:0:
448,192,27556,1,0,0:0:0:0:
192,192,27740,1,0,0:0:0:30:
320,192,27740,1,0,0:0:0:0:
192,192,27924,1,0,0:0:0:30:
320,192,27924,1,0,0:0:0:0:
64,192,28108,1,0,0:0:0:30:
320,192,28292,1,0,0:0:0:30:
192,192,28476,1,0,0:0:0:30:
448,192,28660,1,0,0:0:0:0:
64,192,28660,1,0,0:0:0:0:
320,192,28845,1,0,0:0:0:30:
192,192,29029,1,0,0:0:0:0:
64,192,29029,1,0,0:0:0:0:
448,192,29213,1,0,0:0:0:30:
320,192,29213,1,0,0:0:0:0:
320,192,29397,1,0,0:0:0:30:
448,192,29397,1,0,0:0:0:30:
192,192,29581,1,0,0:0:0:0:
448,192,29765,1,0,0:0:0:30:
64,192,29765,1,0,0:0:0:0:
320,192,29949,1,0,0:0:0:0:
192,192,30133,1,0,0:0:0:30:
64,192,30133,1,0,0:0:0:0:
320,192,30317,1,0,0:0:0:0:
64,192,30501,1,8,0:0:0:30:
192,192,30501,1,0,0:0:0:0:
448,192,30501,128,0,30685:0:0:0:0:
192,192,30685,128,0,30869:0:0:0:0:
64,192,30869,1,4,0:0:0:30:
320,192,30869,1,4,0:0:0:30:
448,192,30869,128,0,31145:0:0:0:0:
192,192,31053,1,0,0:0:0:0:
320,192,31237,128,8,31513:0:0:0:30:
64,192,31237,1,0,0:0:0:0:
448,192,31237,1,0,0:0:0:0:
192,192,31421,1,0,0:0:0:0:
64,192,31605,128,0,31697:0:0:0:30:
320,192,31605,1,0,0:0:0:0:
448,192,31605,1,0,0:0:0:0:
192,192,31789,128,0,31881:0:0:0:30:
448,192,31789,1,0,0:0:0:0:
320,192,31973,128,0,32065:0:0:0:30:
64,192,31973,1,0,0:0:0:0:
448,192,32157,128,8,32433:0:0:0:30:
64,192,32157,1,0,0:0:0:0:
192,192,32157,1,0,0:0:0:0:
320,192,32341,1,0,0:0:0:0:
192,192,32526,128,0,32802:0:0:0:30:
448,192,32526,1,0,0:0:0:0:
64,192,32526,1,0,0:0:0:0:
320,192,32710,1,0,0:0:0:0:
320,192,32894,128,8,33170:0:0:0:30:
448,192,32894,1,0,0:0:0:0:
64,192,32894,1,0,0:0:0:0:
192,192,33078,1,0,0:0:0:0:
64,192,33262,128,0,33538:0:0:0:30:
320,192,33262,1,0,0:0:0:0:
448,192,33262,1,0,0:0:0:0:
320,192,33446,128,8,33538:0:0:0:30:
448,192,33446,128,0,33538:0:0:0:0:
448,192,33630,1,0,0:0:0:30:
192,192,33630,1,0,0:0:0:0:
320,192,33722,1,0,0:0:0:0:
448,192,33814,1,0,0:0:0:30:
192,192,33814,1,0,0:0:0:0:
64,192,33814,1,0,0:0:0:0:
320,192,33998,1,0,0:0:0:30:
192,192,34182,1,0,0:0:0:30:
448,192,34366,1,0,0:0:0:30:
320,192,34550,1,0,0:0:0:0:
192,192,34734,1,0,0:0:0:30:
64,192,34734,1,0,0:0:0:0:
448,192,34918,1,0,0:0:0:0:
64,192,35102,1,0,0:0:0:30:
192,192,35102,1,0,0:0:0:0:
448,192,35286,1,0,0:0:0:30:
320,192,35286,1,0,0:0:0:0:
192,192,35470,1,0,0:0:0:30:
64,192,35654,1,0,0:0:0:30:
320,192,35838,1,0,0:0:0:30:
192,192,36022,1,0,0:0:0:0:
448,192,36206,1,0,0:0:0:30:
64,192,36206,1,0,0:0:0:0:
320,192,36391,1,0,0:0:0:0:
64,192,36575,1,0,0:0:0:30:
64,192,36759,1,0,0:0:0:30:
320,192,36759,1,0,0:0:0:0:
192,192,36943,1,0,0:0:0:30:
448,192,37127,1,0,0:0:0:30:
320,192,37311,1,0,0:0:0:30:
64,192,37311,1,0,0:0:0:0:
192,192,37495,1,0,0:0:0:0:
448,192,37679,1,0,0:0:0:30:
320,192,37863,1,0,0:0:0:0:
64,192,38047,1,0,0:0:0:30:
192,192,38047,1,0,0:0:0:0:
320,192,38231,1,0,0:0:0:30:
448,192,38231,1,0,0:0:0:0:
64,192,38415,1,0,0:0:0:0:
192,192,38599,1,0,0:0:0:30:
448,192,38783,1,0,0:0:0:0:
320,192,38967,1,0,0:0:0:0:
64,192,39151,1,0,0:0:0:0:
192,192,39151,1,0,0:0:0:0:
448,192,39335,1,8,0:0:0:30:
64,192,39335,1,8,0:0:0:30:
320,192,39335,1,0,0:0:0:0:
192,192,39427,1,0,0:0:0:0:
448,192,39519,1,0,0:0:0:0:
320,192,39611,1,0,0:0:0:0:
448,192,39703,1,8,0:0:0:30:
192,192,39703,1,8,0:0:0:30:
64,192,39703,128,0,39979:0:0:0:0:
192,192,39887,128,0,39979:0:0:0:0:
448,192,39887,1,0,0:0:0:0:
192,192,40072,128,12,40348:0:0:0:30:
448,192,40072,1,8,0:0:0:30:
64,192,40072,1,0,0:0:0:0:
320,192,40256,128,0,40348:0:0:0:0:
320,192,40440,128,0,40532:0:0:0:30:
64,192,40440,1,0,0:0:0:0:
448,192,40440,1,0,0:0:0:0:
448,192,40624,128,0,40716:0:0:0:30:
192,192,40624,1,0,0:0:0:0:
64,192,40808,128,0,40900:0:0:0:30:
320,192,40808,1,0,0:0:0:0:
192,192,40992,128,8,41268:0:0:0:30:
448,192,40992,1,8,0:0:0:30:
64,192,40992,1,0,0:0:0:0:
320,192,41176,1,0,0:0:0:0:
64,192,41360,128,0,41636:0:0:0:30:
192,192,41360,1,0,0:0:0:30:
448,192,41360,1,0,0:0:0:0:
320,192,41544,1,0,0:0:0:0:
320,192,41728,128,8,42004:0:0:0:30:
64,192,41728,1,8,0:0:0:30:
448,192,41728,1,0,0:0:0:0:
192,192,41912,1,0,0:0:0:0:
192,192,42096,128,0,42188:0:0:0:30:
448,192,42096,1,0,0:0:0:0:
192,192,42280,128,8,42372:0:0:0:30:
448,192,42280,1,0,0:0:0:30:
64,192,42280,1,0,0:0:0:0:
320,192,42464,128,0,42556:0:0:0:30:
192,192,42464,1,0,0:0:0:0:
448,192,42648,128,12,42924:0:0:0:30:
320,192,42648,1,8,0:0:0:30:
64,192,42648,1,0,0:0:0:0:
192,192,42832,1,0,0:0:0:0:
192,192,43016,128,8,43292:0:0:0:30:
64,192,43016,1,0,0:0:0:0:
448,192,43016,1,0,0:0:0:0:
320,192,43200,1,0,0:0:0:30:
320,192,43384,128,0,43476:0:0:0:30:
64,192,43384,1,0,0:0:0:30:
448,192,43568,128,0,43660:0:0:0:30:
192,192,43568,1,0,0:0:0:0:
64,192,43753,128,0,43845:0:0:0:30:
448,192,43753,1,0,0:0:0:0:
192,192,43937,128,8,44213:0:0:0:30:
320,192,43937,1,8,0:0:0:30:
64,192,43937,1,0,0:0:0:0:
448,192,44121,1,0,0:0:0:0:
320,192,44305,128,0,44581:0:0:0:30:
64,192,44305,1,0,0:0:0:30:
192,192,44489,1,8,0:0:0:30:
448,192,44673,128,12,44949:0:0:0:30:
64,192,44673,128,8,44949:0:0:0:30:
320,192,44673,128,0,44949:0:0:0:0:
320,192,45041,128,0,45133:0:0:0:30:
64,192,45041,1,0,0:0:0:0:
448,192,45225,128,8,45317:0:0:0:30:
64,192,45225,1,0,0:0:0:0:
192,192,45225,1,0,0:0:0:0:
64,192,45409,1,0,0:0:0:30:
320,192,45409,1,0,0:0:0:0:
192,192,45501,1,0,0:0:0:0:
64,192,45593,1,6,0:0:0:30:
320,192,45593,1,4,0:0:0:30:
448,192,45593,128,0,46329:0:0:0:0:
320,192,45961,128,0,46697:0:0:0:30:
192,192,46329,128,2,47065:0:0:0:30:
448,192,46697,1,0,0:0:0:30:
64,192,46697,128,0,47433:0:0:0:30:
320,192,47065,128,0,47801:0:0:0:30:
448,192,47433,128,2,48169:0:0:0:30:
192,192,47801,1,0,0:0:0:30:
64,192,47801,128,0,48537:0:0:0:30:
192,192,48169,128,0,48905:0:0:0:30:
320,192,48169,1,0,0:0:0:0:
320,192,48537,128,2,49273:0:0:0:30:
448,192,48537,1,0,0:0:0:0:
64,192,48905,128,0,48997:0:0:0:30:
192,192,49273,128,0,49366:0:0:0:30:
64,192,49273,1,0,0:0:0:0:
320,192,49642,128,2,49734:0:0:0:30:
448,192,49642,1,0,0:0:0:0:
64,192,50010,1,0,0:0:0:30:
192,192,50010,1,0,0:0:0:30:
448,192,50010,128,0,50286:0:0:0:0:
320,192,50378,128,0,50654:0:0:0:30:
64,192,50378,1,0,0:0:0:0:
192,192,50562,128,0,50654:0:0:0:0:
448,192,50562,1,0,0:0:0:0:
192,192,50746,128,0,51022:0:0:0:30:
448,192,50746,1,0,0:0:0:0:
448,192,50930,128,0,51022:0:0:0:0:
320,192,50930,128,0,51022:0:0:0:0:
64,192,51114,128,8,51390:0:0:0:30:
320,192,51114,1,0,0:0:0:30:
192,192,51114,1,0,0:0:0:0:
192,192,51482,128,0,51758:0:0:0:30:
448,192,51482,128,0,51574:0:0:0:0:
64,192,51482,128,0,51574:0:0:0:0:
320,192,51666,128,0,51758:0:0:0:0:
320,192,51850,128,8,52126:0:0:0:30:
64,192,51850,128,0,51942:0:0:0:0:
448,192,51850,128,0,51942:0:0:0:0:
192,192,52034,128,0,52126:0:0:0:0:
448,192,52218,128,4,52678:0:0:0:30:
192,192,52218,1,2,0:0:0:30:
320,192,52218,1,0,0:0:0:0:
64,192,52218,128,0,52494:0:0:0:0:
320,192,52586,128,0,52678:0:0:0:30:
64,192,52586,128,0,52678:0:0:0:0:
192,192,52770,1,0,0:0:0:30:
64,192,52770,128,0,52862:0:0:0:0:
320,192,52954,1,0,0:0:0:30:
448,192,52954,128,0,53046:0:0:0:0:
192,192,53138,1,0,0:0:0:30:
64,192,53138,128,0,53230:0:0:0:0:
320,192,53322,1,8,0:0:0:30:
448,192,53322,128,0,53414:0:0:0:0:
64,192,53322,128,0,53414:0:0:0:0:
192,192,53506,128,0,53598:0:0:0:30:
320,192,53690,128,0,53782:0:0:0:30:
64,192,53690,128,0,53966:0:0:0:30:
192,192,53874,128,0,54150:0:0:0:30:
448,192,53874,128,0,53966:0:0:0:0:
320,192,54058,128,8,54334:0:0:0:30:
448,192,54058,128,0,54150:0:0:0:0:
64,192,54058,128,0,54150:0:0:0:0:
192,192,54242,128,0,54334:0:0:0:30:
448,192,54242,128,0,54334:0:0:0:0:
320,192,54426,128,8,54518:0:0:0:30:
448,192,54426,128,0,54518:0:0:0:30:
64,192,54426,128,0,55070:0:0:0:0:
192,192,54518,1,0,0:0:0:0:
448,192,54610,1,0,0:0:0:0:
320,192,54702,1,0,0:0:0:0:
192,192,54794,1,0,0:0:0:30:
448,192,54886,1,0,0:0:0:0:
320,192,54978,1,0,0:0:0:0:
192,192,55070,1,0,0:0:0:0:
448,192,55116,1,4,0:0:0:30:
320,192,55116,1,0,0:0:0:30:
64,192,55116,128,0,55392:0:0:0:0:
192,192,55300,1,0,0:0:0:0:
448,192,55484,1,8,0:0:0:30:
320,192,55484,1,0,0:0:0:0:
64,192,55484,128,0,55576:0:0:0:0:
192,192,55668,128,0,55760:0:0:0:30:
448,192,55668,1,0,0:0:0:0:
320,192,55852,128,0,56128:0:0:0:30:
64,192,55852,1,0,0:0:0:0:
448,192,56036,1,0,0:0:0:30:
192,192,56036,1,0,0:0:0:0:
320,192,56220,1,8,0:0:0:30:
448,192,56220,1,0,0:0:0:0:
64,192,56220,128,0,56312:0:0:0:0:
192,192,56404,128,0,56496:0:0:0:30:
448,192,56404,1,0,0:0:0:0:
448,192,56588,128,0,56864:0:0:0:30:
64,192,56588,1,0,0:0:0:0:
192,192,56772,1,0,0:0:0:0:
320,192,56956,128,8,57232:0:0:0:30:
64,192,56956,1,8,0:0:0:30:
448,192,56956,1,0,0:0:0:0:
192,192,57140,1,0,0:0:0:0:
192,192,57324,128,0,57600:0:0:0:30:
448,192,57324,1,0,0:0:0:0:
320,192,57508,1,0,0:0:0:30:
64,192,57692,128,8,57784:0:0:0:30:
448,192,57692,1,0,0:0:0:0:
192,192,57692,1,0,0:0:0:0:
320,192,57784,1,0,0:0:0:0:
64,192,57876,128,0,57968:0:0:0:30:
448,192,57876,1,0,0:0:0:0:
192,192,57968,1,0,0:0:0:0:
64,192,58060,1,0,0:0:0:30:
320,192,58060,1,0,0:0:0:0:
448,192,58060,128,0,58336:0:0:0:0:
192,192,58244,1,0,0:0:0:0:
320,192,58428,128,8,58520:0:0:0:30:
64,192,58428,1,0,0:0:0:30:
448,192,58428,1,0,0:0:0:0:
192,192,58612,128,0,58704:0:0:0:30:
448,192,58612,1,0,0:0:0:0:
64,192,58796,128,0,58889:0:0:0:30:
320,192,58796,1,0,0:0:0:0:
64,192,58981,128,0,59073:0:0:0:30:
320,192,58981,1,0,0:0:0:0:
448,192,59165,1,8,0:0:0:30:
192,192,59165,1,0,0:0:0:0:
64,192,59165,1,0,0:0:0:0:
320,192,59257,1,0,0:0:0:0:
192,192,59349,1,0,0:0:0:30:
448,192,59441,1,0,0:0:0:0:
320,192,59533,1,0,0:0:0:30:
192,192,59533,1,0,0:0:0:0:
64,192,59533,128,0,59809:0:0:0:0:
64,192,59901,1,8,0:0:0:30:
192,192,59901,1,0,0:0:0:30:
448,192,59901,1,0,0:0:0:0:
320,192,60085,128,0,60177:0:0:0:30:
64,192,60085,1,0,0:0:0:0:
320,192,60269,128,0,60545:0:0:0:30:
192,192,60269,1,0,0:0:0:0:
448,192,60453,1,0,0:0:0:30:
448,192,60637,1,8,0:0:0:30:
320,192,60637,1,0,0:0:0:30:
64,192,60637,1,0,0:0:0:0:
192,192,60729,1,0,0:0:0:0:
64,192,60821,1,0,0:0:0:0:
448,192,60913,1,0,0:0:0:0:
320,192,61005,128,0,61281:0:0:0:30:
64,192,61005,1,0,0:0:0:0:
192,192,61005,1,0,0:0:0:0:
64,192,61373,128,8,61465:0:0:0:30:
320,192,61373,1,8,0:0:0:30:
448,192,61373,1,0,0:0:0:0:
448,192,61557,128,0,61649:0:0:0:0:
192,192,61557,1,0,0:0:0:0:
192,192,61741,128,0,62017:0:0:0:30:
64,192,61741,1,0,0:0:0:0:
448,192,61741,1,0,0:0:0:0:
320,192,61925,1,0,0:0:0:30:
192,192,62109,1,8,0:0:0:30:
64,192,62109,1,0,0:0:0:0:
448,192,62109,128,0,62201:0:0:0:0:
320,192,62293,128,0,62385:0:0:0:30:
64,192,62293,1,0,0:0:0:0:
448,192,62477,1,0,0:0:0:30:
192,192,62477,128,0,62754:0:0:0:0:
320,192,62846,128,8,62938:0:0:0:30:
448,192,62846,1,8,0:0:0:30:
64,192,62846,1,0,0:0:0:0:
320,192,63030,128,0,63122:0:0:0:30:
192,192,63030,1,0,0:0:0:0:
448,192,63214,128,0,63306:0:0:0:30:
64,192,63214,1,0,0:0:0:0:
448,192,63398,128,0,63490:0:0:0:30:
192,192,63398,1,0,0:0:0:0:
64,192,63582,128,8,63674:0:0:0:30:
320,192,63582,1,0,0:0:0:0:
448,192,63582,1,0,0:0:0:0:
64,192,63766,128,0,63858:0:0:0:30:
320,192,63766,1,0,0:0:0:0:
192,192,63858,1,0,0:0:0:0:
64,192,63950,128,0,64226:0:0:0:30:
320,192,63950,1,0,0:0:0:0:
448,192,63950,1,0,0:0:0:0:
192,192,64318,128,8,64410:0:0:0:30:
448,192,64318,1,0,0:0:0:30:
64,192,64318,1,0,0:0:0:0:
320,192,64502,128,0,64594:0:0:0:30:
448,192,64686,128,0,64778:0:0:0:30:
64,192,64686,1,0,0:0:0:0:
192,192,64870,1,0,0:0:0:30:
448,192,64870,1,0,0:0:0:0:
448,192,65054,1,8,0:0:0:30:
320,192,65054,1,0,0:0:0:0:
64,192,65054,128,0,65330:0:0:0:0:
448,192,65238,1,0,0:0:0:30:
64,192,65422,128,0,65698:0:0:0:30:
192,192,65422,1,0,0:0:0:0:
320,192,65422,1,0,0:0:0:0:
192,192,65790,1,8,0:0:0:30:
448,192,65790,1,8,0:0:0:30:
64,192,65790,128,0,66066:0:0:0:0:
320,192,65974,1,0,0:0:0:30:
448,192,66158,128,0,66250:0:0:0:30:
64,192,66158,1,0,0:0:0:30:
448,192,66342,128,8,66435:0:0:0:30:
64,192,66342,1,0,0:0:0:0:
448,192,66527,128,8,66803:0:0:0:30:
64,192,66527,1,0,0:0:0:30:
192,192,66527,1,0,0:0:0:0:
320,192,66619,1,0,0:0:0:0:
64,192,66711,1,0,0:0:0:30:
192,192,66803,1,0,0:0:0:0:
320,192,66895,1,4,0:0:0:30:
448,192,66895,1,0,0:0:0:30:
64,192,66895,128,0,67171:0:0:0:0:
64,192,67263,1,8,0:0:0:30:
448,192,67263,1,8,0:0:0:30:
192,192,67263,128,0,67355:0:0:0:0:
320,192,67447,128,0,67539:0:0:0:0:
192,192,67447,1,0,0:0:0:0:
448,192,67631,128,0,67723:0:0:0:30:
320,192,67631,1,0,0:0:0:0:
64,192,67815,1,0,0:0:0:30:
192,192,67815,128,0,67907:0:0:0:0:
64,192,67999,1,8,0:0:0:30:
448,192,67999,1,0,0:0:0:0:
320,192,67999,128,0,68091:0:0:0:0:
192,192,68091,128,0,68183:0:0:0:0:
448,192,68183,128,0,68275:0:0:0:30:
320,192,68275,128,0,68367:0:0:0:0:
192,192,68367,128,0,68459:0:0:0:30:
64,192,68367,128,0,68459:0:0:0:0:
448,192,68367,128,0,68643:0:0:0:0:
64,192,68735,1,8,0:0:0:30:
192,192,68735,1,0,0:0:0:30:
448,192,68735,128,0,68827:0:0:0:0:
64,192,68919,1,0,0:0:0:30:
320,192,68919,128,0,69011:0:0:0:0:
448,192,69103,128,0,69195:0:0:0:30:
320,192,69103,1,0,0:0:0:0:
64,192,69103,1,0,0:0:0:0:
448,192,69287,128,0,69379:0:0:0:30:
192,192,69287,1,0,0:0:0:0:
320,192,69471,1,8,0:0:0:30:
448,192,69471,1,0,0:0:0:0:
64,192,69471,128,0,69747:0:0:0:0:
192,192,69563,1,0,0:0:0:0:
448,192,69655,1,0,0:0:0:30:
320,192,69747,1,0,0:0:0:0:
64,192,69839,1,0,0:0:0:30:
192,192,69839,1,0,0:0:0:30:
448,192,69839,128,0,70115:0:0:0:0:
192,192,70023,1,0,0:0:0:0:
320,192,70208,128,8,70300:0:0:0:30:
64,192,70208,1,8,0:0:0:30:
448,192,70208,1,0,0:0:0:0:
192,192,70392,128,0,70484:0:0:0:30:
320,192,70392,1,0,0:0:0:0:
64,192,70576,128,0,70852:0:0:0:30:
192,192,70576,1,0,0:0:0:0:
448,192,70576,1,0,0:0:0:0:
320,192,70760,1,0,0:0:0:30:
192,192,70944,128,8,71036:0:0:0:30:
448,192,70944,1,0,0:0:0:30:
64,192,70944,1,0,0:0:0:0:
320,192,71128,128,0,71220:0:0:0:30:
192,192,71128,1,0,0:0:0:0:
448,192,71312,128,0,71588:0:0:0:30:
320,192,71312,1,0,0:0:0:30:
64,192,71312,1,0,0:0:0:0:
192,192,71496,1,0,0:0:0:0:
320,192,71680,128,8,71956:0:0:0:30:
64,192,71680,1,8,0:0:0:30:
448,192,71680,1,0,0:0:0:0:
192,192,71864,1,0,0:0:0:0:
192,192,72048,128,0,72324:0:0:0:30:
64,192,72048,1,0,0:0:0:30:
448,192,72048,1,0,0:0:0:0:
448,192,72232,1,0,0:0:0:30:
64,192,72416,128,8,72692:0:0:0:30:
320,192,72416,1,0,0:0:0:0:
192,192,72416,1,0,0:0:0:0:
448,192,72600,128,0,72692:0:0:0:0:
448,192,72784,1,4,0:0:0:30:
192,192,72784,1,0,0:0:0:30:
64,192,72784,128,0,73060:0:0:0:0:
64,192,73152,128,8,73428:0:0:0:30:
320,192,73152,1,8,0:0:0:30:
448,192,73152,1,0,0:0:0:0:
448,192,73336,1,0,0:0:0:0:
192,192,73520,128,0,73796:0:0:0:30:
320,192,73520,1,0,0:0:0:0:
64,192,73520,1,0,0:0:0:0:
448,192,73704,1,0,0:0:0:30:
448,192,73889,1,8,0:0:0:30:
320,192,73889,1,0,0:0:0:0:
64,192,73889,1,0,0:0:0:0:
192,192,74073,1,0,0:0:0:30:
448,192,74257,128,0,74533:0:0:0:30:
64,192,74257,1,0,0:0:0:30:
320,192,74257,1,0,0:0:0:0:
448,192,74625,128,8,74901:0:0:0:30:
64,192,74625,1,8,0:0:0:30:
192,192,74625,1,0,0:0:0:0:
64,192,74809,1,0,0:0:0:0:
320,192,74993,128,0,75269:0:0:0:30:
192,192,74993,1,0,0:0:0:0:
448,192,74993,1,0,0:0:0:0:
64,192,75177,1,0,0:0:0:30:
64,192,75361,1,8,0:0:0:30:
192,192,75361,1,0,0:0:0:0:
448,192,75361,1,0,0:0:0:0:
320,192,75453,1,0,0:0:0:0:
192,192,75545,1,0,0:0:0:30:
448,192,75637,1,0,0:0:0:0:
320,192,75729,1,0,0:0:0:30:
192,192,75729,1,0,0:0:0:30:
64,192,75729,128,0,76189:0:0:0:0:
448,192,75913,1,0,0:0:0:0:
192,192,76097,128,8,76189:0:0:0:30:
320,192,76097,1,8,0:0:0:30:
448,192,76097,1,0,0:0:0:0:
64,192,76281,128,0,76373:0:0:0:0:
320,192,76281,1,0,0:0:0:0:
448,192,76465,128,8,76557:0:0:0:30:
192,192,76465,1,0,0:0:0:0:
64,192,76465,1,0,0:0:0:0:
320,192,76649,128,0,76741:0:0:0:30:
64,192,76649,1,0,0:0:0:0:
192,192,76833,128,8,76925:0:0:0:30:
448,192,76833,1,0,0:0:0:0:
320,192,76833,1,0,0:0:0:0:
64,192,77017,128,0,77109:0:0:0:30:
192,192,77017,1,0,0:0:0:0:
448,192,77201,128,8,77293:0:0:0:30:
320,192,77201,1,0,0:0:0:0:
64,192,77201,1,0,0:0:0:0:
64,192,77385,128,0,77477:0:0:0:30:
192,192,77385,1,0,0:0:0:0:
320,192,77569,128,8,77662:0:0:0:30:
448,192,77569,1,0,0:0:0:0:
192,192,77754,128,0,77846:0:0:0:30:
64,192,77754,1,0,0:0:0:0:
448,192,77938,128,8,78214:0:0:0:30:
320,192,77938,1,0,0:0:0:0:
64,192,77938,1,0,0:0:0:0:
64,192,78122,1,8,0:0:0:30:
320,192,78122,1,0,0:0:0:0:
192,192,78214,1,0,0:0:0:0:
320,192,78306,128,0,78582:0:0:0:30:
64,192,78306,1,0,0:0:0:0:
448,192,78306,1,0,0:0:0:0:
192,192,78398,1,0,0:0:0:0:
64,192,78490,1,0,0:0:0:30:
448,192,78582,1,0,0:0:0:0:
320,192,78674,1,4,0:0:0:30:
192,192,78674,1,0,0:0:0:30:
64,192,78674,128,0,78950:0:0:0:0:
448,192,78858,1,0,0:0:0:0:
448,192,79042,1,8,0:0:0:30:
320,192,79042,1,8,0:0:0:30:
64,192,79042,128,0,79134:0:0:0:0:
192,192,79226,128,0,79318:0:0:0:0:
448,192,79226,1,0,0:0:0:0:
64,192,79410,1,0,0:0:0:30:
320,192,79410,128,0,79502:0:0:0:0:
192,192,79594,1,0,0:0:0:30:
448,192,79594,128,0,79686:0:0:0:0:
320,192,79778,1,8,0:0:0:30:
64,192,79778,1,8,0:0:0:30:
448,192,79778,128,0,79870:0:0:0:0:
192,192,79962,128,0,80054:0:0:0:0:
448,192,79962,1,0,0:0:0:0:
64,192,80146,1,0,0:0:0:30:
448,192,80146,1,0,0:0:0:0:
320,192,80146,128,0,80422:0:0:0:0:
64,192,80330,1,0,0:0:0:0:
320,192,80514,1,8,0:0:0:30:
448,192,80514,1,8,0:0:0:30:
192,192,80514,128,0,80606:0:0:0:0:
64,192,80698,128,0,80790:0:0:0:0:
320,192,80698,1,0,0:0:0:0:
448,192,80882,128,0,80974:0:0:0:30:
64,192,80882,1,0,0:0:0:0:
320,192,81066,128,0,81158:0:0:0:30:
64,192,81066,1,0,0:0:0:0:
192,192,81250,128,8,81342:0:0:0:30:
448,192,81250,1,0,0:0:0:30:
320,192,81250,1,0,0:0:0:0:
64,192,81435,128,0,81527:0:0:0:0:
448,192,81435,1,0,0:0:0:0:
64,192,81619,128,0,81895:0:0:0:30:
320,192,81619,1,0,0:0:0:0:
448,192,81619,1,0,0:0:0:0:
64,192,81987,128,8,82079:0:0:0:30:
192,192,81987,1,0,0:0:0:30:
448,192,81987,1,0,0:0:0:0:
192,192,82171,128,0,82263:0:0:0:0:
320,192,82171,1,0,0:0:0:0:
320,192,82355,128,0,82447:0:0:0:30:
448,192,82355,1,0,0:0:0:0:
64,192,82355,1,0,0:0:0:0:
64,192,82539,128,0,82631:0:0:0:30:
320,192,82539,1,0,0:0:0:0:
192,192,82723,128,8,82815:0:0:0:30:
448,192,82723,1,8,0:0:0:30:
64,192,82723,1,0,0:0:0:0:
192,192,82907,128,0,82999:0:0:0:30:
320,192,82907,1,0,0:0:0:0:
320,192,83091,128,0,83367:0:0:0:30:
448,192,83091,1,0,0:0:0:0:
64,192,83091,1,0,0:0:0:0:
448,192,83459,128,8,83735:0:0:0:30:
64,192,83459,1,0,0:0:0:30:
192,192,83459,1,0,0:0:0:0:
320,192,83643,1,0,0:0:0:0:
64,192,83827,128,0,84103:0:0:0:30:
448,192,83827,1,0,0:0:0:0:
192,192,83827,1,0,0:0:0:0:
320,192,84011,1,0,0:0:0:30:
192,192,84195,128,8,84471:0:0:0:30:
448,192,84195,1,0,0:0:0:30:
64,192,84195,1,0,0:0:0:0:
320,192,84287,1,0,0:0:0:0:
448,192,84379,1,0,0:0:0:0:
64,192,84471,1,0,0:0:0:0:
192,192,84563,1,0,0:0:0:30:
320,192,84563,1,0,0:0:0:0:
448,192,84563,128,0,84839:0:0:0:0:
64,192,84747,1,0,0:0:0:0:
448,192,84931,128,8,85023:0:0:0:30:
64,192,84931,1,8,0:0:0:30:
192,192,84931,1,0,0:0:0:0:
320,192,85115,128,0,85208:0:0:0:0:
64,192,85115,1,0,0:0:0:0:
192,192,85300,128,0,85576:0:0:0:30:
448,192,85300,1,0,0:0:0:0:
448,192,85484,1,0,0:0:0:30:
320,192,85668,1,8,0:0:0:30:
448,192,85668,1,8,0:0:0:30:
64,192,85668,128,0,85760:0:0:0:0:
192,192,85852,128,0,85944:0:0:0:0:
64,192,85852,1,0,0:0:0:0:
320,192,86036,128,0,86312:0:0:0:30:
64,192,86036,1,0,0:0:0:0:
448,192,86036,1,0,0:0:0:0:
192,192,86220,1,0,0:0:0:0:
448,192,86404,128,8,86680:0:0:0:30:
320,192,86404,1,8,0:0:0:30:
64,192,86404,1,0,0:0:0:0:
192,192,86588,1,0,0:0:0:0:
64,192,86772,1,0,0:0:0:30:
320,192,86772,128,0,86864:0:0:0:0:
192,192,86956,128,0,87048:0:0:0:30:
448,192,86956,1,0,0:0:0:0:
64,192,87140,128,8,87232:0:0:0:30:
320,192,87140,1,8,0:0:0:30:
448,192,87140,1,0,0:0:0:0:
192,192,87324,128,0,87416:0:0:0:30:
448,192,87324,1,0,0:0:0:0:
64,192,87508,128,0,87784:0:0:0:30:
320,192,87508,1,0,0:0:0:30:
192,192,87508,1,0,0:0:0:0:
64,192,87876,128,8,87968:0:0:0:30:
320,192,87876,1,0,0:0:0:30:
448,192,87876,1,0,0:0:0:0:
192,192,88060,128,0,88152:0:0:0:30:
448,192,88060,1,0,0:0:0:0:
192,192,88244,128,0,88520:0:0:0:30:
320,192,88244,1,0,0:0:0:30:
64,192,88244,1,0,0:0:0:0:
448,192,88428,1,0,0:0:0:30:
320,192,88612,1,8,0:0:0:30:
448,192,88612,1,0,0:0:0:30:
64,192,88612,128,0,88889:0:0:0:0:
192,192,88704,1,0,0:0:0:0:
448,192,88796,1,0,0:0:0:0:
320,192,88889,1,0,0:0:0:0:
64,192,88981,1,0,0:0:0:30:
448,192,88981,1,0,0:0:0:30:
192,192,88981,128,0,89257:0:0:0:0:
320,192,89165,1,0,0:0:0:0:
320,192,89349,128,8,89625:0:0:0:30:
448,192,89349,1,0,0:0:0:0:
64,192,89349,1,0,0:0:0:0:
192,192,89533,1,0,0:0:0:0:
64,192,89717,128,0,89993:0:0:0:30:
320,192,89717,1,0,0:0:0:30:
448,192,89717,1,0,0:0:0:0:
192,192,89809,1,0,0:0:0:0:
448,192,89901,1,8,0:0:0:30:
320,192,89993,1,0,0:0:0:0:
192,192,90085,1,0,0:0:0:30:
448,192,90085,1,0,0:0:0:0:
64,192,90085,1,0,0:0:0:0:
320,192,90177,1,0,0:0:0:0:
192,192,90269,1,8,0:0:0:30:
320,192,90361,1,0,0:0:0:0:
64,192,90453,1,4,0:0:0:30:
192,192,90453,1,0,0:0:0:30:
448,192,90453,128,0,90729:0:0:0:0:
320,192,90637,1,0,0:0:0:30:
448,192,90821,128,8,90913:0:0:0:30:
64,192,90821,1,0,0:0:0:0:
192,192,90821,1,0,0:0:0:0:
448,192,91005,128,0,91097:0:0:0:0:
320,192,91005,1,0,0:0:0:0:
448,192,91189,128,0,91281:0:0:0:30:
64,192,91189,1,0,0:0:0:0:
64,192,91373,128,0,91465:0:0:0:30:
320,192,91373,1,0,0:0:0:0:
192,192,91557,128,8,91649:0:0:0:30:
448,192,91557,1,8,0:0:0:30:
64,192,91649,128,0,91741:0:0:0:0:
320,192,91741,128,0,91833:0:0:0:0:
192,192,91833,128,0,91925:0:0:0:0:
448,192,91925,128,0,92201:0:0:0:30:
320,192,91925,1,0,0:0:0:0:
64,192,91925,128,0,92017:0:0:0:0:
448,192,92293,128,8,92385:0:0:0:30:
64,192,92293,1,0,0:0:0:30:
192,192,92293,1,0,0:0:0:0:
448,192,92477,128,0,92569:0:0:0:0:
320,192,92477,1,0,0:0:0:0:
448,192,92662,128,0,92754:0:0:0:30:
64,192,92662,1,0,0:0:0:0:
320,192,92846,128,0,92938:0:0:0:30:
64,192,92846,1,0,0:0:0:0:
192,192,93030,128,8,93122:0:0:0:30:
448,192,93030,1,8,0:0:0:30:
320,192,93030,1,0,0:0:0:0:
64,192,93214,128,0,93306:0:0:0:0:
192,192,93214,1,0,0:0:0:0:
64,192,93398,128,0,93674:0:0:0:30:
320,192,93398,1,0,0:0:0:30:
448,192,93398,1,0,0:0:0:0:
192,192,93582,1,0,0:0:0:0:
64,192,93766,128,8,93858:0:0:0:30:
448,192,93766,1,8,0:0:0:30:
320,192,93766,1,0,0:0:0:0:
64,192,93950,128,0,94042:0:0:0:0:
448,192,93950,1,0,0:0:0:0:
64,192,94134,128,0,94226:0:0:0:30:
192,192,94134,1,0,0:0:0:30:
320,192,94134,1,0,0:0:0:0:
192,192,94318,128,0,94410:0:0:0:0:
448,192,94318,1,0,0:0:0:0:
320,192,94502,128,8,94594:0:0:0:30:
64,192,94502,1,8,0:0:0:30:
192,192,94502,1,0,0:0:0:0:
448,192,94686,128,0,94778:0:0:0:0:
320,192,94686,1,0,0:0:0:0:
192,192,94778,1,0,0:0:0:0:
64,192,94870,128,0,95146:0:0:0:30:
320,192,94870,1,0,0:0:0:30:
448,192,94870,1,0,0:0:0:0:
448,192,95054,1,0,0:0:0:0:
192,192,95238,128,8,95514:0:0:0:30:
320,192,95238,1,8,0:0:0:30:
64,192,95238,1,0,0:0:0:0:
320,192,95422,1,0,0:0:0:0:
320,192,95606,128,0,95882:0:0:0:30:
448,192,95606,1,0,0:0:0:30:
64,192,95606,1,0,0:0:0:0:
64,192,95790,1,0,0:0:0:30:
448,192,95974,128,8,96250:0:0:0:30:
192,192,95974,1,0,0:0:0:0:
320,192,95974,1,0,0:0:0:0:
64,192,96066,1,0,0:0:0:0:
320,192,96158,1,0,0:0:0:30:
192,192,96250,1,0,0:0:0:0:
64,192,96342,1,8,0:0:0:30:
320,192,96342,1,8,0:0:0:30:
448,192,96342,1,0,0:0:0:0:
192,192,96526,1,0,0:0:0:30:
192,192,96710,1,0,0:0:0:30:
64,192,96894,1,8,0:0:0:30:
192,192,96894,1,8,0:0:0:30:
448,192,96894,1,0,0:0:0:0:
320,192,97078,128,0,97170:0:0:0:30:
320,192,97262,128,0,97354:0:0:0:30:
448,192,97446,1,8,0:0:0:30:
320,192,97446,1,0,0:0:0:30:
64,192,97446,1,0,0:0:0:0:
192,192,97630,128,0,97722:0:0:0:30:
448,192,97630,128,0,97722:0:0:0:0:
192,192,97814,128,0,97906:0:0:0:30:
448,192,97814,128,0,97906:0:0:0:0:
64,192,97998,1,8,0:0:0:30:
192,192,97998,1,8,0:0:0:30:
320,192,97998,1,0,0:0:0:0:
448,192,97998,1,0,0:0:0:0:
448,192,100022,128,2,100115:0:0:0:30:
320,192,100022,1,0,0:0:0:0:
320,192,100207,128,2,100299:0:0:0:30:
192,192,100207,1,0,0:0:0:0:
192,192,100391,128,2,100483:0:0:0:30:
64,192,100391,1,0,0:0:0:0:
320,192,100575,1,8,0:0:0:30:
448,192,100575,1,4,0:0:0:30:
64,192,100575,128,0,100851:0:0:0:30:
64,192,100943,128,0,101035:0:0:0:30:
192,192,100943,1,0,0:0:0:0:
64,192,101127,128,8,101403:0:0:0:30:
320,192,101127,1,0,0:0:0:30:
448,192,101127,1,0,0:0:0:0:
192,192,101495,1,0,0:0:0:30:
64,192,101495,128,0,101587:0:0:0:0:
192,192,101679,128,0,101771:0:0:0:30:
320,192,101679,1,0,0:0:0:0:
320,192,101863,128,8,101955:0:0:0:30:
448,192,101863,1,0,0:0:0:0:
448,192,102047,128,4,102323:0:0:0:30:
64,192,102047,1,4,0:0:0:30:
192,192,102047,1,0,0:0:0:30:
448,192,102415,128,0,102507:0:0:0:30:
320,192,102415,1,0,0:0:0:0:
448,192,102599,128,8,102875:0:0:0:30:
64,192,102599,1,8,0:0:0:30:
192,192,102599,1,0,0:0:0:0:
448,192,102967,128,0,103059:0:0:0:30:
192,192,102967,1,0,0:0:0:0:
320,192,103151,128,0,103243:0:0:0:30:
64,192,103151,1,0,0:0:0:0:
192,192,103335,128,0,103427:0:0:0:30:
448,192,103335,1,0,0:0:0:0:
64,192,103519,128,8,103795:0:0:0:30:
320,192,103519,1,4,0:0:0:30:
448,192,103519,1,0,0:0:0:30:
64,192,103887,128,0,103979:0:0:0:30:
320,192,103887,1,0,0:0:0:0:
64,192,104071,128,8,104348:0:0:0:30:
448,192,104071,1,8,0:0:0:30:
192,192,104071,1,0,0:0:0:0:
320,192,104440,128,0,104532:0:0:0:30:
448,192,104440,1,0,0:0:0:0:
192,192,104624,128,0,104716:0:0:0:30:
64,192,104624,1,0,0:0:0:0:
448,192,104808,128,0,104900:0:0:0:30:
320,192,104808,1,0,0:0:0:0:
64,192,104808,1,0,0:0:0:0:
192,192,104992,128,8,105268:0:0:0:30:
64,192,104992,1,4,0:0:0:30:
448,192,104992,1,0,0:0:0:30:
448,192,105360,128,0,105452:0:0:0:30:
192,192,105360,1,0,0:0:0:0:
64,192,105544,128,8,105820:0:0:0:30:
320,192,105544,1,0,0:0:0:30:
448,192,105544,1,0,0:0:0:0:
448,192,105728,1,0,0:0:0:30:
192,192,105912,128,8,106188:0:0:0:30:
320,192,105912,1,8,0:0:0:30:
64,192,105912,1,0,0:0:0:0:
448,192,106096,1,0,0:0:0:0:
320,192,106280,128,0,106372:0:0:0:30:
64,192,106280,1,0,0:0:0:0:
192,192,106280,1,0,0:0:0:0:
448,192,106464,128,8,106740:0:0:0:30:
64,192,106464,1,4,0:0:0:30:
320,192,106464,1,0,0:0:0:30:
448,192,106832,128,0,106924:0:0:0:30:
192,192,106832,1,0,0:0:0:0:
64,192,107016,1,8,0:0:0:30:
320,192,107016,1,0,0:0:0:30:
448,192,107016,128,0,107292:0:0:0:0:
192,192,107384,1,0,0:0:0:30:
448,192,107384,128,0,107476:0:0:0:0:
64,192,107568,1,0,0:0:0:30:
320,192,107568,128,0,107660:0:0:0:0:
192,192,107752,128,8,107844:0:0:0:30:
448,192,107752,1,0,0:0:0:0:
64,192,107936,128,4,108213:0:0:0:30:
320,192,107936,1,4,0:0:0:30:
448,192,107936,1,0,0:0:0:30:
192,192,108305,128,0,108397:0:0:0:30:
448,192,108305,1,0,0:0:0:0:
320,192,108489,128,8,108765:0:0:0:30:
64,192,108489,1,0,0:0:0:30:
448,192,108489,1,0,0:0:0:0:
448,192,108857,128,0,108949:0:0:0:30:
192,192,108857,1,0,0:0:0:0:
64,192,109041,128,0,109133:0:0:0:30:
320,192,109041,1,0,0:0:0:0:
192,192,109225,128,0,109317:0:0:0:30:
448,192,109225,1,0,0:0:0:0:
320,192,109409,128,12,109685:0:0:0:30:
448,192,109409,1,8,0:0:0:30:
64,192,109409,1,0,0:0:0:0:
448,192,109777,128,0,109869:0:0:0:30:
64,192,109777,1,0,0:0:0:0:
320,192,109777,1,0,0:0:0:0:
192,192,109961,128,8,110237:0:0:0:30:
64,192,109961,1,0,0:0:0:30:
448,192,109961,1,0,0:0:0:0:
320,192,110329,128,0,110421:0:0:0:30:
64,192,110329,1,0,0:0:0:0:
448,192,110513,128,0,110605:0:0:0:30:
192,192,110513,1,0,0:0:0:0:
64,192,110697,128,8,110789:0:0:0:30:
192,192,110697,128,0,110789:0:0:0:30:
448,192,110697,1,0,0:0:0:0:
64,192,110881,128,0,110973:0:0:0:30:
320,192,110881,1,0,0:0:0:0:
448,192,110973,1,0,0:0:0:0:
64,192,111065,128,0,111341:0:0:0:0:
192,192,111065,128,8,111157:0:0:0:30:
192,192,111249,128,0,111525:0:0:0:30:
320,192,111249,128,0,111341:0:0:0:0:
320,192,111433,128,8,111709:0:0:0:30:
448,192,111433,128,0,111525:0:0:0:0:
64,192,111433,128,0,111525:0:0:0:0:
448,192,111617,128,0,111894:0:0:0:0:
64,192,111617,128,0,111709:0:0:0:0:
192,192,111617,128,0,111709:0:0:0:0:
320,192,111801,128,0,111894:0:0:0:0:
64,192,111801,128,0,112078:0:0:0:0:
192,192,111801,128,8,111894:0:0:0:0:
192,192,111986,128,0,112262:0:0:0:0:
320,192,111986,128,8,112078:0:0:0:0:
448,192,111986,128,0,112078:0:0:0:0:
320,192,112170,128,0,112262:0:0:0:0:
448,192,112170,128,0,112262:0:0:0:30:
64,192,112170,128,0,112262:0:0:0:0:
64,192,112354,128,0,112446:0:0:0:0:
192,192,112354,128,0,112446:0:0:0:0:
448,192,112354,128,0,112446:0:0:0:0:
320,192,112446,128,0,112538:0:0:0:0:
64,192,112538,128,6,115482:0:0:0:30:
192,192,112538,128,6,115482:0:0:0:30:
448,192,112538,128,0,115482:0:0:0:0:
