osu file format v14

[General]
AudioFilename: audio.mp3
AudioLeadIn: 0
PreviewTime: 50405
Countdown: 0
SampleSet: Soft
StackLeniency: 0.7
Mode: 0
LetterboxInBreaks: 0
WidescreenStoryboard: 0

[Editor]
Bookmarks: 25137,36923,50494,73352,86209,88530
DistanceSpacing: 1.1
BeatDivisor: 4
GridSize: 16
TimelineZoom: 2.6

[Metadata]
Title:Harebare Fanfare
TitleUnicode:晴レ晴レファンファーレ
Artist:mimimemeMIMI
ArtistUnicode:みみめめMIMI
Creator:dorsalplum
Version:Happy Fun Time!
Source:甘々と稲妻
Tags:sweetness & Lightning and Amaama to Inazuma op opening jump training tv size anime loli
BeatmapID:1844692
BeatmapSetID:882373

[Difficulty]
HPDrainRate:5.4
CircleSize:4.1
OverallDifficulty:8
ApproachRate:9.2
SliderMultiplier:1.8
SliderTickRate:1

[Events]
//Background and Video events
0,0,"maxresdefault.jpg",0,0
//Break Periods
//Storyboard Layer 0 (Background)
//Storyboard Layer 1 (Fail)
//Storyboard Layer 2 (Pass)
//Storyboard Layer 3 (Foreground)
//Storyboard Sound Samples

[TimingPoints]
495,357.142857142857,4,2,0,60,1,0
495,-111.111111111111,4,2,0,60,0,0
13352,-100,4,2,0,60,0,0
49066,-66.6666666666667,4,2,0,60,0,0
49334,-66.6666666666667,4,2,0,60,0,0
49423,-71.4285714285714,4,2,0,20,0,0
49691,-71.4285714285714,4,2,0,20,0,0
49780,-76.9230769230769,4,2,0,60,0,0
50048,-76.9230769230769,4,2,0,60,0,0
50137,-83.3333333333333,4,2,0,20,0,0
50405,-83.3333333333333,4,2,0,20,0,0
50494,-90.9090909090909,4,2,0,60,0,1
73352,-111.111111111111,4,2,0,60,0,0
87727,-90.9090909090909,4,2,0,60,0,0
87816,-90.9090909090909,4,2,0,45,0,0
87994,-90.9090909090909,4,2,0,30,0,0
88173,-90.9090909090909,4,2,0,15,0,0
88352,-90.9090909090909,4,2,0,5,0,0

[HitObjects]
433,333,495,6,0,L|433:241,1,80.9999975280763,0|0,0:0|0:0,0:0:0:0:
339,282,852,6,0,L|340:187,1,80.9999975280763
139,228,1209,5,0,0:0:0:0:
207,61,1387,1,0,0:0:0:0:
215,305,1566,1,0,0:0:0:0:
90,89,1744,1,0,0:0:0:0:
62,274,1923,5,0,0:0:0:0:
221,220,2102,1,0,0:0:0:0:
50,166,2280,1,0,0:0:0:0:
162,303,2459,1,0,0:0:0:0:
152,136,2637,1,0,0:0:0:0:
152,136,2816,6,0,P|209:114|318:140,1,161.999995056153,0|0,0:0|0:0,0:0:0:0:
243,276,3352,2,0,L|245:187,1,80.9999975280763
375,60,3709,2,0,L|375:141,1,80.9999975280763
405,311,4066,5,0,0:0:0:0:
321,211,4245,1,0,0:0:0:0:
326,366,4423,1,0,0:0:0:0:
407,189,4602,1,0,0:0:0:0:
168,204,4780,5,0,0:0:0:0:
431,188,4959,1,0,0:0:0:0:
340,283,5137,1,0,0:0:0:0:
292,23,5316,5,0,0:0:0:0:
230,303,5494,1,0,0:0:0:0:
191,50,5673,1,0,0:0:0:0:
297,178,5852,2,0,P|332:173|373:142,1,80.9999975280763
142,227,6209,6,0,L|141:318,1,80.9999975280763
230,303,6566,2,0,L|229:391,1,80.9999975280763
140,378,6923,5,0,0:0:0:0:
258,201,7102,1,0,0:0:0:0:
290,290,7280,1,0,0:0:0:0:
307,117,7459,1,0,0:0:0:0:
156,207,7637,1,0,0:0:0:0:
319,189,7816,1,0,0:0:0:0:
133,199,7995,5,0,0:0:0:0:
166,299,8173,1,0,0:0:0:0:
262,120,8352,1,0,0:0:0:0:
273,301,8530,1,0,0:0:0:0:
288,85,8709,6,0,P|316:67|405:143,1,161.999995056153
214,134,9245,2,0,B|204:98|225:55,1,80.9999975280763
458,246,9602,1,0,0:0:0:0:
369,36,9780,1,0,0:0:0:0:
214,134,9959,2,0,P|244:149|296:157,1,80.9999975280763,0|0,0:0|0:0,0:0:0:0:
309,334,10316,6,0,L|310:242,1,80.9999975280763
227,118,10673,2,0,L|138:117,1,80.9999975280763
411,183,11030,2,0,L|412:88,1,80.9999975280763
412,103,11387,5,0,0:0:0:0:
412,103,11566,1,0,0:0:0:0:
412,103,12905,5,0,0:0:0:0:
360,91,12994,1,0,0:0:0:0:
312,98,13084,1,0,0:0:0:0:
272,120,13173,1,0,0:0:0:0:
241,155,13262,1,0,0:0:0:0:
223,195,13352,6,0,B|207:243|245:292,1,90,0|0,0:0|0:0,0:0:0:0:
381,366,13709,2,0,B|395:308|366:262,1,90,0|0,0:0|0:0,0:0:0:0:
362,103,14066,1,0,0:0:0:0:
223,195,14244,1,0,0:0:0:0:
374,277,14423,1,0,0:0:0:0:
227,107,14602,6,0,P|216:151|228:207,1,90,0|0,0:0|0:0,0:0:0:0:
372,362,14959,2,0,P|384:328|367:266,1,90,0|0,0:0|0:0,0:0:0:0:
123,309,15316,2,0,P|167:319|229:300,1,90,0|0,0:0|0:0,0:0:0:0:
341,118,15673,1,0,0:0:0:0:
263,190,15852,1,0,0:0:0:0:
350,258,16030,1,0,0:0:0:0:
211,112,16209,6,0,P|208:159|167:198,1,90,0|0,0:0|0:0,0:0:0:0:
72,314,16566,2,0,P|72:267|100:228,1,90,0|0,0:0|0:0,0:0:0:0:
350,258,16923,6,0,P|339:212|304:170,1,90,0|0,0:0|0:0,0:0:0:0:
229,45,17280,2,0,P|216:90|231:135,1,90,0|0,0:0|0:0,0:0:0:0:
313,178,17637,1,0,0:0:0:0:
100,86,17816,1,0,0:0:0:0:
158,286,17994,1,0,0:0:0:0:
199,54,18173,5,0,0:0:0:0:
120,189,18352,1,0,0:0:0:0:
257,88,18530,1,0,0:0:0:0:
271,259,18709,1,0,0:0:0:0:
120,189,18887,6,0,P|104:138|115:85,1,90,0|0,0:0|0:0,0:0:0:0:
288,41,19244,5,0,0:0:0:0:
271,259,19423,1,0,0:0:0:0:
360,106,19602,1,0,0:0:0:0:
143,130,19780,5,0,0:0:0:0:
217,270,19959,1,0,0:0:0:0:
138,164,20137,1,0,0:0:0:0:
290,158,20316,1,0,0:0:0:0:
123,349,20494,1,0,0:0:0:0:
209,156,20673,1,0,0:0:0:0:
282,354,20852,1,0,0:0:0:0:
210,144,21030,1,0,0:0:0:0:
56,266,21209,6,0,L|69:168,1,90,0|0,0:0|0:0,0:0:0:0:
44,352,21566,1,0,0:0:0:0:
145,99,21744,1,0,0:0:0:0:
145,99,21834,1,0,0:0:0:0:
145,99,21923,2,0,P|182:83|247:80,1,90,0|0,0:0|0:0,0:0:0:0:
289,137,22280,5,0,0:0:0:0:
289,137,22459,2,0,P|287:191|311:237,1,90,0|0,0:0|0:0,0:0:0:0:
379,263,22816,1,0,0:0:0:0:
343,76,22994,2,0,P|313:60|249:68,1,90,0|0,0:0|0:0,0:0:0:0:
104,138,23352,6,0,L|100:35,1,90
208,139,23709,2,0,L|212:36,1,90
108,277,24066,2,0,B|156:270|156:270|207:274,1,90,0|0,0:0|0:0,0:0:0:0:
266,354,24423,1,0,0:0:0:0:
285,163,24602,1,0,0:0:0:0:
343,264,24780,2,0,P|377:231|392:176,1,90,0|0,0:0|0:0,0:0:0:0:
365,61,25137,6,0,P|318:62|270:94,1,90,0|0,0:0|0:0,0:0:0:0:
79,127,25494,2,0,P|97:167|132:195,1,90,0|0,0:0|0:0,0:0:0:0:
233,329,25851,2,0,P|263:296|274:253,1,90,0|0,0:0|0:0,0:0:0:0:
278,238,26209,5,0,0:0:0:0:
305,64,26387,1,0,0:0:0:0:
225,324,26566,5,0,0:0:0:0:
165,121,26744,1,0,0:0:0:0:
65,336,26923,1,0,0:0:0:0:
249,160,27102,1,0,0:0:0:0:
332,294,27280,1,0,0:0:0:0:
332,294,27369,1,0,0:0:0:0:
332,294,27459,2,0,P|378:303|422:284,1,90
320,79,27816,5,0,0:0:0:0:
238,273,27994,1,0,0:0:0:0:
238,51,28173,1,0,0:0:0:0:
332,294,28352,2,0,L|332:395,1,90
240,179,28709,2,0,L|240:79,1,90,0|0,0:0|0:0,0:0:0:0:
86,275,29066,5,0,0:0:0:0:
342,239,29244,1,0,0:0:0:0:
124,203,29423,5,0,0:0:0:0:
298,360,29602,1,0,0:0:0:0:
225,190,29780,5,0,0:0:0:0:
144,370,29959,1,0,0:0:0:0:
182,122,30137,1,0,0:0:0:0:
250,342,30316,1,0,0:0:0:0:
115,172,30494,6,0,L|113:72,1,90,0|0,0:0|0:0,0:0:0:0:
331,174,30852,2,0,P|378:176|423:204,1,90
247,241,31209,2,0,P|196:247|143:232,1,90,0|0,0:0|0:0,0:0:0:0:
266,99,31566,1,0,0:0:0:0:
322,276,31744,1,0,0:0:0:0:
93,95,31923,6,0,B|177:60|187:144|277:94,1,180,0|0,0:0|0:0,0:0:0:0:
323,197,32459,2,0,P|281:180|234:183,1,90,0|0,0:0|0:0,0:0:0:0:
215,341,32816,1,0,0:0:0:0:
266,99,32994,1,0,0:0:0:0:
375,336,33173,5,0,0:0:0:0:
375,336,33262,1,0,0:0:0:0:
375,336,33352,2,0,P|386:283|373:212,1,90,0|0,0:0|0:0,0:0:0:0:
267,184,33709,2,0,P|254:137|272:88,1,90
280,295,34066,2,0,L|172:296,1,90,0|0,0:0|0:0,0:0:0:0:
50,219,34423,2,0,L|150:220,1,90,0|0,0:0|0:0,0:0:0:0:
317,63,34780,5,0,0:0:0:0:
273,286,34959,1,0,0:0:0:0:
218,71,35137,1,0,0:0:0:0:
271,329,35316,1,0,0:0:0:0:
352,119,35494,2,0,P|268:89|176:130,1,180
296,215,36030,5,0,0:0:0:0:
118,314,36209,2,0,B|105:273|116:222,1,90
184,31,36566,2,0,P|192:74|186:118,1,90
340,277,36923,6,0,P|295:283|251:275,1,90,0|0,0:0|0:0,0:0:0:0:
293,87,37280,2,0,L|294:187,1,90,0|0,0:0|0:0,0:0:0:0:
494,208,37637,2,0,P|467:163|420:143,1,90
464,73,37994,6,0,P|430:71|376:200,1,180
402,344,38530,5,0,0:0:0:0:
402,344,38619,1,0,0:0:0:0:
402,344,38709,2,0,P|417:302|408:258,1,90,0|0,0:0|0:0,0:0:0:0:
383,143,39066,2,0,B|277:111|313:177|201:143,1,180,0|0,0:0|0:0,0:0:0:0:
171,235,39602,5,0,0:0:0:0:
171,235,39780,2,0,P|156:201|162:142,1,90,0|0,0:0|0:0,0:0:0:0:
223,8,40137,5,0,0:0:0:0:
314,131,40316,1,0,0:0:0:0:
157,149,40494,2,0,P|191:124|255:114,1,90,0|0,0:0|0:0,0:0:0:0:
314,131,40852,1,0,0:0:0:0:
377,174,41030,1,0,0:0:0:0:
413,243,41209,1,0,0:0:0:0:
422,329,41387,5,0,0:0:0:0:
422,329,41566,2,0,P|427:289|405:231,1,90,0|0,0:0|0:0,0:0:0:0:
313,98,41923,2,0,L|313:200,1,90,0|0,0:0|0:0,0:0:0:0:
190,274,42280,2,0,B|237:286|237:286|279:276,1,90,0|0,0:0|0:0,0:0:0:0:
110,208,42637,2,0,B|63:196|63:196|21:206,1,90,0|0,0:0|0:0,0:0:0:0:
268,95,42994,1,0,0:0:0:0:
268,95,43352,6,0,B|230:199|305:171|272:302,1,180,0|0,0:0|0:0,0:0:0:0:
352,327,43887,5,0,0:0:0:0:
301,146,44066,1,0,0:0:0:0:
258,367,44244,5,0,0:0:0:0:
303,163,44423,1,0,0:0:0:0:
398,356,44602,5,0,0:0:0:0:
398,356,44691,1,0,0:0:0:0:
398,356,44780,2,0,P|374:314|378:265,1,90,0|0,0:0|0:0,0:0:0:0:
336,46,45137,2,0,P|360:88|356:137,1,90,0|0,0:0|0:0,0:0:0:0:
335,244,45494,1,0,0:0:0:0:
282,91,45673,1,0,0:0:0:0:
222,308,45852,6,0,P|199:276|187:223,1,90,0|0,0:0|0:0,0:0:0:0:
296,63,46209,1,0,0:0:0:0:
281,279,46387,1,0,0:0:0:0:
348,76,46566,5,0,0:0:0:0:
420,335,46744,1,0,0:0:0:0:
277,117,46923,1,0,0:0:0:0:
227,340,47102,1,0,0:0:0:0:
364,51,47280,1,0,0:0:0:0:
144,199,47459,5,0,0:0:0:0:
144,199,47548,1,0,0:0:0:0:
144,199,47638,2,0,P|187:176|245:174,1,90,0|0,0:0|0:0,0:0:0:0:
231,257,47994,5,0,0:0:0:0:
285,31,48173,1,0,0:0:0:0:
317,301,48351,5,0,0:0:0:0:
208,103,48530,1,0,0:0:0:0:
219,358,48709,5,0,0:0:0:0:
361,195,48887,1,0,0:0:0:0:
143,230,49066,6,0,P|185:237|117:306,1,202.500007724762,0|0,0:0|0:0,0:0:0:0:
62,266,49423,6,0,L|210:148,1,188.999994232178,0|0,0:0|0:0,0:0:0:0:
244,128,49780,6,0,P|240:213|333:234,1,175.499991966248,0|0,0:0|0:0,0:0:0:0:
339,239,50137,6,0,P|391:269|336:262,1,161.999995056153,0|0,0:0|0:0,0:0:0:0:
231,274,50494,6,0,L|230:382,1,99.0000030212403,0|0,0:0|0:0,0:0:0:0:
151,116,50852,2,0,L|152:10,1,99.0000030212403,0|0,0:0|0:0,0:0:0:0:
315,144,51209,5,0,0:0:0:0:
143,239,51387,1,0,0:0:0:0:
321,260,51566,1,0,0:0:0:0:
106,184,51744,1,0,0:0:0:0:
130,325,51923,5,0,0:0:0:0:
189,174,52102,1,0,0:0:0:0:
302,325,52280,1,0,0:0:0:0:
270,133,52459,1,0,0:0:0:0:
80,94,52637,6,0,P|118:63|208:69,1,99.0000030212403,0|0,0:0|0:0,0:0:0:0:
129,219,52994,2,0,P|90:249|5:238,1,99.0000030212403,0|0,0:0|0:0,0:0:0:0:
329,79,53352,6,0,L|327:232,1,148.50000453186,0|0,0:0|0:0,0:0:0:0:
383,312,53709,6,0,P|325:270|235:319,1,148.50000453186,0|0,0:0|0:0,0:0:0:0:
83,255,54066,5,0,0:0:0:0:
376,195,54244,1,0,0:0:0:0:
86,182,54423,5,0,0:0:0:0:
369,229,54602,1,0,0:0:0:0:
184,340,54780,5,0,0:0:0:0:
264,118,54959,1,0,0:0:0:0:
290,349,55137,1,0,0:0:0:0:
190,154,55316,1,0,0:0:0:0:
350,287,55494,2,0,P|377:223|362:160,1,99.0000030212403
280,24,55852,2,0,P|259:82|268:130,1,99.0000030212403
176,194,56209,6,0,L|336:206,1,148.50000453186,0|0,0:0|0:0,0:0:0:0:
456,285,56566,6,0,L|283:299,1,148.50000453186,0|0,0:0|0:0,0:0:0:0:
91,271,56923,1,0,0:0:0:0:
324,205,57102,1,0,0:0:0:0:
83,211,57280,1,0,0:0:0:0:
326,318,57459,1,0,0:0:0:0:
373,58,57637,5,0,0:0:0:0:
373,359,57816,1,0,0:0:0:0:
295,92,57994,1,0,0:0:0:0:
196,334,58173,5,0,0:0:0:0:
360,145,58352,1,0,0:0:0:0:
111,205,58530,5,0,0:0:0:0:
444,278,58709,2,0,P|389:279|289:344,1,148.50000453186,0|0,0:0|0:0,0:0:0:0:
278,356,59066,2,0,P|269:264|256:227,1,99.0000030212403,0|0,0:0|0:0,0:0:0:0:
177,88,59423,1,0,0:0:0:0:
130,343,59602,1,0,0:0:0:0:
270,202,59780,1,0,0:0:0:0:
270,202,59959,6,0,L|367:217,1,99.0000030212403,0|0,0:0|0:0,0:0:0:0:
434,342,60316,6,0,P|453:299|427:230,1,99.0000030212403,0|0,0:0|0:0,0:0:0:0:
375,121,60673,2,0,P|362:192|385:251,1,99.0000030212403
355,293,61030,2,0,L|254:293,1,99.0000030212403
102,91,61387,5,0,0:0:0:0:
202,354,61566,1,0,0:0:0:0:
231,82,61744,5,0,0:0:0:0:
125,363,61923,2,0,P|122:293|84:214,1,148.50000453186,0|0,0:0|0:0,0:0:0:0:
69,198,62280,6,0,L|169:197,1,99.0000030212403,0|0,0:0|0:0,0:0:0:0:
392,213,62637,1,0,0:0:0:0:
216,110,62816,1,0,0:0:0:0:
395,84,62994,1,0,0:0:0:0:
98,136,63173,1,0,0:0:0:0:
381,90,63352,1,0,0:0:0:0:
154,320,63530,5,0,0:0:0:0:
216,110,63709,1,0,0:0:0:0:
271,258,63887,1,0,0:0:0:0:
88,195,64066,1,0,0:0:0:0:
435,196,64244,1,0,0:0:0:0:
435,196,64423,6,0,P|394:169|328:164,1,99.0000030212403,0|0,0:0|0:0,0:0:0:0:
130,256,64780,6,0,P|138:198|194:251,1,148.50000453186,0|0,0:0|0:0,0:0:0:0:
218,258,65137,6,0,B|260:278|294:250|294:250|309:245|367:260,1,148.50000453186,0|0,0:0|0:0,0:0:0:0:
372,63,65494,1,0,0:0:0:0:
453,232,65673,1,0,0:0:0:0:
297,127,65852,1,0,0:0:0:0:
481,100,66030,1,0,0:0:0:0:
263,133,66209,1,0,0:0:0:0:
496,249,66387,1,0,0:0:0:0:
289,63,66566,5,0,0:0:0:0:
188,303,66744,1,0,0:0:0:0:
200,124,66923,1,0,0:0:0:0:
265,352,67102,1,0,0:0:0:0:
274,172,67280,2,0,P|296:129|378:97,1,99.0000030212403
453,272,67637,6,0,B|344:267|344:267|290:291,1,148.50000453186,0|0,0:0|0:0,0:0:0:0:
276,321,67994,6,0,P|247:236|263:165,1,148.50000453186,0|0,0:0|0:0,0:0:0:0:
337,101,68352,5,0,0:0:0:0:
163,211,68530,1,0,0:0:0:0:
365,207,68709,5,0,0:0:0:0:
111,142,68887,1,0,0:0:0:0:
300,283,69066,5,0,0:0:0:0:
216,55,69244,1,0,0:0:0:0:
221,276,69423,5,0,0:0:0:0:
425,123,69601,1,0,0:0:0:0:
343,324,69780,1,0,0:0:0:0:
298,168,69959,1,0,0:0:0:0:
282,287,70137,1,0,0:0:0:0:
419,176,70316,5,0,0:0:0:0:
419,176,70406,1,0,0:0:0:0:
419,176,70495,2,0,P|450:216|466:285,1,99.0000030212403,0|0,0:0|0:0,0:0:0:0:
453,351,70852,1,0,0:0:0:0:
376,290,71030,1,2,0:0:0:0:
281,274,71209,6,0,P|312:230|362:211,1,99.0000030212403,0|0,0:0|0:0,0:0:0:0:
442,92,71566,2,0,L|443:207,1,99.0000030212403,0|0,0:0|0:0,0:0:0:0:
453,351,71923,5,0,0:0:0:0:
351,123,72102,1,0,0:0:0:0:
160,263,72280,1,0,0:0:0:0:
365,214,72459,1,0,0:0:0:0:
179,144,72637,1,0,0:0:0:0:
281,314,72816,1,0,0:0:0:0:
306,127,72994,1,0,0:0:0:0:
136,221,73173,5,0,0:0:0:0:
136,221,73352,2,0,P|151:259|160:314,1,80.9999975280763,0|0,0:0|0:0,0:0:0:0:
244,362,73709,2,0,P|239:310|253:252,1,80.9999975280763,0|0,0:0|0:0,0:0:0:0:
264,183,74066,2,0,L|369:198,2,80.9999975280763,0|0|0,0:0|0:0|0:0,0:0:0:0:
153,177,74602,5,0,0:0:0:0:
153,177,74780,2,0,P|171:145|169:75,1,80.9999975280763,0|0,0:0|0:0,0:0:0:0:
239,246,75137,2,0,P|230:287|254:359,1,80.9999975280763,0|0,0:0|0:0,0:0:0:0:
363,290,75494,6,0,B|284:318|288:246|175:303,1,161.999995056153,0|0,0:0|0:0,0:0:0:0:
135,188,76030,1,0,0:0:0:0:
135,188,76209,2,0,L|133:288,1,80.9999975280763,0|0,0:0|0:0,0:0:0:0:
273,350,76566,6,0,L|174:351,1,80.9999975280763,0|0,0:0|0:0,0:0:0:0:
250,184,76923,2,0,L|335:183,1,80.9999975280763,0|0,0:0|0:0,0:0:0:0:
459,198,77280,2,0,P|414:219|320:198,1,121.499996292114,0|0,0:0|0:0,0:0:0:0:
313,204,77637,6,0,P|343:270|393:96,1,485.999985168458,0|0,0:0|0:0,0:0:0:0:
411,205,78887,1,0,0:0:0:0:
411,205,78977,1,0,0:0:0:0:
411,205,79066,2,0,P|405:247|415:311,1,80.9999975280763,0|0,0:0|0:0,0:0:0:0:
313,130,79423,2,0,P|319:88|309:24,1,80.9999975280763,0|0,0:0|0:0,0:0:0:0:
279,347,79780,5,0,0:0:0:0:
279,192,79959,1,0,0:0:0:0:
216,350,80137,1,0,0:0:0:0:
212,160,80316,1,0,0:0:0:0:
112,321,80494,5,0,0:0:0:0:
310,278,80673,1,0,0:0:0:0:
121,216,80852,1,0,0:0:0:0:
238,359,81030,5,0,0:0:0:0:
281,145,81209,1,0,0:0:0:0:
284,354,81387,1,0,0:0:0:0:
201,156,81566,1,0,0:0:0:0:
127,279,81744,5,0,0:0:0:0:
127,279,81923,2,0,P|176:276|220:252,1,80.9999975280763,0|0,0:0|0:0,0:0:0:0:
340,149,82280,2,0,P|351:186|340:264,1,80.9999975280763
278,346,82637,1,2,0:0:0:0:
195,184,82816,1,0,0:0:0:0:
351,229,82994,1,0,0:0:0:0:
197,112,83173,6,0,P|191:77|216:1,1,80.9999975280763,0|0,0:0|0:0,0:0:0:0:
353,150,83530,2,0,P|359:185|334:261,1,80.9999975280763,0|0,0:0|0:0,0:0:0:0:
143,320,83887,2,0,P|136:280|144:240,1,80.9999975280763,0|0,0:0|0:0,0:0:0:0:
298,107,84244,1,0,0:0:0:0:
247,316,84423,1,0,0:0:0:0:
191,79,84602,1,0,0:0:0:0:
355,230,84780,5,0,0:0:0:0:
45,218,84959,1,0,0:0:0:0:
364,245,85137,5,0,0:0:0:0:
110,169,85316,1,0,0:0:0:0:
193,355,85494,5,0,0:0:0:0:
221,76,85673,1,0,0:0:0:0:
40,273,85852,5,0,0:0:0:0:
323,274,86030,1,0,0:0:0:0:
207,0,86209,5,8,3:0:0:0:
433,210,86387,1,8,3:0:0:0:
65,121,86566,5,8,3:0:0:0:
419,125,86744,1,8,3:0:0:0:
134,364,86923,5,8,3:0:0:0:
252,30,87102,1,8,3:0:0:0:
334,289,87280,1,8,3:0:0:0:
39,171,87459,5,8,3:0:0:0:
389,57,87637,1,4,3:0:0:0:
256,192,87727,12,0,88531,0:0:0:0:
