osu file format v14

[General]
AudioFilename: audio.mp3
AudioLeadIn: 0
PreviewTime: 73262
Countdown: 0
SampleSet: Soft
StackLeniency: 0.7
Mode: 0
LetterboxInBreaks: 0
WidescreenStoryboard: 0

[Editor]
Bookmarks: 12905,16209,39066,44780,50494,59066,61923,70494,73352,79066,81923,84780,87637
DistanceSpacing: 1.3
BeatDivisor: 4
GridSize: 16
TimelineZoom: 2

[Metadata]
Title:Harebare Fanfare (TV Size)
TitleUnicode:晴レ晴レファンファーレ (TV Size)
Artist:mimimemeMIMI
ArtistUnicode:みみめめMIMI
Creator:Mimari
Version:Shining Smile
Source:甘々と稲妻
Tags:Sweetness & Lightning and Amaama to Inazuma op opening
BeatmapID:2123293
BeatmapSetID:1014523

[Difficulty]
HPDrainRate:6
CircleSize:3.8
OverallDifficulty:8
ApproachRate:9
SliderMultiplier:1.4
SliderTickRate:1

[Events]
//Background and Video events
0,0,"smile.png",0,0
//Break Periods
//Storyboard Layer 0 (Background)
//Storyboard Layer 1 (Fail)
//Storyboard Layer 2 (Pass)
//Storyboard Layer 3 (Foreground)
//Storyboard Sound Samples

[TimingPoints]
495,357.142857142857,4,2,0,100,1,0
8709,-71.4285714285714,4,2,0,100,0,0
8977,-71.4285714285714,4,2,0,5,0,0
9066,-71.4285714285714,4,2,0,100,0,0
10494,-66.6666666666667,4,2,0,100,0,0
12905,-76.9230769230769,4,2,0,100,0,0
16209,-90.9090909090909,4,2,0,100,0,0
19066,-76.9230769230769,4,2,0,100,0,0
20494,-90.9090909090909,4,2,0,100,0,0
21923,-76.9230769230769,4,2,0,100,0,0
22637,-90.9090909090909,4,2,0,100,0,0
24780,-76.9230769230769,4,2,0,100,0,0
25137,-90.9090909090909,4,2,0,100,0,0
27637,-76.9230769230769,4,2,0,100,0,0
28352,-90.9090909090909,4,2,0,100,0,0
30494,-76.9230769230769,4,2,0,100,0,0
30852,-90.9090909090909,4,2,0,100,0,0
31209,-76.9230769230769,4,2,0,100,0,0
31744,-90.9090909090909,4,2,0,100,0,0
33352,-76.9230769230769,4,2,0,100,0,0
34066,-90.9090909090909,4,2,0,100,0,0
36209,-83.3333333333333,4,2,0,100,0,0
36566,-90.9090909090909,4,2,0,100,0,0
37637,-62.5,4,2,0,100,0,0
37905,-62.5,4,2,0,5,0,0
37994,-100,4,2,0,100,0,0
38262,-100,4,2,0,5,0,0
38352,-100,4,2,0,100,0,0
38709,-62.5,4,2,0,100,0,0
38977,-62.5,4,2,0,5,0,0
39066,-111.111111111111,4,2,0,100,0,0
44780,-83.3333333333333,4,2,0,100,0,0
46209,-80,4,2,0,100,0,0
47637,-66.6666666666667,4,2,0,100,0,0
47905,-76.9230769230769,4,2,0,5,0,0
47994,-76.9230769230769,4,2,0,100,0,0
50494,-66.6666666666667,4,2,0,100,0,1
59066,-83.3333333333333,4,2,0,100,0,0
61923,-66.6666666666667,4,2,0,100,0,1
70494,-83.3333333333333,4,2,0,100,0,0
73352,-111.111111111111,4,2,0,100,0,0
77637,-133.333333333333,4,2,0,100,0,0
79066,-66.6666666666667,4,2,0,100,0,1
81923,-86.9565217391304,4,2,0,100,0,0
83173,-80,4,2,0,100,0,0
83441,-80,4,2,0,5,0,0
83530,-80,4,2,0,100,0,0
83798,-80,4,2,0,5,0,0
83887,-80,4,2,0,100,0,0
84780,-66.6666666666667,4,2,0,100,0,1
87637,-58.8235294117647,4,2,0,100,0,0
88352,-58.8235294117647,4,2,0,5,0,0

[Colours]
Combo1 : 248,137,137
Combo2 : 241,203,124
Combo3 : 147,228,126
Combo4 : 241,230,163

[HitObjects]
68,236,495,6,0,P|102:220|149:222,1,70
59,264,852,2,0,P|87:239|133:229,1,70
204,272,1209,5,0,0:0:0:0:
233,180,1387,1,0,0:0:0:0:
191,298,1566,1,0,0:0:0:0:
270,315,1744,1,0,0:0:0:0:
120,367,1923,2,0,P|76:363|45:359,1,70
277,303,2280,2,0,P|321:299|352:295,1,70
214,384,2637,1,0,0:0:0:0:
286,290,2816,2,0,P|340:283|442:269,1,140
302,201,3352,6,0,P|298:243|295:277,1,70
395,144,3709,2,0,P|391:101|388:68,1,70
234,140,4066,5,0,0:0:0:0:
312,114,4244,1,0,0:0:0:0:
173,82,4423,1,0,0:0:0:0:
192,126,4602,2,0,L|186:174,1,35
153,41,4780,2,0,P|114:33|78:22,1,70
11,161,5137,2,0,P|44:151|78:144,1,70
173,82,5494,1,0,0:0:0:0:
23,185,5673,2,0,P|56:175|177:150,1,140
343,107,6209,6,0,P|299:104|248:97,1,70
455,21,6566,2,0,P|420:24|385:27,1,70
501,154,6923,1,0,0:0:0:0:
468,37,7102,1,0,0:0:0:0:
398,190,7280,1,0,0:0:0:0:
456,248,7459,1,0,0:0:0:0:
412,106,7637,5,0,0:0:0:0:
372,96,7816,1,0,0:0:0:0:
289,215,7994,1,0,0:0:0:0:
316,208,8173,1,0,0:0:0:0:
197,158,8352,1,0,0:0:0:0:
213,341,8530,1,0,0:0:0:0:
346,136,8709,6,0,P|372:95|317:121,1,146.999995513916
313,133,9066,2,0,P|304:84|280:15,1,97.9999970092774
160,192,9423,1,0,0:0:0:0:
97,130,9602,2,0,P|106:81|130:12,1,97.9999970092774
250,194,9959,2,0,P|264:240|273:288,1,97.9999970092774
73,217,10316,5,0,0:0:0:0:
160,369,10494,2,0,P|168:320|186:258,1,105.000004005432
320,129,10852,1,0,0:0:0:0:
188,205,11030,2,0,P|202:251|212:308,1,105.000004005432
363,355,11387,1,0,0:0:0:0:
64,323,11566,1,0,0:0:0:0:
70,315,12905,6,0,L|28:308,8,22.7499989585877
91,330,13352,6,0,P|138:324|186:319,1,90.9999958343508
269,232,13709,2,0,P|223:227|178:221,1,90.9999958343508
9,117,14066,1,0,0:0:0:0:
176,93,14244,1,0,0:0:0:0:
147,173,14423,1,0,0:0:0:0:
115,31,14602,6,0,P|160:24|206:16,1,90.9999958343508
347,95,14959,2,0,P|302:88|256:80,1,90.9999958343508
106,24,15316,2,0,P|151:17|197:9,1,90.9999958343508
358,107,15673,1,0,0:0:0:0:
273,52,15852,1,0,0:0:0:0:
443,9,16030,1,0,0:0:0:0:
501,202,16209,6,0,P|496:249|490:292,1,77.0000023498536
329,345,16566,1,0,0:0:0:0:
405,361,16744,1,0,0:0:0:0:
258,232,16923,2,0,P|183:249|107:261,1,154.000004699707
27,178,17459,1,0,0:0:0:0:
74,117,17637,2,0,P|65:69|56:37,1,77.0000023498536
157,176,17994,5,0,0:0:0:0:
227,137,18173,1,0,0:0:0:0:
174,15,18352,1,0,0:0:0:0:
230,155,18530,1,0,0:0:0:0:
376,59,18709,1,0,0:0:0:0:
297,37,18887,2,0,L|237:43,1,38.5000011749268
389,212,19066,6,0,P|432:217|502:222,1,90.9999958343508
314,127,19423,1,0,0:0:0:0:
230,155,19602,1,0,0:0:0:0:
335,301,19780,1,0,0:0:0:0:
352,250,19959,1,0,0:0:0:0:
186,318,20137,1,0,0:0:0:0:
214,330,20316,1,0,0:0:0:0:
53,246,20494,6,0,P|61:300|66:348,1,77.0000023498536
191,192,20852,2,0,P|199:138|204:90,1,77.0000023498536
40,257,21209,1,0,0:0:0:0:
125,280,21387,1,0,0:0:0:0:
18,170,21566,1,0,0:0:0:0:
0,350,21744,1,0,0:0:0:0:
179,176,21923,6,0,P|171:122|162:64,1,90.9999958343508
100,231,22280,1,0,0:0:0:0:
156,164,22459,1,0,0:0:0:0:
238,295,22637,2,0,P|230:349|225:397,1,77.0000023498536
282,170,22994,1,0,0:0:0:0:
243,150,23173,1,0,0:0:0:0:
369,261,23352,6,0,P|407:255|445:250,1,77.0000023498536
508,103,23709,2,0,P|469:98|431:92,1,77.0000023498536
361,243,24066,1,0,0:0:0:0:
486,208,24244,1,0,0:0:0:0:
434,112,24423,1,0,0:0:0:0:
489,40,24602,2,0,L|508:0,1,38.5000011749268
341,100,24780,6,0,P|348:146|357:211,1,90.9999958343508
205,110,25137,2,0,P|210:71|216:33,1,77.0000023498536
220,119,25494,2,0,P|218:93|211:61,1,38.5000011749268
195,67,25673,1,0,0:0:0:0:
83,167,25852,2,0,P|88:205|94:243,1,77.0000023498536
231,324,26209,6,0,P|236:285|242:247,1,77.0000023498536
90,375,26566,2,0,P|84:336|78:298,1,77.0000023498536
120,225,26923,2,0,P|118:251|111:283,1,38.5000011749268
95,277,27102,1,0,0:0:0:0:
17,145,27280,1,0,0:0:0:0:
1,54,27459,1,0,0:0:0:0:
202,0,27637,6,0,P|250:8|296:16,1,90.9999958343508
365,98,27994,1,0,0:0:0:0:
435,52,28173,1,0,0:0:0:0:
487,194,28352,2,0,P|432:204|403:210,1,77.0000023498536
512,168,28709,1,0,0:0:0:0:
381,235,28887,2,0,L|324:224,1,38.5000011749268
221,177,29066,5,0,0:0:0:0:
233,252,29244,1,0,0:0:0:0:
299,141,29423,1,0,0:0:0:0:
311,50,29602,1,0,0:0:0:0:
170,79,29780,1,0,0:0:0:0:
80,100,29959,1,0,0:0:0:0:
313,34,30137,1,0,0:0:0:0:
405,55,30316,1,0,0:0:0:0:
169,98,30494,6,0,P|124:90|79:80,1,90.9999958343508
282,193,30852,2,0,P|319:186|357:177,1,77.0000023498536
188,315,31209,2,0,B|84:265|109:358|4:295,1,181.999991668702
205,298,31744,2,0,P|179:286|154:283,1,38.5000011749268
89,314,31923,6,0,P|41:314|0:291,1,77.0000023498536
165,194,32280,1,0,0:0:0:0:
153,251,32459,1,0,0:0:0:0:
43,102,32637,2,0,P|64:96|96:89,1,38.5000011749268
121,98,32816,1,0,0:0:0:0:
216,62,32994,1,0,0:0:0:0:
239,46,33173,1,0,0:0:0:0:
416,4,33352,6,0,P|409:47|401:105,1,90.9999958343508
482,201,33709,1,0,0:0:0:0:
367,235,33887,1,0,0:0:0:0:
500,182,34066,2,0,P|493:136|468:20,1,154.000004699707
482,201,34602,1,0,0:0:0:0:
311,136,34780,6,0,P|355:128|392:123,1,77.0000023498536
461,289,35137,2,0,P|417:281|380:276,1,77.0000023498536
300,119,35494,1,0,0:0:0:0:
381,102,35673,1,0,0:0:0:0:
166,28,35852,1,0,0:0:0:0:
223,89,36031,1,0,0:0:0:0:
34,11,36209,6,0,P|42:60|51:123,1,83.9999974365235
191,176,36566,2,0,P|197:138|204:95,1,77.0000023498536
56,240,36923,1,0,0:0:0:0:
66,179,37102,1,0,0:0:0:0:
152,315,37280,2,0,P|145:277|137:229,1,77.0000023498536
72,50,37637,6,0,P|126:78|222:33,1,168
196,28,37994,2,0,P|151:49|81:26,1,105
142,12,38352,5,0,0:0:0:0:
214,76,38530,1,0,0:0:0:0:
423,1,38709,2,0,B|376:89|478:76|400:195,1,168
399,173,39066,6,0,P|367:158|280:209,1,125.999996154785
301,203,39602,1,0,0:0:0:0:
134,353,40137,2,0,P|126:318|116:275,2,62.9999980773926
54,195,40852,1,0,0:0:0:0:
110,52,41209,5,0,0:0:0:0:
71,62,41387,1,0,0:0:0:0:
202,116,41566,2,0,P|253:149|312:133,1,125.999996154785
448,63,42280,2,0,P|456:28|466:-15,2,62.9999980773926
395,218,42994,2,0,B|402:262|402:296|402:296|403:303|403:303|403:308|403:308|405:316|405:316|403:324|403:324|405:329|405:329|403:336|403:336|405:342|405:342|405:355,1,125.999996154785
459,152,43709,5,0,0:0:0:0:
294,119,44066,1,0,0:0:0:0:
253,138,44244,1,0,0:0:0:0:
204,225,44423,1,0,0:0:0:0:
207,242,44602,1,0,0:0:0:0:
48,117,44780,6,0,P|37:67|25:29,1,83.9999974365235
147,161,45137,1,0,0:0:0:0:
177,68,45316,1,0,0:0:0:0:
47,204,45494,1,0,0:0:0:0:
62,258,45673,2,0,P|49:298|41:339,1,83.9999974365235
144,176,46030,5,0,0:0:0:0:
207,236,46209,2,0,P|219:276|229:329,1,87.5
289,123,46566,1,0,0:0:0:0:
240,215,46744,1,0,0:0:0:0:
167,62,46923,1,0,0:0:0:0:
151,20,47102,1,0,0:0:0:0:
334,143,47280,5,0,0:0:0:0:
149,116,47459,2,0,P|128:118|103:125,1,43.75
28,226,47637,6,0,P|17:174|0:57,1,157.500006008148
14,28,47994,1,0,0:0:0:0:
268,0,48352,1,0,0:0:0:0:
249,51,48530,1,0,0:0:0:0:
375,124,48709,1,0,0:0:0:0:
395,212,48887,1,0,0:0:0:0:
211,317,49066,5,0,0:0:0:0:
240,106,49244,1,0,0:0:0:0:
296,172,49423,5,0,0:0:0:0:
6,151,49602,1,0,0:0:0:0:
40,227,49780,6,0,P|34:258|28:287,1,45.4999979171754
101,68,49959,2,0,P|95:37|89:8,1,45.4999979171754
224,114,50137,2,0,P|230:83|236:54,1,45.4999979171754
291,311,50316,2,0,P|297:342|303:371,1,45.4999979171754
442,235,50494,6,0,P|456:161|465:104,1,105.000004005432
384,16,50852,2,0,P|392:67|402:119,1,105.000004005432
326,235,51209,1,0,0:0:0:0:
428,243,51387,1,0,0:0:0:0:
299,336,51566,1,0,0:0:0:0:
359,321,51744,1,0,0:0:0:0:
246,199,51923,5,0,0:0:0:0:
159,191,52102,1,0,0:0:0:0:
291,358,52280,1,0,0:0:0:0:
328,351,52459,1,0,0:0:0:0:
464,159,52637,1,0,0:0:0:0:
453,280,52816,1,0,0:0:0:0:
329,85,52994,1,0,0:0:0:0:
326,108,53173,1,0,0:0:0:0:
189,22,53352,6,0,P|246:32|317:50,1,105.000004005432
412,96,53709,2,0,P|355:106|284:124,1,105.000004005432
198,193,54066,1,0,0:0:0:0:
120,172,54244,1,0,0:0:0:0:
171,311,54423,1,0,0:0:0:0:
221,302,54602,1,0,0:0:0:0:
353,174,54780,5,0,0:0:0:0:
278,134,54959,1,0,0:0:0:0:
371,335,55137,1,0,0:0:0:0:
355,301,55316,1,0,0:0:0:0:
434,113,55494,1,0,0:0:0:0:
416,230,55673,1,0,0:0:0:0:
311,67,55852,1,0,0:0:0:0:
299,48,56030,1,0,0:0:0:0:
96,112,56209,6,0,P|145:56|168:12,1,105.000004005432
301,140,56566,2,0,P|273:95|236:57,1,105.000004005432
117,210,56923,1,0,0:0:0:0:
97,283,57102,1,0,0:0:0:0:
243,353,57280,1,0,0:0:0:0:
230,243,57459,1,0,0:0:0:0:
77,359,57637,5,0,0:0:0:0:
6,381,57816,1,0,0:0:0:0:
219,234,57994,1,0,0:0:0:0:
329,252,58173,1,0,0:0:0:0:
161,90,58352,1,0,0:0:0:0:
151,131,58530,1,0,0:0:0:0:
306,32,58709,1,0,0:0:0:0:
303,13,58887,1,0,0:0:0:0:
376,64,59066,6,0,P|371:116|368:160,1,83.9999974365235
458,291,59423,1,0,0:0:0:0:
499,227,59602,2,0,P|479:188|451:149,1,83.9999974365235
365,50,59959,2,0,P|345:89|317:128,1,83.9999974365235
219,160,60316,1,0,0:0:0:0:
96,87,60494,5,0,0:0:0:0:
106,33,60673,1,0,0:0:0:0:
219,160,60852,1,0,0:0:0:0:
206,65,61030,1,0,0:0:0:0:
50,174,61209,1,0,0:0:0:0:
58,285,61387,1,0,0:0:0:0:
224,135,61566,1,0,0:0:0:0:
205,303,61744,1,0,0:0:0:0:
36,133,61923,6,0,P|25:65|11:-8,1,105.000004005432
133,188,62280,2,0,P|144:120|158:47,1,105.000004005432
253,10,62637,1,0,0:0:0:0:
331,21,62816,1,0,0:0:0:0:
250,147,62994,1,0,0:0:0:0:
204,156,63173,1,0,0:0:0:0:
346,23,63352,5,0,0:0:0:0:
453,41,63530,1,0,0:0:0:0:
321,175,63709,1,0,0:0:0:0:
290,182,63887,1,0,0:0:0:0:
469,46,64066,1,0,0:0:0:0:
253,10,64244,1,0,0:0:0:0:
425,119,64423,1,0,0:0:0:0:
437,171,64602,1,0,0:0:0:0:
489,364,64780,6,0,P|507:284|521:231,1,105.000004005432
425,119,65137,2,0,P|437:169|448:221,1,105.000004005432
386,331,65494,1,0,0:0:0:0:
310,352,65673,1,0,0:0:0:0:
232,241,65852,1,0,0:0:0:0:
239,220,66030,1,0,0:0:0:0:
328,92,66209,5,0,0:0:0:0:
425,119,66387,1,0,0:0:0:0:
276,24,66566,1,0,0:0:0:0:
155,40,66744,1,4,0:0:0:0:
256,150,66923,1,0,0:0:0:0:
312,169,67102,1,0,0:0:0:0:
151,235,67280,1,0,0:0:0:0:
114,247,67459,1,0,0:0:0:0:
9,365,67637,6,0,P|80:352|123:348,1,105.000004005432
268,296,67994,2,0,P|215:289|164:279,1,105.000004005432
34,181,68352,1,0,0:0:0:0:
18,259,68530,1,0,0:0:0:0:
158,163,68709,1,0,0:0:0:0:
170,111,68887,1,0,0:0:0:0:
281,11,69066,5,0,0:0:0:0:
301,101,69244,1,0,0:0:0:0:
450,159,69423,1,0,0:0:0:0:
500,143,69602,1,0,0:0:0:0:
392,34,69780,1,0,0:0:0:0:
296,13,69959,1,0,0:0:0:0:
194,132,70137,1,0,0:0:0:0:
229,130,70316,1,0,0:0:0:0:
295,184,70494,6,0,P|305:231|311:271,1,83.9999974365235
218,384,70852,1,0,0:0:0:0:
152,340,71030,2,0,P|158:298|167:257,1,83.9999974365235
284,172,71387,2,0,P|277:130|268:89,1,83.9999974365235
108,10,71744,1,0,0:0:0:0:
145,129,71923,5,0,0:0:0:0:
157,185,72102,1,0,0:0:0:0:
288,86,72280,1,0,0:0:0:0:
310,0,72459,1,0,0:0:0:0:
386,198,72637,2,0,L|370:124,1,41.9999987182618
409,31,72816,2,0,L|400:72,1,41.9999987182618
489,186,72994,2,0,L|473:112,1,41.9999987182618
512,19,73173,2,0,L|503:60,1,41.9999987182618
427,245,73352,6,0,P|375:260|347:272,1,62.9999980773926
281,331,73709,2,0,P|333:346|361:358,1,62.9999980773926
452,218,74066,2,0,P|400:233|310:273,1,125.999996154785
225,341,74602,1,0,0:0:0:0:
238,328,74691,1,0,0:0:0:0:
252,286,74780,2,0,P|246:244|235:204,1,62.9999980773926
174,148,75137,2,0,P|177:116|184:86,1,62.9999980773926
231,6,75494,6,0,P|182:27|92:31,1,125.999996154785
8,3,76030,1,0,0:0:0:0:
91,55,76209,2,0,P|97:91|101:128,1,62.9999980773926
179,182,76566,2,0,P|182:150|188:119,1,62.9999980773926
213,87,76923,2,0,P|219:123|223:160,1,62.9999980773926
315,194,77280,2,0,P|318:162|324:131,1,62.9999980773926
380,40,77637,6,0,P|395:89|502:288,1,262.500010013581
432,240,78709,1,0,0:0:0:0:
323,196,78887,1,0,0:0:0:0:
296,204,78977,1,0,0:0:0:0:
270,242,79066,6,0,P|254:186|234:137,1,105.000004005432
161,32,79423,2,0,P|146:82|127:131,1,105.000004005432
12,194,79780,1,0,0:0:0:0:
27,273,79959,1,0,0:0:0:0:
147,172,80137,1,0,0:0:0:0:
176,147,80316,1,0,0:0:0:0:
272,288,80494,5,0,0:0:0:0:
190,273,80673,1,0,0:0:0:0:
308,218,80852,1,0,0:0:0:0:
396,201,81030,1,0,0:0:0:0:
247,148,81209,1,0,0:0:0:0:
162,103,81387,1,0,0:0:0:0:
106,122,81566,1,0,0:0:0:0:
77,110,81744,1,0,0:0:0:0:
11,191,81923,6,0,P|21:152|35:114,1,80.5000015354157
119,17,82280,1,0,0:0:0:0:
199,54,82459,1,0,0:0:0:0:
227,46,82637,1,0,0:0:0:0:
326,70,82816,1,0,0:0:0:0:
379,86,82994,1,0,0:0:0:0:
496,7,83173,6,0,P|488:77|480:176,1,131.25
458,180,83530,2,0,P|452:114|444:49,1,131.25
413,7,83887,2,0,P|359:9|299:49,1,87.5
241,92,84244,1,0,0:0:0:0:
220,186,84423,1,0,0:0:0:0:
235,220,84602,1,0,0:0:0:0:
347,280,84780,6,0,P|279:266|226:262,1,105.000004005432
91,331,85137,1,0,0:0:0:0:
160,277,85316,1,0,0:0:0:0:
311,192,85494,2,0,P|258:197|207:209,1,105.000004005432
146,319,85852,1,0,0:0:0:0:
159,372,86030,1,0,0:0:0:0:
77,261,86209,5,0,0:0:0:0:
93,172,86387,1,0,0:0:0:0:
215,63,86566,1,0,0:0:0:0:
196,201,86744,1,0,0:0:0:0:
47,38,86923,1,0,0:0:0:0:
236,3,87102,1,0,0:0:0:0:
361,156,87280,1,0,0:0:0:0:
118,107,87459,1,0,0:0:0:0:
424,23,87637,6,0,B|108:-9|347:208|-38:150,1,476.00000907898
