osu file format v14

[General]
AudioFilename: audio.mp3
AudioLeadIn: 0
PreviewTime: 50405
Countdown: 0
SampleSet: Soft
StackLeniency: 0.7
Mode: 0
LetterboxInBreaks: 0
WidescreenStoryboard: 1

[Editor]
DistanceSpacing: 1.1
BeatDivisor: 4
GridSize: 4
TimelineZoom: 1.1

[Metadata]
Title:Harebare Fanfare
TitleUnicode:晴レ晴レファンファーレ
Artist:mimimemeMIMI
ArtistUnicode:みみめめMIMI
Creator:Luna-
Version:Normal
Source:甘々と稲妻
Tags:Sweetness & Lightning and Amaama to Inazuma op opening Hazu- Dark Accelerator Dark_Accelerator
BeatmapID:1136507
BeatmapSetID:497942

[Difficulty]
HPDrainRate:4
CircleSize:3.5
OverallDifficulty:4
ApproachRate:5
SliderMultiplier:0.999999999999999
SliderTickRate:1

[Events]
//Background and Video events
0,0,"imustprotectthatsmile.png",0,0
Video,182,"video.avi"
//Break Periods
//Storyboard Layer 0 (Background)
//Storyboard Layer 1 (Fail)
//Storyboard Layer 2 (Pass)
//Storyboard Layer 3 (Foreground)
//Storyboard Sound Samples

[TimingPoints]
495,357.142857142857,4,2,1,70,1,0
9066,-100,4,2,1,80,0,0
12905,-100,4,2,1,50,0,0
13352,-100,4,2,1,80,0,0
16209,-100,4,2,1,60,0,0
39066,-100,4,2,1,50,0,0
44780,-100,4,2,1,70,0,0
50494,-100,4,2,1,80,0,1
59066,-100,4,2,1,60,0,0
60494,-100,4,2,1,70,0,0
61923,-100,4,2,1,80,0,1
70494,-100,4,2,1,60,0,0
71923,-100,4,2,1,70,0,0
73352,-100,4,2,1,60,0,0
77637,-100,4,2,1,50,0,0
79066,-100,4,2,1,80,0,1
81923,-100,4,2,1,60,0,1
82459,-100,4,2,1,70,0,1
83173,-100,4,2,1,70,0,1
84780,-100,4,2,1,80,0,1
87637,-100,4,2,1,70,0,0

[Colours]
Combo1 : 250,201,99
Combo2 : 255,81,81
Combo3 : 53,154,255
Combo4 : 185,232,89

[HitObjects]
399,253,495,6,0,L|292:248,1,99.9999999999999,2|2,0:0|0:0,0:0:0:0:
189,240,1209,1,2,0:0:0:0:
198,130,1566,1,2,0:0:0:0:
308,138,1923,2,0,P|320:90|309:31,2,99.9999999999999,2|2|2,0:0|0:0|0:0,0:0:0:0:
299,248,2994,1,2,0:0:0:0:
189,240,3352,6,0,P|138:235|75:252,1,99.9999999999999,2|2,0:0|0:0,0:0:0:0:
147,339,4066,1,2,0:0:0:0:
256,333,4423,1,2,0:0:0:0:
365,324,4780,2,0,B|415:311|420:357|480:324,2,99.9999999999999,2|2|2,0:0|0:0|0:0,0:0:0:0:
256,333,5852,1,2,0:0:0:0:
310,237,6209,6,0,L|310:133,1,99.9999999999999,2|2,0:0|0:0,0:0:0:0:
308,27,6923,1,2,0:0:0:0:
198,27,7280,1,2,0:0:0:0:
201,136,7637,2,0,B|153:154|153:154|107:136,2,99.9999999999999,2|2|2,0:0|0:0|0:0,0:0:0:0:
310,137,8709,1,2,0:0:0:0:
404,80,9066,6,0,P|421:146|394:204,1,99.9999999999999,6|8,0:0|0:0,0:0:0:0:
382,221,9602,2,0,L|489:219,2,99.9999999999999,8|8|8,0:3|0:3|0:0,0:0:0:0:
339,255,10494,2,0,L|225:255,1,99.9999999999999,4|0,0:0|0:0,0:0:0:0:
196,289,11030,2,0,L|82:289,1,99.9999999999999,6|2,0:0|0:0,0:0:0:0:
40,290,11566,1,8,0:0:0:0:
427,81,12994,2,0,L|351:78,1,50,0|0,0:0|0:0,0:0:0:0:
322,86,13352,6,0,B|310:136|310:136|322:182,1,99.9999999999999,6|8,0:0|0:0,0:0:0:0:
388,271,14066,2,0,L|441:271,2,50,2|2|8,0:0|0:0|0:0,0:0:0:0:
352,313,14602,2,0,L|246:312,1,99.9999999999999,0|0,0:0|0:0,0:0:0:0:
152,359,15316,2,0,P|143:305|155:263,1,99.9999999999999,0|2,0:0|0:0,0:0:0:0:
183,214,15852,2,0,L|239:214,1,50,8|8,0:3|0:3,0:0:0:0:
288,214,16209,5,4,0:0:0:0:
397,214,16566,1,8,0:0:0:0:
397,104,16923,2,0,L|460:105,2,50,0|2|8,0:0|0:0|0:0,0:0:0:0:
342,96,17459,1,0,0:0:0:0:
287,100,17637,2,0,B|237:87|232:133|172:100,1,99.9999999999999,2|8,0:0|0:0,0:0:0:0:
91,57,18352,2,0,P|77:106|90:156,1,99.9999999999999,0|8,0:0|0:0,0:0:0:0:
127,191,18887,1,0,0:0:0:0:
177,215,19066,6,0,B|227:202|232:248|292:215,1,99.9999999999999,2|8,0:0|0:0,0:0:0:0:
373,175,19780,2,0,P|387:224|374:274,1,99.9999999999999,0|8,0:0|0:0,0:0:0:0:
293,343,20494,2,0,L|191:343,2,99.9999999999999,2|8|0,0:0|0:0|0:0,0:0:0:0:
401,363,21566,1,8,0:0:0:0:
473,280,21923,6,0,B|487:232|487:232|473:183,1,99.9999999999999,2|8,0:0|0:0,0:0:0:0:
442,138,22459,1,0,0:0:0:0:
400,103,22637,2,0,B|352:89|352:89|303:103,1,99.9999999999999,0|8,0:0|0:0,0:0:0:0:
201,149,23352,2,0,P|192:102|204:51,2,99.9999999999999,2|8|0,0:0|0:0|0:0,0:0:0:0:
286,218,24423,1,8,0:0:0:0:
209,296,24780,6,0,L|101:295,1,99.9999999999999,2|8,0:0|0:0,0:0:0:0:
43,206,25494,2,0,L|151:207,1,99.9999999999999,0|8,0:0|0:0,0:0:0:0:
253,206,26209,2,0,B|328:238|328:179|406:206,1,150,2|0,0:0|0:0,0:0:0:0:
446,176,26923,2,0,L|441:124,1,50,0|2,0:0|0:0,0:0:0:0:
491,103,27280,2,0,L|486:51,1,50,8|0,0:0|0:0,0:0:0:0:
442,19,27637,6,0,P|391:7|342:19,1,99.9999999999999,4|8,0:0|0:0,0:0:0:0:
273,101,28352,2,0,P|222:113|173:101,1,99.9999999999999,0|8,0:0|0:0,0:0:0:0:
77,55,29066,2,0,B|62:103|62:103|77:153,1,99.9999999999999,2|8,0:0|0:0,0:0:0:0:
167,212,29780,2,0,L|233:210,2,50,0|2|8,0:0|0:0|0:0,0:0:0:0:
114,227,30316,1,0,0:0:0:0:
71,261,30494,6,0,B|56:309|56:309|71:359,1,99.9999999999999,2|8,0:0|0:0,0:0:0:0:
171,315,31209,2,0,B|223:336|221:300|272:316,1,99.9999999999999,0|8,0:0|0:0,0:0:0:0:
366,364,31923,2,0,B|380:316|380:316|365:268,1,99.9999999999999,2|8,0:0|0:0,0:0:0:0:
338,220,32459,1,0,0:0:0:0:
355,168,32637,2,0,L|457:170,1,99.9999999999999,0|8,0:0|0:0,0:0:0:0:
407,70,33352,6,0,L|305:68,1,99.9999999999999,2|8,0:0|0:0,0:0:0:0:
208,18,34066,2,0,P|196:69|208:117,1,99.9999999999999,0|8,0:0|0:0,0:0:0:0:
280,196,34780,2,0,P|291:247|280:295,1,99.9999999999999,2|8,0:0|0:0,0:0:0:0:
241,330,35316,1,0,0:0:0:0:
187,337,35494,2,0,L|81:334,1,99.9999999999999,0|8,0:0|0:0,0:0:0:0:
20,246,36209,6,0,B|4:198|4:198|21:152,2,99.9999999999999,2|8|0,0:0|0:0|0:0,0:0:0:0:
119,199,37280,1,8,0:0:0:0:
228,199,37637,1,2,0:0:0:0:
325,250,37994,2,0,B|359:156|291:158|325:51,1,200,8|12,0:0|0:0,0:0:0:0:
423,6,39066,6,0,P|433:53|423:105,1,99.9999999999999,4|0,0:0|0:0,0:0:0:0:
323,54,39780,2,0,L|223:54,1,99.9999999999999,0|2,0:0|0:0,0:0:0:0:
168,58,40316,1,0,0:0:0:0:
130,102,40494,2,0,P|119:149|130:201,1,99.9999999999999,2|8,0:0|0:0,0:0:0:0:
227,150,41209,2,0,L|291:150,2,50,2|2|10,0:0|0:0|0:0,0:0:0:0:
224,259,41923,6,0,L|336:259,1,99.9999999999999,2|0,0:0|0:0,0:0:0:0:
424,308,42637,2,0,P|435:261|424:209,1,99.9999999999999,0|2,0:0|0:0,0:0:0:0:
336,145,43352,2,0,B|288:130|289:169|222:145,1,99.9999999999999,2|8,0:0|0:0,0:0:0:0:
136,107,44066,2,0,L|136:45,2,50,2|2|10,0:0|0:0|0:0,0:0:0:0:
44,168,44780,6,0,B|26:213|26:213|44:261,1,99.9999999999999,4|8,0:0|0:0,0:0:0:0:
136,322,45494,2,0,L|136:384,2,50,2|2|8,0:0|0:0|0:0,0:0:0:0:
158,271,46030,1,2,0:0:0:0:
205,242,46209,2,0,P|254:232|316:243,1,99.9999999999999,6|8,0:0|0:0,0:0:0:0:
376,322,46923,2,0,L|376:384,2,50,2|2|8,0:0|0:0|0:0,0:0:0:0:
466,259,47637,6,0,B|483:211|483:211|466:166,1,99.9999999999999,6|8,0:0|0:0,0:0:0:0:
376,101,48352,2,0,L|376:39,2,50,2|2|8,0:0|0:0|0:0,0:0:0:0:
286,164,49066,2,0,L|237:164,1,50,4|2,0:0|0:3,0:0:0:0:
199,205,49423,2,0,L|150:205,1,50,8|2,0:0|0:3,0:0:0:0:
93,205,49780,1,2,0:0:0:0:
22,120,50137,1,2,0:0:0:0:
87,31,50494,6,0,P|141:16|185:31,1,99.9999999999999,6|2,0:0|0:0,0:0:0:0:
281,75,51209,2,0,P|310:81|357:75,1,50,2|2,0:0|0:0,0:0:0:0:
378,54,51566,2,0,P|407:47|454:54,1,50,8|2,0:0|0:0,0:0:0:0:
479,64,51923,1,2,0:0:0:0:
502,171,52280,1,8,0:0:0:0:
409,229,52637,2,0,L|409:278,2,50,2|2|8,0:0|0:0|0:0,0:0:0:0:
302,259,53352,6,0,B|257:239|257:281|205:260,1,99.9999999999999,6|8,0:0|0:0,0:0:0:0:
95,259,54066,2,0,L|95:200,1,50,2|2,0:0|0:0,0:0:0:0:
43,189,54423,2,0,L|43:130,1,50,8|2,0:0|0:0,0:0:0:0:
53,84,54780,2,0,B|102:68|102:68|149:83,1,99.9999999999999,2|8,0:0|0:0,0:0:0:0:
250,122,55494,2,0,L|300:74,2,50,2|2|8,0:0|0:0|0:0,0:0:0:0:
198,219,56209,6,0,B|247:235|247:235|294:220,1,99.9999999999999,6|8,0:0|0:0,0:0:0:0:
400,245,56923,2,0,P|404:221|403:186,1,50,2|2,0:0|0:0,0:0:0:0:
459,192,57280,2,0,P|452:168|436:137,1,50,8|2,0:0|0:0,0:0:0:0:
417,95,57637,1,2,0:0:0:0:
321,41,57994,1,8,0:0:0:0:
261,134,58352,2,0,L|212:134,2,50,2|2|8,0:0|0:0|0:0,0:0:0:0:
351,197,59066,6,0,P|360:245|351:294,1,99.9999999999999,6|8,0:0|0:0,0:0:0:0:
314,335,59602,2,0,B|245:303|244:367|169:342,1,150,2|8,0:0|0:0,0:0:0:0:
60,330,60494,2,0,P|51:281|60:232,1,99.9999999999999,4|8,0:0|0:0,0:0:0:0:
136,153,61209,2,0,L|136:95,2,50,6|2|8,0:0|0:0|0:0,0:0:0:0:
169,196,61744,1,2,0:0:0:0:
222,207,61923,6,0,B|268:222|268:192|321:206,1,99.9999999999999,6|8,0:0|0:0,0:0:0:0:
431,204,62637,2,0,L|432:153,1,50,2|2,0:0|0:0,0:0:0:0:
485,142,62994,2,0,L|486:91,1,50,8|2,0:0|0:0,0:0:0:0:
484,36,63352,1,2,0:0:0:0:
374,36,63709,1,8,0:0:0:0:
264,36,64066,2,0,L|199:37,2,50,2|2|8,0:0|0:0|0:0,0:0:0:0:
325,127,64780,6,0,B|341:176|341:176|326:223,1,99.9999999999999,6|8,0:0|0:0,0:0:0:0:
243,294,65494,2,0,B|217:288|217:288|186:295,1,50,2|2,0:0|0:0,0:0:0:0:
150,326,65852,2,0,B|124:332|124:332|93:325,1,50,8|2,0:0|0:0,0:0:0:0:
47,314,66209,2,0,P|37:265|47:216,1,99.9999999999999,2|8,0:0|0:0,0:0:0:0:
143,164,66923,2,0,L|143:113,2,50,2|2|8,0:0|0:0|0:0,0:0:0:0:
252,164,67637,6,0,L|251:63,1,99.9999999999999,6|8,0:0|0:0,0:0:0:0:
349,114,68352,2,0,L|349:164,1,50,2|2,0:0|0:0,0:0:0:0:
402,178,68709,2,0,L|402:228,1,50,8|2,0:0|0:0,0:0:0:0:
436,271,69066,1,2,0:0:0:0:
373,361,69423,1,8,0:0:0:0:
271,318,69780,2,0,L|215:317,2,50,2|2|8,0:0|0:0|0:0,0:0:0:0:
303,213,70494,6,0,P|276:170|242:131,1,99.9999999999999,6|8,0:0|0:0,0:0:0:0:
190,120,71030,2,0,B|121:88|120:152|45:127,1,150,2|2,0:0|0:0,0:0:0:0:
107,35,71923,2,0,P|173:25|206:35,1,99.9999999999999,6|8,0:0|0:0,0:0:0:0:
306,73,72637,2,0,L|368:73,2,50,4|2|2,0:0|0:0|0:0,0:0:0:0:
268,113,73173,1,2,0:0:0:0:
279,166,73352,6,0,B|295:215|295:215|280:265,1,99.9999999999999,6|0,0:0|0:0,0:0:0:0:
195,330,74066,2,0,B|165:331|147:344|147:344|124:328|100:329,1,99.9999999999999,8|0,0:0|0:0,0:0:0:0:
49,310,74602,1,0,0:0:0:0:
23,261,74780,2,0,B|9:214|9:214|25:165,1,99.9999999999999,2|2,0:0|0:0,0:0:0:0:
101,86,75494,2,0,B|150:66|149:109|199:85,1,99.9999999999999,8|0,0:0|0:0,0:0:0:0:
249,68,76030,1,0,0:0:0:0:
304,70,76209,6,0,P|326:129|326:175,1,99.9999999999999,2|0,0:0|0:0,0:0:0:0:
415,230,76923,2,0,P|395:275|391:325,1,99.9999999999999,8|0,0:0|0:0,0:0:0:0:
282,334,77637,2,0,B|187:300|189:388|90:357,1,200,6|0,0:0|0:0,0:0:0:0:
18,274,78709,1,8,0:0:0:0:
125,251,79066,6,0,L|121:150,1,99.9999999999999,6|8,0:0|0:0,0:0:0:0:
181,59,79780,2,0,L|235:56,1,50,2|2,0:0|0:0,0:0:0:0:
262,101,80137,2,0,L|316:98,1,50,8|2,0:0|0:0,0:0:0:0:
366,95,80494,1,2,0:0:0:0:
439,176,80852,1,8,0:0:0:0:
378,268,81209,2,0,L|377:320,2,50,2|2|8,0:0|0:0|0:0,0:0:0:0:
339,229,81744,1,2,0:0:0:0:
287,209,81923,6,0,L|184:209,1,99.9999999999999,6|8,0:0|0:0,0:0:0:0:
132,200,82459,2,0,P|120:152|132:104,1,99.9999999999999,2|2,0:0|0:0,0:0:0:0:
237,73,83173,2,0,L|340:73,1,99.9999999999999,6|8,0:0|0:0,0:0:0:0:
435,24,83887,2,0,P|447:72|435:120,1,99.9999999999999,8|2,0:0|0:0,0:0:0:0:
401,163,84423,2,0,P|397:190|402:223,1,50,2|8,0:0|0:0,0:0:0:0:
429,258,84780,6,0,L|321:258,1,99.9999999999999,6|8,0:0|0:0,0:0:0:0:
294,301,85316,2,0,L|186:301,1,99.9999999999999,2|2,0:0|0:0,0:0:0:0:
101,242,86030,2,0,B|86:193|86:193|103:143,1,99.9999999999999,2|8,0:0|0:0,0:0:0:0:
140,107,86566,2,0,L|200:106,1,50,8|8,0:0|0:0,0:0:0:0:
230,68,86923,2,0,L|290:67,1,50,8|8,0:0|0:0,0:0:0:0:
322,31,87280,2,0,L|382:30,1,50,8|8,0:0|0:0,0:0:0:0:
426,26,87637,5,12,0:0:0:0:
