osu file format v14

[General]
AudioFilename: audio.mp3
AudioLeadIn: 0
PreviewTime: 50405
Countdown: 0
SampleSet: Soft
StackLeniency: 0.7
Mode: 0
LetterboxInBreaks: 0
WidescreenStoryboard: 1

[Editor]
DistanceSpacing: 1.5
BeatDivisor: 4
GridSize: 4
TimelineZoom: 1.1

[Metadata]
Title:Harebare Fanfare
TitleUnicode:晴レ晴レファンファーレ
Artist:mimimemeMIMI
ArtistUnicode:みみめめMIMI
Creator:Luna-
Version:Hard
Source:甘々と稲妻
Tags:Sweetness & Lightning and Amaama to Inazuma op opening Hazu- Dark Accelerator Dark_Accelerator
BeatmapID:1158083
BeatmapSetID:497942

[Difficulty]
HPDrainRate:5
CircleSize:4
OverallDifficulty:6
ApproachRate:7.5
SliderMultiplier:1.4
SliderTickRate:1

[Events]
//Background and Video events
0,0,"imustprotectthatsmile.png",0,0
Video,182,"video.avi"
//Break Periods
//Storyboard Layer 0 (Background)
//Storyboard Layer 1 (Fail)
//Storyboard Layer 2 (Pass)
//Storyboard Layer 3 (Foreground)
//Storyboard Sound Samples

[TimingPoints]
495,357.142857142857,4,2,1,70,1,0
9066,-100,4,2,1,80,0,0
12905,-100,4,2,1,50,0,0
13352,-100,4,2,1,80,0,0
16209,-100,4,2,1,60,0,0
39066,-100,4,2,1,50,0,0
44780,-100,4,2,1,70,0,0
50494,-100,4,2,1,80,0,1
59066,-100,4,2,1,60,0,0
60494,-100,4,2,1,70,0,0
61923,-100,4,2,1,80,0,1
70494,-100,4,2,1,60,0,0
71923,-100,4,2,1,70,0,0
73352,-100,4,2,1,60,0,0
77637,-142.857142857143,4,2,1,50,0,0
79066,-100,4,2,1,80,0,1
81923,-100,4,2,1,60,0,1
82459,-100,4,2,1,70,0,1
83173,-100,4,2,1,70,0,1
84780,-100,4,2,1,80,0,1
87637,-100,4,2,1,70,0,0

[Colours]
Combo1 : 250,201,99
Combo2 : 255,81,81
Combo3 : 53,154,255
Combo4 : 185,232,89

[HitObjects]
104,92,495,6,0,L|109:167,1,70,2|0,0:0|0:0,0:0:0:0:
214,159,852,2,0,L|219:234,1,70,2|0,0:0|0:0,0:0:0:0:
310,280,1209,2,0,P|343:285|387:281,2,70,2|0|2,0:0|0:0|0:0,0:0:0:0:
233,351,1744,1,0,0:0:0:0:
151,278,1923,2,0,P|140:244|141:209,1,70,2|0,0:0|0:0,0:0:0:0:
320,211,2280,2,0,P|320:245|310:279,1,70,2|0,0:0|0:0,0:0:0:0:
230,210,2637,1,2,0:0:0:0:
230,210,2816,2,0,B|253:134|215:134|228:72,1,140
311,9,3352,6,0,L|393:13,1,70,2|0,0:0|0:0,0:0:0:0:
396,105,3709,2,0,L|478:109,1,70,2|0,0:0|0:0,0:0:0:0:
488,211,4066,2,0,P|492:247|485:282,2,70,2|0|2,0:0|0:0|0:0,0:0:0:0:
392,245,4602,1,0,0:0:0:0:
346,335,4780,2,0,P|385:344|434:338,1,70,2|0,0:0|0:0,0:0:0:0:
410,150,5137,2,0,P|375:149|341:157,1,70,2|0,0:0|0:0,0:0:0:0:
263,241,5494,1,2,0:0:0:0:
263,241,5673,2,0,B|193:266|192:217|116:241,1,140
227,168,6209,6,0,L|223:92,1,70,2|0,0:0|0:0,0:0:0:0:
146,92,6566,2,0,L|142:16,1,70,2|0,0:0|0:0,0:0:0:0:
79,161,6923,2,0,P|43:156|6:161,2,70,2|0|2,0:0|0:0|0:0,0:0:0:0:
126,238,7459,1,0,0:0:0:0:
185,306,7637,2,0,P|193:347|190:377,1,70,2|0,0:0|0:0,0:0:0:0:
37,299,7994,2,0,P|34:264|42:230,1,70,2|0,0:0|0:0,0:0:0:0:
154,163,8352,2,0,B|190:154|190:154|224:169|224:169|253:155|253:155|303:164,1,140,2|2,0:0|0:0,0:0:0:0:
484,264,9066,6,0,B|417:289|417:289|351:265,1,140,6|8,0:0|0:0,0:0:0:0:
257,360,9602,2,0,B|321:336|321:336|388:361,1,140,8|8,0:3|0:3,0:0:0:0:
227,189,10316,1,8,0:0:0:0:
227,189,10494,2,0,P|201:125|228:62,1,140,6|2,0:0|0:0,0:0:0:0:
355,63,11030,2,0,P|381:125|356:189,1,140,6|2,0:0|0:0,0:0:0:0:
292,128,11566,1,8,0:0:0:0:
33,44,12905,6,0,B|49:48|49:48|68:40|68:40|88:48|88:48|108:40|108:40|132:48|132:48|152:40|152:40|164:44,1,140
203,44,13352,6,0,P|210:77|199:123,1,70,6|0,0:0|0:0,0:0:0:0:
136,226,13709,2,0,P|129:191|136:157,1,70,8|0,0:0|0:0,0:0:0:0:
219,194,14066,2,0,L|290:194,2,70,2|2|8,0:0|0:0|0:0,0:0:0:0:
376,158,14602,6,0,P|382:192|375:226,1,70,0|2,0:0|0:0,0:0:0:0:
258,316,14959,2,0,P|284:293|317:282,1,70,0|8,0:0|0:0,0:0:0:0:
455,335,15316,2,0,P|422:323|396:300,1,70
289,194,15673,2,0,L|219:194,2,70,2|8|8,0:0|0:3|0:3,0:0:0:0:
423,153,16209,6,0,P|432:123|424:83,1,70,4|0,0:0|0:0,0:0:0:0:
336,37,16566,2,0,P|326:67|335:107,1,70,8|0,0:0|0:0,0:0:0:0:
289,194,16923,2,0,P|223:172|155:187,1,140,0|8,0:0|0:0,0:0:0:0:
51,200,17459,1,0,0:0:0:0:
24,98,17637,2,0,P|89:119|157:104,1,140,2|8,0:0|0:0,0:0:0:0:
220,254,18352,2,0,L|219:326,2,70,0|2|8,0:0|0:0|0:0,0:0:0:0:
289,194,18887,1,0,0:0:0:0:
365,243,19066,6,0,P|401:250|437:243,1,70,2|0,0:0|0:0,0:0:0:0:
322,121,19423,2,0,P|286:114|250:121,1,70,8|0,0:0|0:0,0:0:0:0:
398,169,19780,2,0,L|401:99,1,70,0|2,0:0|0:0,0:0:0:0:
289,194,20137,2,0,L|292:264,1,70,8|0,0:0|0:0,0:0:0:0:
198,311,20494,2,0,B|126:340|126:285|56:310,2,140,2|8|0,0:0|0:0|0:0,0:0:0:0:
162,230,21387,1,0,0:0:0:0:
162,230,21566,2,0,L|161:160,1,70,8|0,0:0|0:0,0:0:0:0:
72,92,21923,6,0,B|52:160|52:160|73:231,1,140,2|8,0:0|0:0,0:0:0:0:
162,230,22459,1,0,0:0:0:0:
252,228,22637,2,0,B|271:161|271:161|251:93,1,140,0|8,0:0|0:0,0:0:0:0:
161,160,23173,1,0,0:0:0:0:
252,228,23352,2,0,B|324:199|324:254|387:232,2,140,2|8|0,0:0|0:0|0:0,0:0:0:0:
291,298,24244,1,0,0:0:0:0:
291,298,24423,2,0,L|287:368,1,70,8|0,0:0|0:0,0:0:0:0:
189,296,24780,6,0,P|167:230|187:164,2,140,2|8|0,0:0|0:0|0:0,0:0:0:0:
252,228,25673,1,2,0:0:0:0:
187,164,25852,2,0,L|116:163,1,70,8|0,0:0|0:0,0:0:0:0:
83,62,26209,2,0,B|151:40|151:40|219:61,1,140,2|8,0:0|0:0,0:0:0:0:
291,112,26744,1,0,0:0:0:0:
376,78,26923,2,0,L|378:9,1,70,0|2,0:0|0:0,0:0:0:0:
453,121,27280,2,0,L|455:190,1,70,8|0,0:0|0:0,0:0:0:0:
419,274,27637,6,0,P|451:280|489:274,2,70,4|0|8,0:0|0:0|0:0,0:0:0:0:
333,241,28173,1,0,0:0:0:0:
269,175,28352,2,0,P|245:245|286:327,1,140,0|8,0:0|0:0,0:0:0:0:
350,152,28887,1,0,0:0:0:0:
282,91,29066,2,0,L|213:91,1,70,2|0,0:0|0:0,0:0:0:0:
133,137,29423,2,0,L|98:196,1,70,8|0,0:0|0:0,0:0:0:0:
98,288,29780,2,0,L|132:347,2,70,0|2|8,0:0|0:0|0:0,0:0:0:0:
174,238,30316,1,0,0:0:0:0:
251,191,30494,6,0,P|282:181|322:183,1,70,2|0,0:0|0:0,0:0:0:0:
319,344,30852,2,0,P|284:345|250:335,1,70,8|0,0:0|0:0,0:0:0:0:
292,259,31209,2,0,B|363:230|362:286|428:262,1,140,0|8,0:0|0:0,0:0:0:0:
490,198,31744,1,0,0:0:0:0:
425,135,31923,2,0,P|402:199|428:263,1,140,2|8,0:0|0:0,0:0:0:0:
490,198,32459,1,0,0:0:0:0:
327,194,32637,2,0,L|251:194,1,70,0|2,0:0|0:0,0:0:0:0:
165,194,32994,2,0,L|89:194,1,70,8|0,0:0|0:0,0:0:0:0:
197,125,33352,6,0,B|217:193|217:193|197:263,1,140,2|8,0:0|0:0,0:0:0:0:
132,322,33887,1,0,0:0:0:0:
65,260,34066,2,0,P|131:240|198:259,1,140,0|8,0:0|0:0,0:0:0:0:
255,188,34602,1,0,0:0:0:0:
339,220,34780,2,0,B|361:149|310:152|339:75,2,140,2|8|0,0:0|0:0|0:0,0:0:0:0:
320,309,35673,1,2,0:0:0:0:
396,358,35852,2,0,L|475:358,1,70,8|0,0:0|0:0,0:0:0:0:
320,309,36209,6,0,L|215:309,1,105,2|0,0:0|0:0,0:0:0:0:
169,305,36566,2,0,B|146:238|146:238|168:173,1,140,8|0,0:0|0:0,0:0:0:0:
238,114,37102,1,2,0:0:0:0:
317,156,37280,2,0,B|388:178|385:127|462:156,2,140,8|2|8,0:0|0:0|0:0,0:0:0:0:
422,291,38352,2,0,L|420:221,1,70,0|2,0:0|0:0,0:0:0:0:
351,83,38709,1,12,0:0:0:0:
351,83,39066,6,0,L|211:84,1,140,4|0,0:0|0:0,0:0:0:0:
148,168,39602,1,2,0:0:0:0:
148,168,39780,2,0,L|288:169,1,140,0|2,0:0|0:0,0:0:0:0:
359,226,40316,1,0,0:0:0:0:
446,200,40494,2,0,B|468:271|417:268|446:345,2,140,2|8|2,0:0|0:0|0:0,0:0:0:0:
422,111,41387,1,2,0:0:0:0:
422,111,41566,2,0,P|387:101|347:111,1,70,10|0,0:0|0:0,0:0:0:0:
287,168,41923,6,0,B|222:189|222:189|154:168,1,140,2|0,0:0|0:0,0:0:0:0:
73,99,42459,1,2,0:0:0:0:
73,99,42637,2,0,B|138:78|138:78|206:99,1,140,0|2,0:0|0:0,0:0:0:0:
332,231,43352,2,0,L|332:373,2,140,2|8|2,0:0|0:0|0:0,0:0:0:0:
330,140,44244,1,2,0:0:0:0:
330,140,44423,2,0,L|401:135,1,70,10|0,0:0|0:0,0:0:0:0:
250,195,44780,6,0,L|179:190,1,70,4|0,0:0|0:0,0:0:0:0:
89,196,45137,2,0,L|94:125,1,70,8|0,0:0|0:0,0:0:0:0:
183,111,45494,2,0,L|188:40,2,70,2|2|8,0:0|0:0|0:0,0:0:0:0:
238,184,46030,1,2,0:0:0:0:
329,184,46209,6,0,P|380:178|404:182,1,70,6|0,0:0|0:0,0:0:0:0:
268,263,46566,2,0,P|233:265|198:259,1,70,8|0,0:0|0:0,0:0:0:0:
350,306,46923,2,0,L|355:376,2,70,2|2|8,0:0|0:0|0:0,0:0:0:0:
405,233,47459,1,0,0:0:0:0:
329,184,47637,6,0,B|261:164|264:221|180:184,1,140,6|8,0:0|0:0,0:0:0:0:
231,40,48352,2,0,L|233:123,2,70,2|2|8,0:0|0:0|0:0,0:0:0:0:
314,76,48887,1,2,0:0:0:0:
152,79,49066,6,0,L|68:78,1,70,4|2,0:0|0:3,0:0:0:0:
185,174,49423,2,0,L|101:173,1,70,8|2,0:0|0:3,0:0:0:0:
220,257,49780,1,2,0:0:0:0:
311,249,49959,1,2,0:0:0:0:
331,161,50137,1,2,0:0:0:0:
253,114,50316,1,2,0:0:0:0:
220,257,50494,6,0,P|213:294|220:340,1,70,6|0,0:0|0:0,0:0:0:0:
311,249,50852,2,0,P|313:214|307:179,1,70,2|0,0:0|0:0,0:0:0:0:
397,255,51209,2,0,L|472:255,2,70,2|2|8,0:0|0:0|0:0,0:0:0:0:
307,179,51744,1,2,0:0:0:0:
403,109,51923,6,0,P|411:67|408:26,1,70,2|0,0:0|0:0,0:0:0:0:
253,47,52280,2,0,P|252:81|260:115,1,70,8|0,0:0|0:0,0:0:0:0:
445,182,52637,1,2,0:0:0:0:
445,182,52816,2,0,B|375:211|374:161|303:182,1,140,2|2,0:0|0:0,0:0:0:0:
199,289,53352,6,0,P|241:297|282:294,1,70,6|0,0:0|0:0,0:0:0:0:
424,270,53709,2,0,P|390:269|356:277,1,70,8|0,0:0|0:0,0:0:0:0:
291,151,54066,2,0,L|297:220,2,70,2|2|8,0:0|0:0|0:0,0:0:0:0:
219,64,54602,1,2,0:0:0:0:
139,142,54780,6,0,P|181:150|222:147,1,70,2|0,0:0|0:0,0:0:0:0:
302,68,55137,2,0,P|344:60|385:63,1,70,8|0,0:0|0:0,0:0:0:0:
445,182,55494,1,2,0:0:0:0:
445,182,55673,2,0,B|375:211|374:161|303:182,1,140,2|2,0:0|0:0,0:0:0:0:
341,320,56209,6,0,L|339:245,1,70,6|0,0:0|0:0,0:0:0:0:
235,266,56566,2,0,L|233:191,1,70,8|0,0:0|0:0,0:0:0:0:
166,115,56923,2,0,P|131:107|96:107,1,70,2|2,0:0|0:0,0:0:0:0:
233,196,57280,2,0,P|267:196|302:188,1,70,8|2,0:0|0:0,0:0:0:0:
384,123,57637,2,0,L|383:37,2,70,2|0|8,0:0|0:0|0:0,0:0:0:0:
464,190,58173,1,0,0:0:0:0:
399,273,58352,2,0,P|364:265|329:265,1,70,2|2,0:0|0:0,0:0:0:0:
260,344,58709,2,0,P|225:351|190:351,1,70,8|2,0:0|0:0,0:0:0:0:
99,298,59066,6,0,L|103:141,1,140,6|8,0:0|0:0,0:0:0:0:
193,163,59602,2,0,L|196:81,1,70,2|0,0:0|0:0,0:0:0:0:
269,39,59959,1,2,0:0:0:0:
269,39,60137,2,0,P|304:32|351:37,1,70,8|0,0:0|0:0,0:0:0:0:
387,175,60494,6,0,P|352:176|317:169,1,70,4|2,0:0|0:3,0:0:0:0:
125,209,60852,2,0,P|159:207|194:214,1,70,8|2,0:0|0:3,0:0:0:0:
270,277,61209,1,6,0:0:0:0:
353,225,61387,1,2,0:0:0:0:
329,129,61566,1,8,0:0:0:0:
231,123,61744,1,2,0:0:0:0:
194,214,61923,6,0,P|185:248|189:291,1,70,6|0,0:0|0:0,0:0:0:0:
349,373,62280,2,0,P|350:338|341:304,1,70,8|0,0:0|0:0,0:0:0:0:
208,350,62637,2,0,L|277:347,2,70,2|2|8,0:0|0:0|0:0,0:0:0:0:
309,247,63173,1,2,0:0:0:0:
309,247,63352,2,0,L|378:249,1,70,2|0,0:0|0:0,0:0:0:0:
453,183,63709,2,0,P|462:146|455:107,1,70,8|0,0:0|0:0,0:0:0:0:
250,141,64066,1,2,0:0:0:0:
250,141,64245,2,0,B|320:170|321:120|392:141,1,140,2|2,0:0|0:0,0:0:0:0:
297,6,64780,6,0,L|289:86,1,70,6|0,0:0|0:0,0:0:0:0:
192,79,65137,2,0,L|184:159,1,70,8|0,0:0|0:0,0:0:0:0:
94,48,65494,2,0,P|62:40|16:43,2,70,2|2|8,0:0|0:0|0:0,0:0:0:0:
185,148,66030,1,2,0:0:0:0:
185,148,66209,2,0,P|219:149|253:141,1,70,2|0,0:0|0:0,0:0:0:0:
331,78,66566,2,0,P|365:76|399:84,1,70,8|0,0:0|0:0,0:0:0:0:
473,150,66923,1,2,0:0:0:0:
473,150,67102,2,0,L|478:292,1,140,2|2,0:0|0:0,0:0:0:0:
397,344,67637,6,0,P|363:352|328:350,1,70,6|0,0:0|0:0,0:0:0:0:
203,273,67994,2,0,P|237:271|271:279,1,70,8|0,0:0|0:0,0:0:0:0:
341,215,68352,2,0,L|331:136,2,70,2|2|8,0:0|0:0|0:0,0:0:0:0:
420,256,68887,1,2,0:0:0:0:
332,145,69066,2,0,P|300:136|244:145,1,70,2|0,0:0|0:0,0:0:0:0:
417,172,69423,2,0,P|440:148|461:95,1,70,8|0,0:0|0:0,0:0:0:0:
324,41,69780,2,0,L|247:46,2,70,2|2|8,0:0|0:0|0:0,0:0:0:0:
263,138,70316,1,2,0:0:0:0:
263,138,70494,6,0,L|121:133,1,140,6|8,0:0|0:0,0:0:0:0:
37,96,71030,2,0,P|28:133|38:174,1,70,2|2,0:0|0:3,0:0:0:0:
87,245,71387,1,2,0:0:0:0:
168,285,71566,2,0,P|177:248|167:207,1,70,2|0,0:0|0:0,0:0:0:0:
135,358,71923,6,0,L|223:358,1,70,6|2,0:0|0:3,0:0:0:0:
360,302,72280,2,0,L|272:302,1,70,8|2,0:0|0:3,0:0:0:0:
194,279,72637,1,4,0:0:0:0:
186,181,72816,1,2,0:0:0:0:
276,143,72994,1,2,0:0:0:0:
340,217,73173,1,2,0:0:0:0:
234,222,73352,6,0,L|232:77,1,140,6|0,0:0|0:0,0:0:0:0:
451,112,74066,2,0,B|385:134|385:134|318:114,1,140,8|0,0:0|0:0,0:0:0:0:
232,82,74602,1,0,0:0:0:0:
141,51,74780,2,0,B|116:115|170:116|141:192,2,140,2|2|8,0:0|0:0|0:0,0:0:0:0:
369,221,76030,1,0,0:0:0:0:
369,221,76209,6,0,L|234:180,1,140,2|0,0:0|0:0,0:0:0:0:
314,295,76923,2,0,L|448:335,1,140,8|0,0:0|0:0,0:0:0:0:
353,123,77637,6,0,B|255:91|256:151|153:122,1,195.999994018555,6|0,0:0|0:0,0:0:0:0:
160,124,79066,6,0,L|164:199,1,70,6|0,0:0|0:0,0:0:0:0:
255,186,79423,2,0,L|259:261,1,70,8|0,0:0|0:0,0:0:0:0:
339,300,79780,2,0,P|380:309|406:303,2,70,2|2|8,0:0|0:0|0:0,0:0:0:0:
258,255,80316,1,2,0:0:0:0:
170,228,80494,2,0,P|135:221|102:230,1,70,2|0,0:0|0:0,0:0:0:0:
184,338,80852,2,0,P|218:344|251:335,1,70,8|0,0:0|0:0,0:0:0:0:
335,220,81209,2,0,L|331:150,1,70,2|2,0:0|0:0,0:0:0:0:
424,84,81566,2,0,L|420:153,1,70,8|2,0:0|0:0,0:0:0:0:
254,106,81923,6,0,B|186:89|186:89|119:107,1,140,6|8,0:0|0:0,0:0:0:0:
53,186,82459,2,0,B|121:203|121:203|188:185,1,140,2|2,0:0|0:0,0:0:0:0:
289,198,82994,1,0,0:0:0:0:
289,198,83173,2,0,L|286:278,1,70,6|0,0:0|0:0,0:0:0:0:
389,335,83530,2,0,L|386:255,1,70,8|0,0:0|0:0,0:0:0:0:
325,124,83887,2,0,P|289:117|253:124,1,70,8|0,0:0|0:0,0:0:0:0:
386,184,84244,2,0,P|420:189|454:182,2,70,2|2|8,0:0|0:0|0:0,0:0:0:0:
424,45,84780,6,0,L|421:121,1,70,6|0,0:0|0:0,0:0:0:0:
325,124,85137,2,0,L|322:200,1,70,8|2,0:0|0:0,0:0:0:0:
247,257,85494,2,0,P|203:263|175:257,1,70,8|2,0:0|0:0,0:0:0:0:
316,331,85852,2,0,P|350:325|384:332,1,70,8|2,0:0|0:0,0:0:0:0:
461,252,86209,6,0,L|454:179,1,70,12|8,0:0|0:0,0:0:0:0:
333,87,86566,2,0,L|340:160,1,70,8|8,0:0|0:0,0:0:0:0:
314,244,86923,1,8,0:0:0:0:
223,247,87102,1,8,0:0:0:0:
192,162,87280,1,8,0:0:0:0:
264,104,87459,1,8,0:0:0:0:
339,156,87637,5,12,0:0:0:0:
