osu file format v14

[General]
AudioFilename: audio.mp3
AudioLeadIn: 0
PreviewTime: 50405
Countdown: 0
SampleSet: Soft
StackLeniency: 0.7
Mode: 0
LetterboxInBreaks: 0
WidescreenStoryboard: 0

[Editor]
DistanceSpacing: 1.1
BeatDivisor: 8
GridSize: 16
TimelineZoom: 3.099999

[Metadata]
Title:Harebare Fanfare
TitleUnicode:晴レ晴レファンファーレ
Artist:mimimemeMIMI
ArtistUnicode:みみめめMIMI
Creator:Luna-
Version:Bright & Cheerful
Source:甘々と稲妻
Tags:Sweetness & Lightning and Amaama to Inazuma op opening Hazu- Dark Accelerator Dark_Accelerator
BeatmapID:1059894
BeatmapSetID:497942

[Difficulty]
HPDrainRate:6.5
CircleSize:4.2
OverallDifficulty:8
ApproachRate:9
SliderMultiplier:1.8
SliderTickRate:1

[Events]
//Background and Video events
0,0,"imustprotectthatsmile.png",0,0
Video,182,"video.avi"
//Break Periods
//Storyboard Layer 0 (Background)
//Storyboard Layer 1 (Fail)
//Storyboard Layer 2 (Pass)
//Storyboard Layer 3 (Foreground)
//Storyboard Sound Samples

[TimingPoints]
495,357.142857142857,4,2,1,70,1,0
8709,-83.3333333333333,4,2,1,70,0,0
8977,-83.3333333333333,4,2,1,25,0,0
9066,-100,4,2,1,80,0,0
12905,-100,4,2,1,50,0,0
13352,-90.9090909090909,4,2,1,80,0,0
16209,-100,4,2,1,60,0,0
37905,-100,4,2,1,25,0,0
37994,-100,4,2,1,60,0,0
38977,-100,4,2,1,25,0,0
39066,-125,4,2,1,50,0,0
44780,-100,4,2,1,70,0,0
50494,-90.9090909090909,4,2,1,80,0,1
59066,-111.111111111111,4,2,1,60,0,0
60494,-111.111111111111,4,2,1,70,0,0
61923,-90.9090909090908,4,2,1,80,0,1
70494,-111.111111111111,4,2,1,60,0,0
71923,-99.9999999999999,4,2,1,70,0,0
73352,-125,4,2,1,60,0,0
77637,-200,4,2,1,50,0,0
79066,-90.9090909090909,4,2,1,80,0,1
81923,-125,4,2,1,60,0,1
82459,-111.111111111111,4,2,1,70,0,1
83173,-100,4,2,1,70,0,1
84780,-90.9090909090909,4,2,1,80,0,1
87637,-90.9090909090909,4,2,1,70,0,0

[Colours]
Combo1 : 250,201,99
Combo2 : 255,81,81
Combo3 : 53,154,255
Combo4 : 185,232,89

[HitObjects]
410,300,495,6,0,L|415:198,1,90,2|0,0:0|0:0,0:0:0:0:
306,255,852,2,0,L|311:153,1,90,2|0,0:0|0:0,0:0:0:0:
323,19,1209,1,0,0:0:0:0:
227,129,1387,1,0,0:0:0:0:
368,96,1566,1,0,0:0:0:0:
235,40,1744,1,0,0:0:0:0:
309,200,1923,5,2,0:0:0:0:
391,29,2102,1,0,0:0:0:0:
303,224,2280,1,2,0:0:0:0:
242,64,2459,1,0,0:0:0:0:
405,191,2637,1,2,0:0:0:0:
217,154,2816,2,0,B|125:125|125:188|42:150,1,180
173,229,3352,6,0,L|177:323,1,90,2|0,0:0|0:0,0:0:0:0:
281,194,3709,2,0,L|285:288,1,90,2|0,0:0|0:0,0:0:0:0:
381,153,4066,1,2,0:0:0:0:
243,75,4244,1,0,0:0:0:0:
403,153,4423,1,2,0:0:0:0:
250,195,4602,1,0,0:0:0:0:
317,28,4780,5,2,0:0:0:0:
426,151,4959,1,0,0:0:0:0:
230,196,5137,1,2,0:0:0:0:
324,18,5316,1,0,0:0:0:0:
209,198,5494,1,2,0:0:0:0:
465,149,5673,2,0,B|440:146|416:154|416:154|381:129|340:123|340:123|311:133|286:133,1,180
102,211,6209,6,0,P|152:222|203:218,1,90,2|0,0:0|0:0,0:0:0:0:
336,327,6566,2,0,P|291:325|247:336,1,90,2|0,0:0|0:0,0:0:0:0:
93,287,6923,1,2,0:0:0:0:
213,140,7102,1,0,0:0:0:0:
228,346,7280,1,2,0:0:0:0:
67,288,7459,1,0,0:0:0:0:
291,272,7637,5,2,0:0:0:0:
39,288,7816,1,0,0:0:0:0:
231,363,7994,1,2,0:0:0:0:
213,120,8173,1,0,0:0:0:0:
125,347,8352,2,0,P|133:298|158:246,1,90,2|0,0:0|0:0,0:0:0:0:
374,245,8709,6,0,B|359:245|359:245|333:236|333:236|294:250|294:250|271:240|271:240|245:250|217:241,1,161.999995056153,2|0,0:0|0:0,0:0:0:0:
212,224,9066,6,0,L|218:125,1,90,6|0,0:0|0:0,0:0:0:0:
127,41,9423,1,8,0:0:0:0:
50,145,9602,2,0,P|122:147|164:130,1,90,8|0,0:3|0:0,0:0:0:0:
251,66,9959,2,0,P|322:64|364:81,1,90,8|0,0:3|0:0,0:0:0:0:
440,173,10316,1,8,0:0:0:0:
308,332,10494,6,0,L|314:233,1,90,6|0,0:0|0:0,0:0:0:0:
375,131,10852,1,2,0:0:0:0:
227,275,11030,2,0,P|183:269|134:257,1,90,6|0,0:0|0:0,0:0:0:0:
23,207,11387,1,2,0:0:0:0:
289,157,11566,1,8,0:0:0:0:
289,157,12905,6,0,L|293:117,8,22.5
314,111,13352,6,0,L|213:115,1,99.0000030212403,6|0,0:0|0:0,0:0:0:0:
77,229,13709,2,0,L|178:233,1,99.0000030212403,8|0,0:0|0:0,0:0:0:0:
340,195,14066,1,2,0:0:0:0:
242,41,14244,1,2,0:0:0:0:
219,238,14423,1,8,0:0:0:0:
419,127,14602,6,0,P|371:108|322:102,1,99.0000030212403,0|2,0:0|0:0,0:0:0:0:
161,199,14959,2,0,P|209:192|255:174,1,99.0000030212403,0|8,0:0|0:0,0:0:0:0:
78,64,15316,2,0,L|77:176,1,99.0000030212403
284,247,15673,1,2,0:0:0:0:
183,75,15852,1,8,0:3:0:0:
149,279,16030,1,8,0:3:0:0:
370,157,16209,6,0,P|312:155|264:164,1,90,4|0,0:0|0:0,0:0:0:0:
171,202,16566,1,8,0:0:0:0:
256,334,16744,1,0,0:0:0:0:
256,334,16923,2,0,L|261:238,1,90,0|2,0:0|0:0,0:0:0:0:
212,116,17280,1,8,0:0:0:0:
166,276,17459,1,0,0:0:0:0:
348,245,17637,5,2,0:0:0:0:
143,242,17816,1,0,0:0:0:0:
325,273,17994,2,0,L|425:271,1,90,8|0,0:0|0:0,0:0:0:0:
276,170,18352,1,0,0:0:0:0:
249,320,18530,1,2,0:0:0:0:
372,185,18709,2,0,P|361:133|338:90,1,90,8|0,0:0|0:0,0:0:0:0:
209,62,19066,5,2,0:0:0:0:
185,181,19244,1,0,0:0:0:0:
275,138,19423,1,8,0:0:0:0:
117,101,19602,1,0,0:0:0:0:
169,258,19780,1,0,0:0:0:0:
210,73,19959,1,2,0:0:0:0:
165,270,20137,1,8,0:0:0:0:
72,172,20316,1,0,0:0:0:0:
268,194,20494,6,0,P|317:206|367:199,1,90,2|0,0:0|0:0,0:0:0:0:
210,73,20852,2,0,P|165:69|122:81,1,90,8|0,0:0|0:0,0:0:0:0:
168,311,21209,2,0,B|180:267|180:267|154:188|154:188|177:136,1,180,0|8,0:0|0:0,0:0:0:0:
280,68,21744,1,0,0:0:0:0:
396,182,21923,6,0,P|412:134|414:86,1,90,2|0,0:0|0:0,0:0:0:0:
279,227,22280,2,0,P|282:271|297:314,1,90,8|0,0:0|0:0,0:0:0:0:
323,131,22637,1,0,0:0:0:0:
183,194,22816,1,2,0:0:0:0:
214,82,22994,1,8,0:0:0:0:
279,227,23173,1,0,0:0:0:0:
402,104,23352,6,0,P|342:93|305:98,1,90,2|0,0:0|0:0,0:0:0:0:
190,219,23709,2,0,P|250:230|287:225,1,90,8|0,0:0|0:0,0:0:0:0:
100,164,24066,2,0,B|85:211|85:211|89:247|110:292|110:292|91:344,1,180,0|8,0:0|0:0,0:0:0:0:
208,129,24602,1,0,0:0:0:0:
317,268,24780,6,0,P|264:251|229:251,1,90,2|0,0:0|0:0,0:0:0:0:
44,182,25137,2,0,P|88:180|130:164,1,90,8|0,0:0|0:0,0:0:0:0:
225,67,25494,1,0,0:0:0:0:
174,221,25673,1,2,0:0:0:0:
118,78,25852,1,8,0:0:0:0:
304,129,26030,1,0,0:0:0:0:
304,129,26209,6,0,B|392:102|396:168|481:131,1,180,2|8,0:0|0:0,0:0:0:0:
344,207,26744,1,0,0:0:0:0:
344,207,26834,1,0,0:0:0:0:
344,207,26923,2,0,L|346:309,1,90,0|2,0:0|0:0,0:0:0:0:
165,297,27280,1,8,0:0:0:0:
367,318,27459,1,0,0:0:0:0:
173,267,27637,6,0,L|72:266,1,90,4|0,0:0|0:0,0:0:0:0:
221,181,27994,1,8,0:0:0:0:
83,266,28173,1,0,0:0:0:0:
219,343,28352,1,0,0:0:0:0:
130,181,28530,1,2,0:0:0:0:
219,328,28709,1,8,0:0:0:0:
308,183,28887,1,0,0:0:0:0:
158,266,29066,5,2,0:0:0:0:
329,321,29244,2,0,L|427:312,1,90,0|8,0:0|0:0,0:0:0:0:
275,174,29602,1,0,0:0:0:0:
273,196,29691,1,0,0:0:0:0:
270,218,29780,1,2,0:0:0:0:
394,172,29959,1,0,0:0:0:0:
253,67,30137,1,8,0:0:0:0:
241,270,30316,1,0,0:0:0:0:
253,67,30494,5,2,0:0:0:0:
394,172,30673,1,0,0:0:0:0:
233,154,30852,1,8,0:0:0:0:
330,23,31030,1,0,0:0:0:0:
405,191,31209,2,0,L|498:184,1,90,0|2,0:0|0:0,0:0:0:0:
363,105,31566,1,8,0:0:0:0:
339,283,31744,1,0,0:0:0:0:
339,283,31834,1,0,0:0:0:0:
339,283,31923,6,0,B|251:311|252:253|151:278,1,180,2|8,0:0|0:0,0:0:0:0:
207,369,32459,1,0,0:0:0:0:
295,193,32637,2,0,L|292:103,1,90,0|2,0:0|0:0,0:0:0:0:
105,142,32994,2,0,P|151:159|200:153,1,90,8|0,0:0|0:0,0:0:0:0:
461,118,33352,6,0,P|379:85|292:103,1,180,2|8,0:0|0:0,0:0:0:0:
220,287,33887,1,0,0:0:0:0:
373,254,34066,2,0,B|382:222|382:222|367:158,1,90,0|2,0:0|0:0,0:0:0:0:
218,53,34423,2,0,B|205:108|205:108|214:140,1,90,8|0,0:0|0:0,0:0:0:0:
62,281,34780,6,0,L|70:184,1,90,2|0,0:0|0:0,0:0:0:0:
119,65,35137,1,8,0:0:0:0:
232,155,35316,1,0,0:0:0:0:
143,268,35494,2,0,L|151:171,1,90,0|2,0:0|0:0,0:0:0:0:
262,59,35852,1,8,0:0:0:0:
398,185,36030,1,0,0:0:0:0:
398,185,36119,1,0,0:0:0:0:
398,185,36209,6,0,P|341:150|227:156,1,180,2|8,0:0|0:0,0:0:0:0:
114,202,36744,1,0,0:0:0:0:
245,65,36923,2,0,L|151:61,1,90,0|2,0:0|0:0,0:0:0:0:
282,214,37280,2,0,L|376:210,1,90,8|0,0:0|0:0,0:0:0:0:
190,154,37637,6,0,B|192:180|183:198|183:198|195:220|198:246|198:246|187:270|187:295,1,135,2|0,0:0|0:0,0:0:0:0:
170,315,37994,2,0,P|108:308|78:312,1,90,8|0,0:0|0:0,0:0:0:0:
268,277,38352,1,0,0:0:0:0:
110,201,38530,1,2,0:0:0:0:
279,139,38709,2,0,P|323:142|413:122,1,135,12|0,0:0|0:0,0:0:0:0:
442,105,39066,6,0,L|443:26,1,72,4|0,0:0|0:0,0:0:0:0:
279,139,39423,2,0,L|284:210,1,72,0|2,0:0|0:0,0:0:0:0:
344,56,39780,2,0,P|296:42|197:41,1,144,0|2,0:0|0:0,0:0:0:0:
111,152,40316,1,0,0:0:0:0:
221,250,40494,6,0,B|229:212|229:212|213:154|213:154|223:105,1,144,2|8,0:0|0:0,0:0:0:0:
454,294,41209,1,2,0:0:0:0:
454,294,41387,1,2,0:0:0:0:
388,233,41566,2,0,L|309:236,1,72,8|0,0:0|0:0,0:0:0:0:
160,131,41923,6,0,L|239:134,1,72,2|0,0:0|0:0,0:0:0:0:
244,314,42280,2,0,P|236:260|236:239,1,72,0|2,0:0|0:0,0:0:0:0:
336,84,42637,2,0,P|334:119|327:155,1,72
141,177,42994,2,0,P|189:153|220:149,1,72,2|0,0:0|0:0,0:0:0:0:
353,256,43352,6,0,P|273:255|191:223,1,144,2|8,0:0|0:0,0:0:0:0:
393,51,44066,1,2,0:0:0:0:
393,51,44244,1,2,0:0:0:0:
452,124,44423,2,0,L|458:207,1,72,8|0,0:0|0:0,0:0:0:0:
327,276,44780,5,4,0:0:0:0:
346,151,44959,1,0,0:0:0:0:
452,218,45137,1,8,0:0:0:0:
306,289,45316,1,0,0:0:0:0:
351,125,45494,1,2,0:0:0:0:
393,282,45673,2,0,L|392:376,1,90,2|8,0:0|0:0,0:0:0:0:
228,217,46030,1,2,0:0:0:0:
247,210,46119,1,0,0:0:0:0:
267,206,46209,6,0,P|298:201|358:207,1,90,6|0,0:0|0:0,0:0:0:0:
231,104,46566,1,8,0:0:0:0:
279,286,46744,1,0,0:0:0:0:
398,205,46923,1,2,0:0:0:0:
202,187,47102,2,0,L|108:191,1,90,2|8,0:0|0:0,0:0:0:0:
254,316,47459,1,0,0:0:0:0:
339,148,47637,6,0,P|340:109|328:39,1,90,6|0,0:0|0:0,0:0:0:0:
210,201,47994,2,0,P|203:245|204:290,1,90,8|0,0:0|0:0,0:0:0:0:
397,282,48352,1,2,0:0:0:0:
234,304,48530,1,2,0:0:0:0:
428,308,48709,1,8,0:0:0:0:
265,286,48887,1,2,0:0:0:0:
408,191,49066,5,4,0:0:0:0:
183,133,49244,1,2,0:3:0:0:
416,104,49423,1,8,0:0:0:0:
162,222,49602,1,2,0:3:0:0:
287,28,49780,5,2,0:0:0:0:
282,44,49959,1,2,0:0:0:0:
278,61,50137,1,2,0:0:0:0:
274,79,50316,1,2,0:0:0:0:
194,207,50494,6,0,P|146:207|93:193,1,99.0000030212403,6|0,0:0|0:0,0:0:0:0:
253,319,50852,2,0,P|300:306|350:306,1,99.0000030212403,2|0,0:0|0:0,0:0:0:0:
240,141,51209,1,2,0:0:0:0:
173,311,51387,1,2,0:0:0:0:
304,222,51566,1,8,0:0:0:0:
173,311,51744,1,2,0:0:0:0:
296,299,51923,5,2,0:0:0:0:
143,227,52102,1,0,0:0:0:0:
312,146,52280,1,8,0:0:0:0:
105,120,52459,1,0,0:0:0:0:
235,306,52637,1,2,0:0:0:0:
212,79,52816,2,0,B|313:49|312:121|419:81,1,198.000006042481,2|2,0:0|0:0,0:0:0:0:
386,308,53352,6,0,L|381:209,1,99.0000030212403,6|0,0:0|0:0,0:0:0:0:
263,261,53709,2,0,L|258:162,1,99.0000030212403,8|0,0:0|0:0,0:0:0:0:
405,85,54066,1,2,0:0:0:0:
258,162,54244,1,2,0:0:0:0:
293,36,54423,1,8,0:0:0:0:
381,209,54602,1,2,0:0:0:0:
188,29,54780,5,2,0:0:0:0:
276,202,54959,1,0,0:0:0:0:
82,174,55137,1,8,0:0:0:0:
291,215,55316,1,0,0:0:0:0:
188,29,55494,1,2,0:0:0:0:
176,288,55673,2,0,B|202:285|233:298|233:298|264:273|305:267|305:267|336:280|383:284,1,198.000006042481,2|2,0:0|0:0,0:0:0:0:
165,185,56209,6,0,P|148:115|156:73,1,99.0000030212403,6|0,0:0|0:0,0:0:0:0:
309,240,56566,2,0,P|310:289|295:335,1,99.0000030212403,8|0,0:0|0:0,0:0:0:0:
252,152,56923,1,2,0:0:0:0:
416,280,57102,1,2,0:0:0:0:
252,152,57280,1,8,0:0:0:0:
290,357,57459,1,2,0:0:0:0:
398,170,57637,5,2,0:0:0:0:
195,251,57816,1,0,0:0:0:0:
428,291,57994,1,8,0:0:0:0:
200,171,58173,1,0,0:0:0:0:
401,50,58352,2,0,L|503:57,1,99.0000030212403,2|2,0:0|0:0,0:0:0:0:
324,178,58709,2,0,L|222:185,1,99.0000030212403,8|2,0:0|0:0,0:0:0:0:
101,41,59066,6,0,P|136:89|147:132,1,80.9999975280763,6|0,0:0|0:0,0:0:0:0:
204,225,59423,1,8,0:0:0:0:
255,20,59602,2,0,P|266:67|258:111,1,80.9999975280763,2|0,0:0|0:0,0:0:0:0:
46,184,59959,2,0,L|154:187,1,80.9999975280763,2|8,0:0|0:0,0:0:0:0:
294,270,60316,1,0,0:0:0:0:
197,98,60494,5,4,0:0:0:0:
214,260,60673,1,2,0:3:0:0:
286,79,60852,1,8,0:0:0:0:
103,113,61030,1,2,0:3:0:0:
315,194,61209,1,6,0:0:0:0:
99,259,61387,1,2,0:0:0:0:
109,36,61566,1,8,0:0:0:0:
93,330,61744,1,2,0:0:0:0:
277,135,61923,6,0,P|241:123|165:125,1,99.0000030212403,6|0,0:0|0:0,0:0:0:0:
340,256,62280,2,0,P|389:256|436:242,1,99.0000030212403,8|0,0:0|0:0,0:0:0:0:
216,231,62637,1,2,0:0:0:0:
306,43,62816,1,2,0:0:0:0:
340,256,62994,1,8,0:0:0:0:
180,121,63173,1,2,0:0:0:0:
214,334,63351,5,2,0:0:0:0:
373,182,63530,1,0,0:0:0:0:
167,103,63709,1,8,0:0:0:0:
287,314,63887,1,0,0:0:0:0:
301,62,64066,1,2,0:0:0:0:
145,224,64244,2,0,B|240:264|240:194|338:229,1,198.000006042481,2|2,0:0|0:0,0:0:0:0:
148,142,64780,6,0,L|156:40,1,99.0000030212403,6|0,0:0|0:0,0:0:0:0:
48,222,65137,2,0,L|56:120,1,99.0000030212403,8|0,0:0|0:0,0:0:0:0:
242,92,65494,1,2,0:0:0:0:
85,31,65673,1,2,0:0:0:0:
150,222,65852,1,8,0:0:0:0:
159,15,66030,1,2,0:0:0:0:
312,141,66209,5,2,0:0:0:0:
144,141,66387,1,0,0:0:0:0:
311,34,66566,1,8,0:0:0:0:
314,251,66744,1,0,0:0:0:0:
209,54,66923,1,2,0:0:0:0:
210,312,67102,2,0,B|222:281|240:261|240:261|222:220|220:183|220:183|240:159|244:115,1,198.000006042481,2|2,0:0|0:0,0:0:0:0:
447,201,67637,6,0,L|341:197,1,99.0000030212403,6|0,0:0|0:0,0:0:0:0:
183,332,67994,2,0,L|289:328,1,99.0000030212403,8|0,0:0|0:0,0:0:0:0:
421,286,68352,1,2,0:0:0:0:
286,152,68530,1,2,0:0:0:0:
298,340,68709,1,8,0:0:0:0:
421,286,68887,1,2,0:0:0:0:
241,231,69066,5,2,0:0:0:0:
431,178,69244,1,0,0:0:0:0:
188,129,69423,1,8,0:0:0:0:
430,74,69602,1,0,0:0:0:0:
305,275,69780,1,2,0:0:0:0:
321,27,69959,1,2,0:0:0:0:
299,302,70137,2,0,L|174:305,1,99.0000030212403,8|2,0:0|0:0,0:0:0:0:
23,213,70494,6,0,L|104:215,1,80.9999975280763,6|0,0:0|0:0,0:0:0:0:
234,224,70852,1,8,0:0:0:0:
130,42,71030,2,0,P|150:61|178:119,1,80.9999975280763,2|2,0:0|0:3,0:0:0:0:
299,302,71387,2,0,P|316:265|344:236,1,80.9999975280763,2|2,0:0|0:0,0:0:0:0:
265,67,71744,1,0,0:0:0:0:
481,79,71923,6,0,L|375:75,1,90,6|2,0:0|0:3,0:0:0:0:
191,63,72280,1,8,0:0:0:0:
298,180,72459,1,2,0:3:0:0:
191,44,72637,1,4,0:0:0:0:
206,238,72816,1,2,0:0:0:0:
191,17,72994,1,2,0:0:0:0:
120,293,73173,1,2,0:0:0:0:
267,118,73352,6,0,P|308:113|365:121,1,72,6|0,0:0|0:0,0:0:0:0:
457,223,73709,2,0,P|421:224|385:220,1,72
216,189,74066,2,0,B|171:165|171:165|123:159|67:170,1,144,8|0,0:0|0:0,0:0:0:0:
223,289,74602,1,0,0:0:0:0:
223,289,74691,1,0,0:0:0:0:
223,289,74780,6,0,L|298:283,1,72,2|0,0:0|0:0,0:0:0:0:
116,361,75137,2,0,L|191:367,1,72,2|0,0:0|0:0,0:0:0:0:
371,309,75494,2,0,L|365:158,1,144,8|0,0:0|0:0,0:0:0:0:
267,31,76030,1,0,0:0:0:0:
267,31,76209,6,0,L|261:132,1,72,2|0,0:0|0:0,0:0:0:0:
445,190,76566,2,0,L|439:89,1,72
177,44,76923,2,0,L|171:145,1,72,8|0,0:0|0:0,0:0:0:0:
355,203,77280,2,0,L|349:102,1,72
109,175,77637,6,0,P|215:147|260:238,1,225,6|0,0:0|0:0,0:0:0:0:
116,279,78709,1,8,0:0:0:0:
168,139,78887,1,0,0:0:0:0:
168,139,78977,1,0,0:0:0:0:
168,139,79066,6,0,L|166:37,1,99.0000030212403,6|0,0:0|0:0,0:0:0:0:
267,199,79423,2,0,L|265:97,1,99.0000030212403,8|0,0:0|0:0,0:0:0:0:
142,229,79780,1,2,0:0:0:0:
354,152,79959,1,2,0:0:0:0:
134,125,80137,1,8,0:0:0:0:
355,237,80316,1,2,0:0:0:0:
109,228,80494,5,2,0:0:0:0:
266,77,80673,1,0,0:0:0:0:
446,200,80852,1,8,0:0:0:0:
192,161,81030,1,0,0:0:0:0:
444,75,81209,2,0,L|325:64,1,99.0000030212403,2|2,0:0|0:0,0:0:0:0:
146,209,81566,2,0,L|265:198,1,99.0000030212403,8|2,0:0|0:0,0:0:0:0:
417,218,81923,6,0,P|404:289|405:363,1,144,6|8,0:0|0:0,0:0:0:0:
218,281,82459,2,0,P|266:279|322:258,1,80.9999975280763,2|0,0:0|0:0,0:0:0:0:
426,144,82816,2,0,P|386:133|346:132,1,80.9999975280763,2|0,0:0|0:0,0:0:0:0:
121,124,83173,6,0,P|131:88|139:25,1,90,6|0,0:0|0:0,0:0:0:0:
242,211,83530,2,0,P|252:247|260:310,1,90,8|0,0:0|0:0,0:0:0:0:
51,237,83887,2,0,L|158:231,1,90,8|0,0:0|0:0,0:0:0:0:
241,71,84244,1,2,0:0:0:0:
248,225,84423,1,2,0:0:0:0:
160,156,84602,1,8,0:0:0:0:
400,131,84780,6,0,L|288:126,1,99.0000030212403,6|0,0:0|0:0,0:0:0:0:
125,157,85137,1,8,0:0:0:0:
359,239,85316,1,2,0:0:0:0:
102,242,85494,1,8,0:0:0:0:
377,127,85673,1,2,0:0:0:0:
85,70,85852,1,8,0:0:0:0:
429,193,86030,1,2,0:0:0:0:
255,339,86209,5,12,0:0:0:0:
179,125,86387,1,8,0:0:0:0:
377,305,86566,1,8,0:0:0:0:
135,305,86744,1,8,0:0:0:0:
333,125,86923,1,8,0:0:0:0:
70,73,87102,1,8,0:0:0:0:
267,252,87280,1,8,0:0:0:0:
256,34,87459,1,8,0:0:0:0:
135,305,87637,5,12,0:0:0:0:
