osu file format v14

[General]
AudioFilename: audio.mp3
AudioLeadIn: 0
PreviewTime: 217304
Countdown: 0
SampleSet: Soft
StackLeniency: 0.6
Mode: 0
LetterboxInBreaks: 0
WidescreenStoryboard: 1

[Editor]
Bookmarks: 92147,145304
DistanceSpacing: 3
BeatDivisor: 4
GridSize: 32
TimelineZoom: 2.350001

[Metadata]
Title:Candy Magic
TitleUnicode:Candy Magic
Artist:mimimemeMIMI
ArtistUnicode:mimimemeMIMI
Creator:ImAplayerMapper
Version:Last Magic (for fun)
Source:山田くんと7人の魔女
Tags:Yamada-kun to 7-nin no Majo ED
BeatmapID:1911728
BeatmapSetID:539795

[Difficulty]
HPDrainRate:6.4
CircleSize:4
OverallDifficulty:8.7
ApproachRate:9.3
SliderMultiplier:1.8
SliderTickRate:1

[Events]
//Background and Video events
0,0,"candy magic.jpg",0,0
//Break Periods
2,172879,182625
2,197429,206062
//Storyboard Layer 0 (Background)
//Storyboard Layer 1 (Fail)
//Storyboard Layer 2 (Pass)
//Storyboard Layer 3 (Foreground)
//Storyboard Sound Samples

[TimingPoints]
554,375,4,2,2,15,1,0
554,-133.333333333333,4,2,2,15,0,0
1679,375,4,2,2,25,1,0
1679,-125,4,2,2,25,0,0
7679,-125,4,2,2,30,0,0
9179,-125,4,2,3,55,0,0
9929,-125,4,2,2,55,0,0
10679,-100,4,2,3,50,0,0
16679,-100,4,2,3,60,0,0
19679,-100,4,2,2,40,0,0
21179,-100,4,2,3,50,0,0
21554,-100,4,2,3,55,0,0
21929,-100,4,2,3,60,0,0
22304,-100,4,2,3,65,0,0
22679,-125,4,2,2,25,0,0
33929,-83.3333333333333,4,2,2,25,0,0
34679,-111.111111111111,4,2,3,35,0,0
38710,-111.111111111111,4,2,2,5,0,0
38804,-111.111111111111,4,2,2,35,0,0
46679,-100,4,2,3,40,0,0
47241,-83.3333333333333,4,2,3,40,0,0
48741,-100,4,2,3,40,0,0
50241,-83.3333333333333,4,2,3,40,0,0
51741,-100,4,2,3,50,0,0
58679,-200,4,2,2,35,0,0
60085,-200,4,2,2,5,0,0
60179,-133.333333333333,4,2,2,40,0,0
61116,-133.333333333333,4,3,2,40,0,0
61679,-111.111111111111,4,2,3,60,0,0
63554,-111.111111111111,4,3,1,60,0,0
64679,-83.3333333333333,4,2,3,60,0,1
66179,-83.3333333333333,4,2,4,60,0,1
71710,-83.3333333333333,4,2,3,5,0,1
71804,-83.3333333333333,4,2,3,60,0,1
78179,-83.3333333333333,4,2,4,60,0,1
81179,-83.3333333333333,4,2,3,60,0,1
82772,-83.3333333333333,4,2,3,5,0,1
82866,-83.3333333333333,4,2,3,60,0,1
84929,-83.3333333333333,4,2,2,60,0,1
85679,-100,4,2,3,50,0,0
91679,-100,4,2,2,50,0,0
94116,-100,4,3,2,50,0,0
94679,-100,4,2,2,50,0,0
97679,-125,4,2,2,35,0,0
108179,-133.333333333333,4,2,2,20,0,0
108929,-111.111111111111,4,2,2,30,0,0
109679,-83.3333333333333,4,2,3,40,0,0
110241,-100,4,2,3,45,0,0
111741,-100,4,2,3,45,0,0
112304,-100,4,2,3,45,0,0
112679,-83.3333333333333,4,2,3,45,0,0
113241,-100,4,2,3,45,0,0
114179,-83.3333333333333,4,2,3,45,0,0
114741,-111.111111111111,4,2,3,45,0,0
115679,-100,4,2,3,45,0,0
118679,-83.3333333333333,4,2,3,45,0,0
119241,-100,4,2,3,45,0,0
121679,-133.333333333333,4,2,2,30,0,0
123929,-200,4,2,2,20,0,0
124304,-200,4,3,2,20,0,0
124679,-100,4,2,3,50,0,0
126554,-133.333333333333,4,2,2,55,0,0
127679,-83.3333333333333,4,2,3,60,0,1
129179,-83.3333333333333,4,2,4,60,0,1
134710,-83.3333333333333,4,2,3,60,0,1
134804,-83.3333333333333,4,2,3,60,0,1
141179,-83.3333333333333,4,2,4,60,0,1
144179,-83.3333333333333,4,2,3,60,0,1
147179,-83.3333333333333,4,2,2,60,0,1
148210,-83.3333333333333,4,2,3,60,0,1
148304,-83.3333333333333,4,3,2,60,0,1
148679,-111.111111111111,4,2,2,45,0,0
154116,-83.3333333333333,4,2,2,45,0,0
154397,-83.3333333333333,4,2,2,5,0,0
154491,-83.3333333333333,4,2,2,45,0,0
154679,-111.111111111111,4,2,2,45,0,0
160679,-133.333333333333,4,2,2,35,0,0
166304,-133.333333333333,4,3,2,35,0,0
166679,-100,4,3,2,40,0,0
168179,-111.111111111111,4,3,2,40,0,0
169679,-100,4,2,4,50,0,0
171179,-200,4,2,2,15,0,0
172679,-200,4,2,2,5,0,0
183179,-200,4,2,2,15,0,0
184679,-125,4,2,2,45,0,0
190679,-111.111111111111,4,2,2,40,0,0
193304,-111.111111111111,4,3,2,50,0,0
193679,-111.111111111111,4,2,3,55,0,0
197429,375,4,2,2,50,1,0
209054,-100,4,2,2,15,0,0
209429,-125,4,2,2,25,0,0
214679,-125,4,2,2,45,0,0
215429,-125,4,2,2,50,0,0
216929,-125,4,2,3,70,0,0
217491,-125,4,3,2,70,0,0
218429,-83.3333333333333,4,2,3,65,0,1
219929,-83.3333333333333,4,2,4,65,0,1
225460,-83.3333333333333,4,2,2,5,0,1
225554,-83.3333333333333,4,2,3,65,0,1
227429,-83.3333333333333,4,2,4,70,0,1
230429,-133.333333333333,4,2,2,40,0,0
231929,-133.333333333333,4,2,3,40,0,0
233429,-133.333333333333,4,2,2,45,0,0
234179,-111.111111111111,4,2,2,50,0,0
234929,-111.111111111111,4,2,3,60,0,0
236429,-111.111111111111,4,2,2,35,0,0
240929,-111.111111111111,4,2,2,40,0,0
242429,-111.111111111111,4,2,3,40,0,0
244960,-111.111111111111,4,3,2,40,0,0
245429,-100,4,2,3,70,0,0
246929,-100,4,2,4,75,0,0
247679,-100,4,2,2,55,0,0
248429,-100,4,2,3,50,0,0
255179,-100,4,2,3,54,0,0
255929,-100,4,2,3,58,0,0
256679,-100,4,2,3,62,0,0
257429,-100,4,2,3,70,0,0
258741,-100,4,2,3,50,0,0
260054,-100,4,3,2,50,0,0
260429,-100,4,2,3,50,0,0
266429,-100,4,2,3,60,0,0
269429,-100,4,2,2,40,0,0
270929,-100,4,2,3,50,0,0
271304,-100,4,2,3,60,0,0
271679,-100,4,2,3,70,0,0
272054,-100,4,2,3,80,0,0

[Colours]
Combo1 : 255,128,0
Combo2 : 255,255,0
Combo3 : 128,0,255
Combo4 : 0,255,0
Combo5 : 255,0,255
Combo6 : 0,255,255
Combo7 : 0,0,160

[HitObjects]
353,186,554,5,2,0:0:0:0:
403,265,741,1,2,0:0:0:0:
308,276,929,1,2,0:0:0:0:
440,183,1116,1,2,0:0:0:0:
368,101,1304,1,2,0:0:0:0:
481,57,1491,1,2,0:0:0:0:
353,186,1679,6,0,P|314:175|274:181,1,72,2|0,0:0|0:0,0:0:0:0:
238,268,2054,2,0,P|277:279|317:273,1,72,2|0,0:0|0:0,0:0:0:0:
186,194,2429,2,0,P|156:221|141:259,1,72,2|0,0:0|0:0,0:0:0:0:
199,101,2804,2,0,P|158:103|122:121,1,72,2|0,0:0|0:0,0:0:0:0:
283,178,3179,6,0,P|314:108|297:37,1,144,2|2,0:0|0:0,0:0:0:0:
199,101,3741,1,0,0:0:0:0:
186,194,3929,2,0,P|195:231|226:262,1,72,2|0,0:0|0:0,0:0:0:0:
323,275,4304,2,0,P|314:312|283:343,1,72,2|0,0:0|0:0,0:0:0:0:
283,178,4679,6,0,P|325:174|379:178,1,72,2|0,0:0|0:0,0:0:0:0:
199,101,5054,2,0,P|163:100|127:104,1,72,2|0,0:0|0:0,0:0:0:0:
145,259,5429,2,0,P|180:259|216:255,1,72,2|0,0:0|0:0,0:0:0:0:
90,186,5804,2,0,P|48:182|-6:186,1,72,2|0,0:0|0:0,0:0:0:0:
105,344,6179,6,0,P|172:349|259:337,1,144,2|2,0:0|0:0,0:0:0:0:
364,256,6741,1,0,0:0:0:0:
291,192,6929,2,0,P|272:233|276:277,1,72,2|0,0:0|0:0,0:0:0:0:
432,317,7304,2,0,P|452:287|457:250,1,72,2|0,0:0|0:0,0:0:0:0:
449,216,7585,1,0,0:0:0:0:
449,216,7679,5,2,0:0:0:0:
271,259,7866,1,0,0:0:0:0:
355,346,8054,1,0,0:0:0:0:
377,156,8241,1,0,0:0:0:0:
254,52,8429,2,0,P|257:97|256:150,1,72,2|0,0:0|0:0,0:0:0:0:
127,117,8804,2,0,P|124:152|123:188,1,72
122,223,9085,1,0,0:0:0:0:
122,223,9179,5,12,0:0:0:0:
364,256,9366,1,12,0:0:0:0:
265,32,9554,1,12,0:0:0:0:
254,159,9741,1,0,0:0:0:0:
384,97,9929,2,0,P|386:61|387:25,1,72,8|0,0:0|0:0,0:0:0:0:
509,220,10304,2,0,P|511:255|512:291,1,72,8|0,0:0|0:0,0:0:0:0:
376,247,10679,6,0,B|295:217|284:282|196:242,1,180,4|8,0:0|0:0,0:0:0:0:
62,127,11241,1,0,0:0:0:0:
250,70,11429,2,0,P|259:117|253:162,1,90
124,292,11804,2,0,P|115:245|121:200,1,90,8|0,0:0|0:0,0:0:0:0:
216,241,12179,5,2,0:0:0:0:
157,119,12366,1,0,0:0:0:0:
340,140,12554,2,0,P|297:157|246:157,1,90,10|0,0:0|0:0,0:0:0:0:
278,69,12929,1,2,0:0:0:0:
441,121,13116,1,0,0:0:0:0:
400,246,13304,1,10,0:0:0:0:
253,158,13491,1,0,0:0:0:0:
275,337,13679,6,0,P|283:288|273:238,1,90,2|0,0:0|0:0,0:0:0:0:
169,124,14054,1,10,0:0:0:0:
99,289,14241,2,0,L|192:290,1,90,0|2,0:0|0:0,0:0:0:0:
35,194,14616,1,0,0:0:0:0:
128,39,14804,2,0,P|172:32|216:40,1,90,10|0,0:0|0:0,0:0:0:0:
381,113,15179,6,0,L|365:298,1,180,0|8,0:0|0:0,0:0:0:0:
275,337,15741,1,0,0:0:0:0:
451,298,15929,1,0,0:0:0:0:
322,172,16116,1,0,0:0:0:0:
322,172,16210,1,0,0:0:0:0:
322,172,16304,2,0,L|279:193,1,45,8|0,0:0|0:0,0:0:0:0:
420,194,16491,2,0,L|480:167,1,45
398,80,16679,5,12,0:0:0:0:
352,272,16866,1,0,0:0:0:0:
207,135,17054,1,0,0:0:0:0:
461,175,17241,5,12,0:0:0:0:
211,238,17429,1,0,0:0:0:0:
278,33,17616,1,0,0:0:0:0:
365,300,17804,5,12,0:0:0:0:
182,112,17991,1,0,0:0:0:0:
414,57,18179,1,0,0:0:0:0:
181,260,18366,5,12,0:0:0:0:
287,4,18554,1,0,0:0:0:0:
485,200,18741,1,0,0:0:0:0:
155,94,18929,5,12,0:0:0:0:
394,325,19116,1,0,0:0:0:0:
350,70,19304,5,12,0:0:0:0:
234,345,19491,1,0,0:0:0:0:
262,200,19679,5,8,0:0:0:0:
369,190,19866,1,8,0:0:0:0:
267,92,20054,1,8,0:0:0:0:
444,108,20241,1,8,0:0:0:0:
345,25,20429,1,8,0:0:0:0:
381,228,20616,1,8,0:0:0:0:
180,31,20804,1,8,0:0:0:0:
139,296,20991,1,8,0:0:0:0:
68,80,21179,5,12,0:0:0:0:
345,343,21366,1,0,0:0:0:0:
32,163,21554,5,12,0:0:0:0:
407,235,21741,1,0,0:0:0:0:
68,246,21929,5,12,0:0:0:0:
442,117,22116,1,0,0:0:0:0:
139,296,22304,5,12,0:0:0:0:
396,2,22491,1,0,0:0:0:0:
327,85,22679,6,0,P|258:91|177:87,1,144,6|0,0:0|0:0,0:0:0:0:
112,85,23429,2,0,P|146:82|185:88,1,72,2|0,0:0|0:0,0:0:0:0:
218,166,23804,2,0,P|182:168|146:163,1,72,2|0,0:0|0:0,0:0:0:0:
263,238,24179,6,0,P|297:181|272:103,1,144,2|0,0:0|0:0,0:0:0:0:
277,109,24929,2,0,L|420:112,1,144,6|0,0:0|0:0,0:0:0:0:
484,170,25491,1,0,0:0:0:0:
469,255,25679,6,0,P|453:295|430:317,1,72,2|0,0:0|0:0,0:0:0:0:
386,241,26054,1,0,0:0:0:0:
386,241,26241,1,0,0:0:0:0:
299,250,26429,2,0,P|315:290|338:312,1,72,2|0,0:0|0:0,0:0:0:0:
335,171,26804,1,0,0:0:0:0:
335,171,26991,1,0,0:0:0:0:
248,175,27179,6,0,P|215:187|172:187,1,72,2|0,0:0|0:0,0:0:0:0:
200,104,27554,2,0,P|163:104|125:89,1,72,2|0,0:0|0:0,0:0:0:0:
78,22,27929,2,0,L|96:179,1,144,6|0,0:0|0:0,0:0:0:0:
79,249,28491,1,0,0:0:0:0:
169,308,28679,6,0,B|206:322|206:322|314:316,1,144,2|0,0:0|0:0,0:0:0:0:
414,216,29241,1,0,0:0:0:0:
414,216,29429,2,0,P|422:133|407:62,1,144,2|0,0:0|0:0,0:0:0:0:
312,29,29991,1,0,0:0:0:0:
312,29,30179,6,0,P|279:75|206:48,1,144,2|0,0:0|0:0,0:0:0:0:
112,103,30741,1,0,0:0:0:0:
112,103,30929,2,0,P|104:186|119:257,1,144,2|0,0:0|0:0,0:0:0:0:
115,245,31679,6,0,B|185:275|185:275|259:244,1,144,2|0,0:0|0:0,0:0:0:0:
307,186,32241,1,0,0:0:0:0:
223,71,32429,2,0,L|227:142,1,72,2|0,0:0|0:0,0:0:0:0:
311,25,32804,2,0,L|312:97,1,72,2|0,0:0|0:0,0:0:0:0:
380,245,33179,6,0,B|310:275|310:275|236:244,1,144,2|0,0:0|0:0,0:0:0:0:
175,200,33741,1,0,0:0:0:0:
145,121,33929,6,0,P|235:139|239:259,1,215.999993408203,2|4,0:0|0:0,0:0:0:0:
163,297,34679,6,0,P|122:302|75:295,1,80.9999975280763,6|0,0:0|0:0,0:0:0:0:
4,205,35054,2,0,P|44:210|84:205,1,80.9999975280763,2|0,0:0|0:0,0:0:0:0:
163,35,35429,2,0,P|167:75|162:115,1,80.9999975280763,2|0,0:0|0:0,0:0:0:0:
84,204,35804,1,2,0:0:0:0:
54,86,35991,1,0,0:0:0:0:
205,198,36179,6,0,P|239:167|255:126,1,80.9999975280763,2|0,0:0|0:0,0:0:0:0:
333,43,36554,2,0,P|364:77|405:93,1,80.9999975280763,2|0,0:0|0:0,0:0:0:0:
439,289,36929,2,0,B|436:201|494:224|484:118,1,161.999995056153,2|2,0:0|0:0,0:0:0:0:
475,16,37491,1,0,0:0:0:0:
333,43,37679,5,2,0:0:0:0:
329,75,37866,1,0,0:0:0:0:
485,137,38054,5,2,0:0:0:0:
483,167,38241,1,0,0:0:0:0:
365,165,38429,6,0,B|289:188|270:139|212:160,1,121.499996292114,2|0,0:0|0:0,0:0:0:0:
213,157,38804,1,2,0:0:0:0:
242,274,38991,1,0,0:0:0:0:
125,238,39179,2,0,P|82:252|53:275,1,80.9999975280763,2|0,0:0|0:0,0:0:0:0:
118,130,39554,2,0,P|77:155|45:192,1,80.9999975280763,2|0,0:0|0:0,0:0:0:0:
41,17,39929,2,0,L|54:181,1,161.999995056153,2|2,0:0|0:0,0:0:0:0:
121,324,40491,1,0,0:0:0:0:
121,324,40585,1,0,0:0:0:0:
121,324,40679,6,0,P|201:313|290:339,1,161.999995056153,6|2,0:0|0:0,0:0:0:0:
395,365,41241,1,0,0:0:0:0:
353,250,41429,2,0,L|347:167,1,80.9999975280763,2|0,0:0|0:0,0:0:0:0:
468,180,41804,2,0,L|473:99,1,80.9999975280763,2|0,0:0|0:0,0:0:0:0:
363,48,42179,6,0,P|285:27|205:38,1,161.999995056153,2|2,0:0|0:0,0:0:0:0:
99,98,42741,1,0,0:0:0:0:
202,162,42929,1,2,0:0:0:0:
205,38,43116,1,0,0:0:0:0:
99,211,43304,1,2,0:0:0:0:
300,213,43491,1,0,0:0:0:0:
417,47,43679,6,0,P|423:91|420:138,1,80.9999975280763,2|0,0:0|0:0,0:0:0:0:
368,298,44054,1,2,0:0:0:0:
487,215,44241,1,0,0:0:0:0:
331,124,44429,2,0,P|290:122|250:128,1,80.9999975280763,2|0,0:0|0:0,0:0:0:0:
84,193,44804,1,2,0:0:0:0:
157,67,44991,1,0,0:0:0:0:
188,307,45179,6,0,B|206:227|157:229|171:130,1,161.999995056153,2|0,0:0|0:0,0:0:0:0:
285,35,45741,1,2,0:0:0:0:
285,35,45835,1,2,0:0:0:0:
285,35,45929,1,2,0:0:0:0:
300,213,46116,1,0,0:0:0:0:
169,148,46304,1,0,0:0:0:0:
380,118,46491,1,0,0:0:0:0:
402,297,46679,6,0,P|322:340|231:325,1,180,4|0,0:0|0:0,0:0:0:0:
30,307,47241,6,0,B|116:304|116:304|153:332|153:332|253:326,1,215.999993408203,8|0,0:0|0:0,0:0:0:0:
319,166,47804,2,0,P|369:149|426:173,1,107.999996704102
449,189,48085,1,0,0:0:0:0:
449,189,48179,2,0,L|455:72,1,107.999996704102,8|0,0:0|0:0,0:0:0:0:
371,256,48554,1,0,0:0:0:0:
348,76,48741,6,0,B|255:51|257:119|152:84,1,180,8|0,0:0|0:0,0:0:0:0:
172,89,49210,1,0,0:0:0:0:
172,89,49304,1,0,0:0:0:0:
126,263,49491,1,0,0:0:0:0:
83,87,49679,2,0,P|126:168|210:170,1,180,8|0,0:0|0:0,0:0:0:0:
239,329,50241,6,0,B|207:172|207:172|264:211,1,215.999993408203,8|0,0:0|0:0,0:0:0:0:
359,278,50804,2,0,P|415:290|473:273,1,107.999996704102
463,278,51085,1,0,0:0:0:0:
463,278,51179,1,8,0:0:0:0:
446,63,51366,1,0,0:0:0:0:
410,207,51554,1,0,0:0:0:0:
289,27,51741,6,0,L|252:208,1,180,8|0,0:0|0:0,0:0:0:0:
95,291,52304,1,0,0:0:0:0:
121,113,52491,1,0,0:0:0:0:
121,113,52585,1,0,0:0:0:0:
121,113,52679,6,0,P|151:152|165:197,1,90,12|0,0:0|0:0,0:0:0:0:
171,352,53054,1,0,0:0:0:0:
345,310,53241,2,0,P|315:271|301:226,1,90,8|0,0:0|0:0,0:0:0:0:
298,70,53616,1,0,0:0:0:0:
387,134,53804,1,0,0:0:0:0:
163,190,53991,1,0,0:0:0:0:
163,190,54085,1,0,0:0:0:0:
163,190,54179,6,0,P|202:160|247:146,1,90,8|0,0:0|0:0,0:0:0:0:
411,228,54554,1,0,0:0:0:0:
283,327,54741,2,0,P|244:357|199:371,1,90,8|0,0:0|0:0,0:0:0:0:
34,269,55116,1,0,0:0:0:0:
211,280,55304,1,0,0:0:0:0:
115,107,55491,1,0,0:0:0:0:
247,206,55679,6,0,P|294:273|231:361,1,180,8|0,0:0|0:0,0:0:0:0:
34,269,56241,6,0,P|117:286|216:280,1,180,8|0,0:0|0:0,0:0:0:0:
389,311,56804,2,0,P|391:266|415:229,1,90
437,201,57085,1,0,0:0:0:0:
437,201,57179,5,4,0:0:0:0:
351,43,57366,2,0,L|343:92,1,45
325,176,57554,1,4,0:0:0:0:
207,109,57741,2,0,L|188:67,1,45
121,212,57929,2,0,L|171:193,1,45,4|0,0:0|0:0,0:0:0:0:
42,102,58116,2,0,L|39:149,1,45
31,306,58304,1,4,0:0:0:0:
73,291,58397,1,0,0:0:0:0:
117,295,58491,1,0,0:0:0:0:
156,316,58585,1,0,0:0:0:0:
184,352,58679,6,0,B|232:337|232:337|267:345|267:345|328:331,1,135,4|0,0:0|0:0,0:0:0:0:
417,246,59429,2,0,L|419:142,1,90,2|0,0:0|0:0,0:0:0:0:
303,49,59991,2,0,L|291:37|288:34|264:46,1,22.5,2|0,0:0|0:0,0:0:0:0:
303,49,60179,6,0,L|301:128,1,67.5000025749208,4|0,0:0|0:0,0:0:0:0:
183,147,60554,2,0,L|213:229,1,67.5000025749208,4|0,0:0|0:0,0:0:0:0:
160,300,60929,1,4,0:0:0:0:
262,294,61116,1,8,0:0:0:0:
206,210,61304,1,8,0:0:0:0:
306,204,61491,1,8,0:0:0:0:
252,75,61679,5,12,0:0:0:0:
264,325,61866,1,0,0:0:0:0:
91,138,62054,5,12,0:0:0:0:
420,129,62241,1,0,0:0:0:0:
149,307,62429,5,12,0:0:0:0:
189,10,62616,1,0,0:0:0:0:
375,303,62804,5,12,0:0:0:0:
313,11,62991,1,0,0:0:0:0:
258,360,63179,5,12,0:0:0:0:
252,75,63366,1,12,0:0:0:0:
373,198,63554,5,0,0:0:0:0:
358,74,63741,1,0,0:0:0:0:
269,233,63929,5,0,0:0:0:0:
459,125,64116,1,0,0:0:0:0:
459,125,64210,1,0,0:0:0:0:
459,125,64304,1,0,0:0:0:0:
474,162,64397,1,0,0:0:0:0:
479,202,64491,1,0,0:0:0:0:
470,241,64585,1,0,0:0:0:0:
451,279,64679,6,0,P|346:299|268:232,1,215.999993408203,4|8,0:0|0:0,0:0:0:0:
165,42,65241,1,0,0:0:0:0:
29,131,65429,2,0,B|107:114|118:185|260:138,1,215.999993408203,0|8,0:0|0:0,0:0:0:0:
383,66,65991,1,0,0:0:0:0:
301,243,66179,5,6,0:0:0:0:
263,52,66366,1,0,0:0:0:0:
475,159,66554,5,14,0:0:0:0:
204,164,66741,1,0,0:0:0:0:
416,272,66929,5,6,0:0:0:0:
384,37,67116,1,0,0:0:0:0:
272,259,67304,5,14,0:0:0:0:
495,128,67491,1,0,0:0:0:0:
241,34,67679,6,0,P|206:93|165:238,1,215.999993408203,0|8,0:0|0:0,0:0:0:0:
297,346,68241,1,0,0:0:0:0:
6,305,68429,2,0,B|90:272|119:360|233:320,1,215.999993408203,0|8,0:0|0:0,0:0:0:0:
415,244,68991,1,0,0:0:0:0:
415,244,69085,1,0,0:0:0:0:
415,244,69179,5,6,0:0:0:0:
299,62,69366,1,0,0:0:0:0:
316,245,69554,5,14,0:0:0:0:
387,76,69741,1,0,0:0:0:0:
193,117,69929,5,6,0:0:0:0:
216,330,70116,1,0,0:0:0:0:
282,159,70304,5,14,0:0:0:0:
73,182,70491,1,0,0:0:0:0:
334,266,70679,6,0,P|425:270|525:198,1,215.999993408203,0|8,0:0|0:0,0:0:0:0:
374,42,71241,1,0,0:0:0:0:
175,127,71429,2,0,L|212:311,1,161.999995056153
215,325,71804,6,0,P|163:318|108:339,1,107.999996704102,8|0,0:0|0:0,0:0:0:0:
343,369,72179,2,0,P|351:316|333:265,1,107.999996704102
165,23,72554,2,0,P|156:75|174:126,1,107.999996704102,8|0,0:0|0:0,0:0:0:0:
439,249,72929,2,0,P|430:195|397:149,1,107.999996704102
75,140,73304,2,0,P|84:194|117:240,1,107.999996704102,8|0,0:0|0:0,0:0:0:0:
305,45,73679,5,12,0:0:0:0:
333,265,73866,1,0,0:0:0:0:
113,237,74054,5,12,0:0:0:0:
400,151,74241,1,0,0:0:0:0:
171,27,74429,5,12,0:0:0:0:
222,324,74616,1,0,0:0:0:0:
87,108,74804,5,12,0:0:0:0:
360,49,74991,1,0,0:0:0:0:
360,49,75085,1,0,0:0:0:0:
360,49,75179,5,12,0:0:0:0:
193,186,75366,1,0,0:0:0:0:
421,252,75554,1,4,0:0:0:0:
421,252,75647,1,0,0:0:0:0:
421,252,75741,5,0,0:0:0:0:
209,35,75929,1,4,0:0:0:0:
29,235,76116,2,0,L|40:302,1,53.9999983520508
206,350,76304,1,4,0:0:0:0:
220,309,76397,1,0,0:0:0:0:
223,266,76491,1,0,0:0:0:0:
214,224,76585,1,0,0:0:0:0:
193,186,76679,6,0,B|159:107|207:33|207:33|272:109,1,215.999993408203,4|8,0:0|0:0,0:0:0:0:
330,176,77241,1,0,0:0:0:0:
122,266,77429,2,0,P|79:145|97:51,1,215.999993408203,0|8,0:0|0:0,0:0:0:0:
303,12,77991,1,0,0:0:0:0:
181,150,78179,5,6,0:0:0:0:
345,108,78366,1,0,0:0:0:0:
92,61,78554,5,14,0:0:0:0:
107,297,78741,1,0,0:0:0:0:
41,150,78929,5,6,0:0:0:0:
247,306,79116,1,0,0:0:0:0:
256,89,79304,5,14,0:0:0:0:
382,235,79491,1,0,0:0:0:0:
128,191,79679,6,0,L|103:316,1,107.999996704102
256,89,80054,2,0,L|279:212,1,107.999996704102,8|0,0:0|0:0,0:0:0:0:
149,76,80429,2,0,L|38:105,1,107.999996704102
257,286,80804,2,0,L|368:257,1,107.999996704102,8|0,0:0|0:0,0:0:0:0:
469,70,81179,5,4,0:0:0:0:
491,284,81366,1,0,0:0:0:0:
478,314,81460,1,0,0:0:0:0:
467,344,81554,5,12,0:0:0:0:
275,195,81741,1,0,0:0:0:0:
288,165,81835,1,0,0:0:0:0:
299,135,81929,5,4,0:0:0:0:
349,311,82116,2,0,L|361:259,1,53.9999983520508
220,342,82304,1,12,0:0:0:0:
185,316,82397,1,0,0:0:0:0:
145,301,82491,1,0,0:0:0:0:
102,298,82585,1,0,0:0:0:0:
60,308,82679,6,0,L|43:235,1,53.9999983520508,4|0,0:0|0:0,0:0:0:0:
59,148,82866,1,0,0:0:0:0:
261,226,83054,1,8,0:0:0:0:
230,12,83241,1,0,0:0:0:0:
444,44,83429,2,0,P|414:50|391:68,1,53.9999983520508,2|0,0:0|0:0,0:0:0:0:
351,190,83616,2,0,P|381:184|404:166,1,53.9999983520508,2|0,0:0|0:0,0:0:0:0:
242,128,83804,2,0,P|212:134|189:152,1,53.9999983520508,10|0,0:0|0:0,0:0:0:0:
126,264,83991,1,2,0:0:0:0:
386,336,84179,5,12,0:0:0:0:
348,36,84366,1,12,0:0:0:0:
126,264,84554,1,12,0:0:0:0:
261,226,84929,5,8,0:0:0:0:
179,192,85116,1,8,0:0:0:0:
206,301,85304,1,8,0:0:0:0:
248,140,85491,1,8,0:0:0:0:
331,289,85679,6,0,P|381:291|425:280,1,90,4|0,0:0|0:0,0:0:0:0:
261,226,86054,1,8,0:0:0:0:
322,96,86241,1,0,0:0:0:0:
181,63,86429,2,0,P|131:61|87:72,1,90
248,140,86804,1,8,0:0:0:0:
184,269,86991,1,0,0:0:0:0:
419,281,87179,6,0,L|428:177,1,90
277,314,87554,2,0,L|261:226,1,90,8|0,0:0|0:0,0:0:0:0:
224,30,87929,1,0,0:0:0:0:
341,165,88116,1,0,0:0:0:0:
330,0,88304,1,8,0:0:0:0:
227,147,88491,1,0,0:0:0:0:
422,110,88679,6,0,P|433:157|426:218,1,90
391,355,89054,1,8,0:0:0:0:
341,165,89241,1,0,0:0:0:0:
194,269,89429,2,0,P|147:280|86:273,1,90
42,158,89804,1,8,0:0:0:0:
33,319,89991,1,0,0:0:0:0:
142,195,90179,6,0,P|139:122|112:5,1,180,0|8,0:0|0:0,0:0:0:0:
243,146,90741,1,0,0:0:0:0:
329,8,90929,1,0,0:0:0:0:
449,164,91116,1,0,0:0:0:0:
334,326,91304,2,0,L|286:348,2,45,10|0|0,0:0|0:0|0:0,0:0:0:0:
345,109,91679,5,2,0:0:0:0:
438,303,91866,1,0,0:0:0:0:
222,279,92054,1,2,0:0:0:0:
384,224,92241,5,0,0:0:0:0:
166,164,92429,1,2,0:0:0:0:
311,11,92616,1,0,0:0:0:0:
311,11,92710,1,0,0:0:0:0:
311,11,92804,5,2,0:0:0:0:
283,188,92991,1,0,0:0:0:0:
125,42,93179,1,2,0:0:0:0:
96,264,93366,6,0,P|137:284|195:285,1,90,0|2,0:0|0:0,0:0:0:0:
359,266,93741,1,0,0:0:0:0:
265,344,93929,1,2,0:0:0:0:
443,327,94116,1,0,0:0:0:0:
455,298,94209,1,0,0:0:0:0:
460,267,94303,1,0,0:0:0:0:
457,236,94397,1,0,0:0:0:0:
446,206,94491,1,0,0:0:0:0:
427,181,94584,1,0,0:0:0:0:
403,161,94678,5,8,0:0:0:0:
177,172,94866,1,0,0:0:0:0:
359,266,95054,5,8,0:0:0:0:
111,308,95241,1,0,0:0:0:0:
318,134,95429,5,8,0:0:0:0:
266,384,95616,1,0,0:0:0:0:
230,88,95804,5,8,0:0:0:0:
202,319,95991,1,0,0:0:0:0:
63,65,96179,5,8,0:0:0:0:
34,260,96366,1,0,0:0:0:0:
234,52,96554,5,8,0:0:0:0:
198,355,96741,1,0,0:0:0:0:
269,250,96929,5,8,0:0:0:0:
335,335,97116,5,8,0:0:0:0:
384,259,97304,5,8,0:0:0:0:
384,259,97679,6,0,P|383:212|368:173,1,72,6|0,0:0|0:0,0:0:0:0:
292,79,98054,2,0,P|293:126|308:165,1,72,2|0,0:0|0:0,0:0:0:0:
376,108,98429,1,2,0:0:0:0:
376,108,98616,1,0,0:0:0:0:
299,236,98804,1,2,0:0:0:0:
299,236,98991,1,0,0:0:0:0:
206,166,99179,6,0,L|124:176,1,72,2|0,0:0|0:0,0:0:0:0:
109,257,99554,2,0,L|191:247,1,72,2|0,0:0|0:0,0:0:0:0:
28,201,99929,2,0,P|14:278|65:352,1,144,2|2,0:0|0:0,0:0:0:0:
148,380,100491,1,0,0:0:0:0:
254,335,100679,6,0,L|260:258,1,72,2|0,0:0|0:0,0:0:0:0:
211,94,101054,2,0,L|205:171,1,72,2|0,0:0|0:0,0:0:0:0:
109,257,101429,2,0,L|115:180,1,72,2|0,0:0|0:0,0:0:0:0:
27,69,101804,1,2,0:0:0:0:
124,91,101991,1,0,0:0:0:0:
192,16,102179,6,0,P|233:15|272:32,1,72,2|0,0:0|0:0,0:0:0:0:
377,85,102554,2,0,P|336:84|297:101,1,72,2|0,0:0|0:0,0:0:0:0:
227,235,102929,2,0,B|213:174|213:174|219:144|219:144|210:89,1,144,2|2,0:0|0:0,0:0:0:0:
352,173,103491,1,0,0:0:0:0:
236,338,103679,6,0,P|163:317|128:241,1,144,2|2,0:0|0:0,0:0:0:0:
126,81,104241,1,0,0:0:0:0:
27,167,104429,2,0,L|105:176,1,72,2|0,0:0|0:0,0:0:0:0:
290,239,104804,2,0,L|218:247,1,72,2|0,0:0|0:0,0:0:0:0:
201,14,105179,6,0,B|215:75|215:75|209:105|209:105|218:160,1,144,2|2,0:0|0:0,0:0:0:0:
129,261,105741,1,0,0:0:0:0:
194,338,105929,1,2,0:0:0:0:
306,212,106116,1,0,0:0:0:0:
298,312,106304,1,2,0:0:0:0:
218,247,106491,1,0,0:0:0:0:
389,272,106679,6,0,P|403:228|401:183,1,72,2|0,0:0|0:0,0:0:0:0:
368,62,107054,1,2,0:0:0:0:
301,117,107241,1,0,0:0:0:0:
177,42,107429,2,0,P|163:86|165:131,1,72,2|0,0:0|0:0,0:0:0:0:
186,253,107804,1,2,0:0:0:0:
119,198,107991,1,0,0:0:0:0:
164,336,108179,6,0,B|239:360|234:291|316:325,1,135.000005149842,6|2,0:0|0:0,0:0:0:0:
293,317,108741,1,0,0:0:0:0:
318,71,108929,1,2,0:0:0:0:
496,211,109116,2,0,L|439:224,2,40.4999987640381,0|0|2,0:0|0:0|0:0,0:0:0:0:
461,10,109491,1,0,0:0:0:0:
353,188,109679,6,0,P|245:175|184:274,1,215.999993408203,12|0,0:0|0:0,0:0:0:0:
137,79,110241,6,0,L|187:258,1,180,8|0,0:0|0:0,0:0:0:0:
310,303,110804,1,0,0:0:0:0:
250,173,110991,1,0,0:0:0:0:
169,354,111179,5,8,0:0:0:0:
159,156,111366,1,0,0:0:0:0:
212,270,111554,1,0,0:0:0:0:
203,58,111741,6,0,B|271:46|271:46|316:65|316:65|399:49,1,180,8|0,0:0|0:0,0:0:0:0:
510,30,112304,1,0,0:0:0:0:
456,220,112491,1,0,0:0:0:0:
253,136,112679,6,0,P|242:231|343:292,1,215.999993408203,8|0,0:0|0:0,0:0:0:0:
170,356,113241,6,0,B|206:320|206:320|342:290,1,180,8|0,0:0|0:0,0:0:0:0:
488,337,113804,1,0,0:0:0:0:
324,198,113991,1,0,0:0:0:0:
324,198,114085,1,0,0:0:0:0:
324,198,114179,6,0,P|335:103|234:42,1,215.999993408203,8|0,0:0|0:0,0:0:0:0:
240,142,114741,1,8,0:0:0:0:
85,91,114929,2,0,L|69:172,1,80.9999975280763
163,195,115304,2,0,L|179:276,1,80.9999975280763
238,340,115585,1,0,0:0:0:0:
238,340,115679,6,0,L|352:325,1,90,12|0,0:0|0:0,0:0:0:0:
438,310,116054,1,0,0:0:0:0:
419,108,116241,2,0,L|432:217,1,90,8|0,0:0|0:0,0:0:0:0:
308,55,116616,1,0,0:0:0:0:
258,243,116804,1,0,0:0:0:0:
98,132,116991,1,0,0:0:0:0:
98,132,117085,1,0,0:0:0:0:
98,132,117179,6,0,P|137:115|203:122,1,90,8|0,0:0|0:0,0:0:0:0:
50,240,117554,1,0,0:0:0:0:
27,47,117741,1,8,0:0:0:0:
154,208,117929,2,0,P|159:254|152:299,1,90
354,347,118304,2,0,P|349:301|356:256,1,90
421,71,118679,6,0,B|438:224|438:224|421:189|398:176,1,215.999993408203,8|0,0:0|0:0,0:0:0:0:
272,57,119241,6,0,P|350:21|421:71,1,180,8|0,0:0|0:0,0:0:0:0:
437,222,119804,1,0,0:0:0:0:
343,109,119991,1,0,0:0:0:0:
343,109,120085,1,0,0:0:0:0:
343,109,120179,5,12,0:0:0:0:
352,276,120366,2,0,P|323:270|297:272,1,45
211,298,120554,1,12,0:0:0:0:
186,83,120741,1,0,0:0:0:0:
8,213,120929,2,0,L|20:264,3,45,12|0|0|0,0:0|0:0|0:0|0:0,0:0:0:0:
62,126,121304,2,0,L|46:74,1,45,12|0,0:0|0:0,0:0:0:0:
152,176,121491,2,0,L|166:227,1,45
186,83,121679,6,0,B|265:77|265:77|297:49|297:49|380:45,1,202.500007724762,6|0,0:0|0:0,0:0:0:0:
357,249,122429,2,0,P|370:182|335:125,1,135.000005149842,6|0,0:0|0:0,0:0:0:0:
259,199,122991,2,0,P|281:200|307:193,1,33.7500012874604,2|0,0:0|0:0,0:0:0:0:
220,277,123179,6,0,L|239:349,1,67.5000025749208,6|0,0:0|0:0,0:0:0:0:
146,241,123554,2,0,L|128:161,1,67.5000025749208,4|0,0:0|0:0,0:0:0:0:
69,109,123929,2,8,P|111:89|168:93,1,90,14|8,0:0|0:0,0:0:0:0:
261,123,124491,1,8,0:0:0:0:
193,319,124679,5,12,0:0:0:0:
153,88,124866,1,0,0:0:0:0:
305,354,125054,5,12,0:0:0:0:
308,30,125241,1,0,0:0:0:0:
456,329,125429,5,12,0:0:0:0:
469,15,125616,1,0,0:0:0:0:
372,267,125804,5,12,0:0:0:0:
207,9,125991,1,0,0:0:0:0:
101,260,126179,5,12,0:0:0:0:
389,77,126366,1,12,0:0:0:0:
455,144,126554,2,0,L|448:231,1,67.5000025749208,2|0,0:0|0:0,0:0:0:0:
372,267,126929,1,2,0:0:0:0:
372,267,127116,1,0,0:0:0:0:
306,198,127304,2,0,P|271:192|220:197,1,67.5000025749208,2|0,0:0|0:0,0:0:0:0:
101,260,127679,6,0,B|71:207|71:207|91:29,1,215.999993408203,4|8,0:0|0:0,0:0:0:0:
239,193,128241,1,0,0:0:0:0:
384,59,128429,2,0,B|401:213|401:213|371:266,1,215.999993408203,0|8,0:0|0:0,0:0:0:0:
202,361,128991,1,0,0:0:0:0:
248,160,129179,5,6,0:0:0:0:
284,306,129366,1,0,0:0:0:0:
157,103,129554,5,14,0:0:0:0:
114,336,129741,1,0,0:0:0:0:
237,59,129929,5,6,0:0:0:0:
195,270,130116,1,0,0:0:0:0:
57,49,130304,5,14,0:0:0:0:
19,304,130491,1,0,0:0:0:0:
248,160,130679,6,0,P|364:151|453:218,1,215.999993408203,0|8,0:0|0:0,0:0:0:0:
307,65,131241,1,0,0:0:0:0:
270,303,131429,2,0,P|329:330|314:231,1,215.999993408203,0|8,0:0|0:0,0:0:0:0:
102,186,131991,1,0,0:0:0:0:
102,186,132085,1,0,0:0:0:0:
102,186,132179,5,6,0:0:0:0:
357,149,132366,1,0,0:0:0:0:
190,254,132554,5,14,0:0:0:0:
213,18,132741,1,0,0:0:0:0:
297,242,132929,5,6,0:0:0:0:
332,7,133116,1,0,0:0:0:0:
445,216,133304,5,14,0:0:0:0:
198,106,133491,1,0,0:0:0:0:
192,363,133679,6,0,L|409:335,1,215.999993408203,0|8,0:0|0:0,0:0:0:0:
347,138,134241,1,0,0:0:0:0:
138,196,134429,2,0,P|89:121|112:33,1,161.999995056153
132,10,134804,2,0,L|249:30,1,107.999996704102,8|0,0:0|0:0,0:0:0:0:
323,243,135179,6,0,L|350:124,1,107.999996704102
161,301,135554,2,0,L|134:182,1,107.999996704102,8|0,0:0|0:0,0:0:0:0:
388,323,135929,2,0,L|415:204,1,107.999996704102
221,211,136304,2,0,L|194:92,1,107.999996704102,8|0,0:0|0:0,0:0:0:0:
323,243,136679,5,12,0:0:0:0:
463,13,136866,1,0,0:0:0:0:
492,245,137054,5,12,0:0:0:0:
284,26,137241,1,0,0:0:0:0:
185,313,137429,5,12,0:0:0:0:
83,64,137616,1,0,0:0:0:0:
323,243,137804,5,12,0:0:0:0:
22,219,137991,1,0,0:0:0:0:
22,219,138085,1,0,0:0:0:0:
22,219,138179,5,12,0:0:0:0:
250,21,138366,1,0,0:0:0:0:
145,210,138554,5,4,0:0:0:0:
379,174,138741,1,0,0:0:0:0:
365,368,138929,1,4,0:0:0:0:
365,368,139022,1,0,0:0:0:0:
365,368,139116,1,0,0:0:0:0:
185,313,139304,2,0,L|235:290,1,53.9999983520508,6|0,0:0|0:0,0:0:0:0:
283,158,139491,2,0,L|228:179,1,53.9999983520508,2|0,0:0|0:0,0:0:0:0:
411,264,139679,6,0,P|467:190|421:84,1,215.999993408203,4|8,0:0|0:0,0:0:0:0:
247,0,140241,1,0,0:0:0:0:
81,104,140429,2,0,B|125:141|125:141|285:158,1,215.999993408203,0|8,0:0|0:0,0:0:0:0:
135,226,140991,1,0,0:0:0:0:
247,0,141179,5,6,0:0:0:0:
379,174,141366,1,0,0:0:0:0:
155,40,141554,5,14,0:0:0:0:
255,266,141741,1,0,0:0:0:0:
377,48,141929,5,6,0:0:0:0:
503,260,142116,1,0,0:0:0:0:
278,108,142304,5,14,0:0:0:0:
389,329,142491,1,0,0:0:0:0:
172,314,142679,6,0,P|160:263|175:204,1,107.999996704102
278,3,143054,2,0,P|290:54|275:113,1,107.999996704102,8|0,0:0|0:0,0:0:0:0:
150,132,143429,2,0,L|35:105,1,107.999996704102
315,182,143804,2,0,L|430:209,1,107.999996704102,8|0,0:0|0:0,0:0:0:0:
249,261,144179,5,4,0:0:0:0:
389,97,144366,1,0,0:0:0:0:
389,97,144460,1,0,0:0:0:0:
389,97,144554,1,12,0:0:0:0:
458,301,144741,1,0,0:0:0:0:
284,171,144929,6,0,P|255:167|218:172,1,53.9999983520508,6|0,0:0|0:0,0:0:0:0:
252,300,145116,2,0,P|256:271|251:234,1,53.9999983520508,2|0,0:0|0:0,0:0:0:0:
121,230,145304,2,0,P|147:231|174:228,1,53.9999983520508,14|0,0:0|0:0,0:0:0:0:
147,100,145491,2,0,P|143:129|148:166,1,53.9999983520508,2|0,0:0|0:0,0:0:0:0:
262,38,145679,5,4,0:0:0:0:
50,61,145866,2,0,P|42:100|46:141,2,53.9999983520508,0|0|8,0:0|0:0|0:0,0:0:0:0:
121,230,146241,1,0,0:0:0:0:
332,181,146429,2,0,L|385:193,1,53.9999983520508,2|0,0:0|0:0,0:0:0:0:
428,291,146616,2,0,L|375:279,1,53.9999983520508,2|0,0:0|0:0,0:0:0:0:
468,144,146804,1,8,0:0:0:0:
256,272,146991,1,0,0:0:0:0:
253,22,147179,5,8,0:0:0:0:
144,208,147366,1,8,0:0:0:0:
209,100,147554,5,8,0:0:0:0:
193,353,147741,1,8,0:0:0:0:
25,208,147929,2,0,B|30:101|30:101|39:134|65:154,1,161.999995056153,10|0,0:0|0:0,0:0:0:0:
113,86,148304,1,0,0:0:0:0:
134,49,148397,1,0,0:0:0:0:
169,23,148491,1,0,0:0:0:0:
210,14,148585,1,0,0:0:0:0:
253,22,148679,6,0,P|297:42|343:46,1,80.9999975280763,4|0,0:0|0:0,0:0:0:0:
458,33,149054,1,10,0:0:0:0:
458,33,149241,1,0,0:0:0:0:
384,139,149429,2,0,P|390:178|408:215,1,80.9999975280763
492,315,149804,1,10,0:0:0:0:
363,330,149991,6,0,P|323:336|286:354,1,80.9999975280763
295,224,150366,1,0,0:0:0:0:
183,157,150554,2,0,P|176:196|158:233,1,80.9999975280763,10|0,0:0|0:0,0:0:0:0:
63,321,150929,1,0,0:0:0:0:
63,321,151116,1,0,0:0:0:0:
209,327,151304,1,10,0:0:0:0:
85,165,151491,1,0,0:0:0:0:
85,165,151585,1,0,0:0:0:0:
85,165,151679,6,0,P|81:117|89:74,1,80.9999975280763
209,7,152054,1,10,0:0:0:0:
316,104,152241,2,0,P|361:109|401:98,1,80.9999975280763
487,191,152616,2,0,P|442:186|402:197,1,80.9999975280763,0|10,0:0|0:0,0:0:0:0:
312,255,152991,2,0,L|311:302,1,40.4999987640381
255,356,153179,5,0,0:0:0:0:
238,195,153366,1,0,0:0:0:0:
414,295,153554,1,10,0:0:0:0:
374,96,153741,2,0,P|334:73|276:60,1,80.9999975280763
98,49,154116,2,0,P|138:26|146:113,1,161.999995056153,2|10,0:0|0:0,0:0:0:0:
92,203,154491,1,0,0:0:0:0:
92,203,154585,1,0,0:0:0:0:
92,203,154679,6,0,P|101:247|101:297,1,80.9999975280763,4|0,0:0|0:0,0:0:0:0:
158,341,154960,2,0,L|208:328,1,40.4999987640381,0|10,0:0|0:0,0:0:0:0:
356,300,155241,1,0,0:0:0:0:
253,173,155429,1,0,0:0:0:0:
264,269,155616,1,0,0:0:0:0:
349,130,155804,2,0,L|352:224,1,80.9999975280763,10|0,0:0|0:0,0:0:0:0:
390,197,156085,1,0,0:0:0:0:
390,197,156179,6,0,P|427:213|458:247,1,80.9999975280763,8|0,0:0|0:0,0:0:0:0:
356,300,156554,1,10,0:0:0:0:
488,147,156741,2,0,P|486:103|469:62,1,80.9999975280763
390,197,157116,1,0,0:0:0:0:
266,91,157304,2,0,P|222:93|181:110,1,80.9999975280763,10|0,0:0|0:0,0:0:0:0:
64,212,157679,5,2,0:0:0:0:
139,354,157866,1,0,0:0:0:0:
95,114,158054,5,2,0:0:0:0:
187,266,158241,1,0,0:0:0:0:
160,32,158429,5,2,0:0:0:0:
245,190,158616,2,0,P|272:192|306:185,1,40.4999987640381
382,158,158804,1,2,0:0:0:0:
480,286,158991,2,0,P|451:284|417:291,1,40.4999987640381
343,320,159179,1,2,0:0:0:0:
285,84,159366,1,0,0:0:0:0:
215,278,159554,1,2,0:0:0:0:
180,136,159741,1,0,0:0:0:0:
53,209,159929,6,0,P|80:217|136:216,2,53.9999983520508,2|0|0,0:0|0:0|0:0,0:0:0:0:
53,306,160304,2,0,P|26:298|-30:299,2,53.9999983520508,2|0|0,0:0|0:0|0:0,0:0:0:0:
90,137,160679,6,0,B|75:73|106:36|106:36|129:72,1,135.000005149842,14|2,0:0|0:0,0:0:0:0:
105,219,161241,1,0,0:0:0:0:
273,228,161429,2,0,B|288:292|257:329|257:329|234:293,1,135.000005149842,12|2,0:0|0:0,0:0:0:0:
247,150,161991,1,0,0:0:0:0:
247,150,162085,1,0,0:0:0:0:
247,150,162179,6,0,P|212:164|190:192,2,67.5000025749208,12|0|2,0:0|0:0|0:0,0:0:0:0:
325,96,162741,1,0,0:0:0:0:
419,93,162929,2,0,P|454:79|476:51,1,67.5000025749208,12|0,0:0|0:0,0:0:0:0:
477,165,163304,2,0,P|442:179|420:207,1,67.5000025749208,2|0,0:0|0:0,0:0:0:0:
427,333,163679,6,0,P|435:270|419:192,1,135.000005149842,12|2,0:0|0:0,0:0:0:0:
206,199,164429,2,0,P|198:262|214:340,1,135.000005149842,12|2,0:0|0:0,0:0:0:0:
281,155,164991,1,0,0:0:0:0:
281,155,165085,1,0,0:0:0:0:
281,155,165179,6,0,P|287:121|285:86,1,67.5000025749208,12|0,0:0|0:0,0:0:0:0:
206,35,165554,2,0,P|200:69|202:104,1,67.5000025749208,6|0,0:0|0:0,0:0:0:0:
114,177,165929,2,0,P|120:143|118:108,1,67.5000025749208,4|0,0:0|0:0,0:0:0:0:
38,0,166304,1,2,0:0:0:0:
31,33,166397,1,0,0:0:0:0:
27,66,166491,1,0,0:0:0:0:
26,100,166585,1,0,0:0:0:0:
28,134,166679,5,10,0:0:0:0:
55,334,166866,1,10,0:0:0:0:
122,264,167054,5,10,0:0:0:0:
156,380,167241,1,10,0:0:0:0:
211,218,167429,5,10,0:0:0:0:
224,330,167616,1,10,0:0:0:0:
316,216,167804,5,10,0:0:0:0:
364,370,167991,1,10,0:0:0:0:
459,238,168179,6,0,L|466:186,3,40.4999987640381
396,123,168554,2,0,L|394:70,3,40.4999987640381
292,81,168929,1,0,0:0:0:0:
257,69,169022,1,0,0:0:0:0:
221,64,169116,1,0,0:0:0:0:
185,65,169210,1,0,0:0:0:0:
149,72,169304,1,0,0:0:0:0:
122,126,169397,1,0,0:0:0:0:
150,179,169491,1,0,0:0:0:0:
121,232,169585,1,0,0:0:0:0:
154,283,169679,5,14,0:0:0:0:
404,342,169866,1,0,0:0:0:0:
209,374,170054,5,14,0:0:0:0:
419,234,170241,1,0,0:0:0:0:
278,258,170429,5,14,0:0:0:0:
508,312,170616,1,0,0:0:0:0:
461,80,170804,5,14,0:0:0:0:
419,234,170991,1,0,0:0:0:0:
328,14,171179,6,0,B|330:70|322:113|297:143|203:183|335:260|454:172|356:143|342:113|330:71|329:23,1,360,14|6,0:0|0:0,0:0:0:0:
330,146,183179,6,0,P|319:78|253:188,1,315,6|0,0:0|0:0,0:0:0:0:
306,220,184585,1,0,0:0:0:0:
306,220,184679,6,0,P|314:257|308:305,1,72,6|0,0:0|0:0,0:0:0:0:
228,264,185054,2,0,P|220:301|226:349,1,72,2|0,0:0|0:0,0:0:0:0:
231,111,185429,2,0,P|239:148|233:196,1,72,2|0,0:0|0:0,0:0:0:0:
132,150,185804,1,2,0:0:0:0:
132,150,185991,1,0,0:0:0:0:
170,41,186179,6,0,P|202:25|251:22,1,72,2|0,0:0|0:0,0:0:0:0:
403,91,186554,2,0,P|371:75|322:72,1,72,2|0,0:0|0:0,0:0:0:0:
429,173,186929,2,0,P|476:138|476:44,1,144,2|2,0:0|0:0,0:0:0:0:
394,338,187679,6,0,P|338:295|332:225,1,144,2|2,0:0|0:0,0:0:0:0:
411,253,188241,1,0,0:0:0:0:
341,146,188429,2,0,L|257:160,1,72,2|0,0:0|0:0,0:0:0:0:
176,247,188804,2,0,L|260:233,1,72,2|0,0:0|0:0,0:0:0:0:
111,185,189179,5,2,0:0:0:0:
111,185,189554,5,8,0:0:0:0:
121,328,189741,1,8,0:0:0:0:
18,187,189929,1,8,0:0:0:0:
94,349,190116,1,8,0:0:0:0:
54,99,190304,1,8,0:0:0:0:
207,191,190491,1,8,0:0:0:0:
196,33,190679,6,0,B|165:113|224:113|203:214,1,161.999995056153,14|2,0:0|0:0,0:0:0:0:
405,332,191429,2,0,B|436:252|377:252|398:151,1,161.999995056153,14|2,0:0|0:0,0:0:0:0:
409,53,191991,1,0,0:0:0:0:
312,291,192179,6,0,B|265:285|265:285|205:295,1,80.9999975280763,2|0,0:0|0:0,0:0:0:0:
75,334,192554,1,2,0:0:0:0:
75,334,192929,2,0,L|58:182,1,121.499996292114,8|0,0:0|0:0,0:0:0:0:
78,133,193304,1,0,0:0:0:0:
132,145,193397,1,0,0:0:0:0:
188,138,193491,1,0,0:0:0:0:
238,111,193585,1,0,0:0:0:0:
276,69,193679,5,12,0:0:0:0:
232,266,193866,1,0,0:0:0:0:
154,35,194054,5,12,0:0:0:0:
377,246,194241,1,0,0:0:0:0:
410,4,194429,5,12,0:0:0:0:
125,175,194616,1,0,0:0:0:0:
459,141,194804,5,12,0:0:0:0:
268,0,194991,1,0,0:0:0:0:
321,338,195179,5,12,0:0:0:0:
268,0,195366,1,12,0:0:0:0:
256,192,206616,12,2,209054,0:0:0:0:
107,35,209429,6,0,L|116:114,1,72,6|0,0:0|0:0,0:0:0:0:
198,83,209804,2,0,L|207:162,1,72,2|0,0:0|0:0,0:0:0:0:
127,191,210179,2,0,L|136:270,1,72,2|0,0:0|0:0,0:0:0:0:
221,272,210554,2,0,L|230:351,1,72,2|0,0:0|0:0,0:0:0:0:
328,267,210929,6,0,L|319:338,1,72,2|0,0:0|0:0,0:0:0:0:
422,186,211304,2,0,L|413:257,1,72,2|0,0:0|0:0,0:0:0:0:
351,78,211679,2,0,L|342:149,1,72,2|0,0:0|0:0,0:0:0:0:
442,30,212054,2,0,L|433:101,1,72,2|0,0:0|0:0,0:0:0:0:
413,257,212429,6,0,L|235:265,1,144,2|2,0:0|0:0,0:0:0:0:
125,257,213179,2,0,L|303:265,1,144,2|2,0:0|0:0,0:0:0:0:
87,155,213929,5,2,0:0:0:0:
19,229,214116,1,2,0:0:0:0:
22,71,214304,1,2,0:0:0:0:
183,96,214491,1,2,0:0:0:0:
125,257,214679,1,8,0:0:0:0:
125,257,214866,1,8,0:0:0:0:
255,194,215054,1,8,0:0:0:0:
255,194,215241,1,8,0:0:0:0:
372,277,215429,6,0,P|395:196|376:129,1,144,4|0,0:0|0:0,0:0:0:0:
278,38,215991,2,0,L|226:51,2,36
255,194,216366,2,0,L|208:209,1,36
226,314,216554,2,0,L|273:299,1,36
125,257,216741,1,0,0:0:0:0:
278,38,216929,5,12,0:0:0:0:
372,277,217116,1,12,0:0:0:0:
487,165,217304,1,12,0:0:0:0:
372,277,217491,1,0,0:0:0:0:
348,153,217679,5,0,0:0:0:0:
476,317,217866,1,0,0:0:0:0:
476,317,217960,1,0,0:0:0:0:
476,317,218054,1,0,0:0:0:0:
449,351,218147,1,0,0:0:0:0:
412,372,218241,1,0,0:0:0:0:
370,378,218335,1,0,0:0:0:0:
328,367,218429,6,0,B|284:342|284:342|113:363,1,216,4|8,0:0|0:0,0:0:0:0:
278,215,218991,1,0,0:0:0:0:
80,149,219179,2,0,L|122:374,1,215.999993408203,0|8,0:0|0:0,0:0:0:0:
253,192,219741,1,0,0:0:0:0:
8,237,219929,5,6,0:0:0:0:
247,300,220116,1,0,0:0:0:0:
2,349,220304,5,14,0:0:0:0:
177,130,220491,1,0,0:0:0:0:
119,361,220679,5,6,0:0:0:0:
64,86,220866,1,0,0:0:0:0:
247,300,221054,5,14,0:0:0:0:
235,20,221241,1,0,0:0:0:0:
411,239,221429,6,0,B|439:153|439:153|427:108|427:108|452:26,1,215.999993408203,0|8,0:0|0:0,0:0:0:0:
336,148,221991,1,0,0:0:0:0:
326,310,222179,2,0,P|419:346|511:284,1,215.999993408203,0|8,0:0|0:0,0:0:0:0:
450,32,222741,1,0,0:0:0:0:
450,32,222835,1,0,0:0:0:0:
450,32,222929,5,6,0:0:0:0:
411,239,223116,1,0,0:0:0:0:
235,104,223304,5,14,0:0:0:0:
512,107,223491,1,0,0:0:0:0:
267,200,223679,5,6,0:0:0:0:
315,12,223866,1,0,0:0:0:0:
370,320,224054,5,14,0:0:0:0:
70,197,224241,1,0,0:0:0:0:
150,25,224429,6,0,B|200:85|200:85|207:131|207:131|266:199,1,215.999993408203,0|8,0:0|0:0,0:0:0:0:
53,171,224991,1,0,0:0:0:0:
265,317,225179,2,0,P|343:291|376:218,1,161.999995056153
372,168,225554,2,0,L|350:52,1,107.999996704102,8|0,0:0|0:0,0:0:0:0:
161,257,225929,6,0,L|183:373,1,107.999996704102
185,152,226304,2,0,P|129:153|72:188,1,107.999996704102,8|0,0:0|0:0,0:0:0:0:
342,268,226679,2,0,P|398:267|455:232,1,107.999996704102
291,186,227054,1,8,0:0:0:0:
286,336,227241,1,0,0:0:0:0:
106,54,227429,5,12,0:0:0:0:
47,356,227616,1,0,0:0:0:0:
321,160,227804,5,12,0:0:0:0:
13,128,227991,1,0,0:0:0:0:
176,379,228179,5,12,0:0:0:0:
223,40,228366,1,0,0:0:0:0:
303,294,228554,5,12,0:0:0:0:
100,42,228741,1,0,0:0:0:0:
100,42,228835,1,0,0:0:0:0:
100,42,228929,5,10,0:0:0:0:
150,251,229116,2,0,P|176:255|206:246,2,53.9999983520508,0|0|10,0:0|0:0|0:0,0:0:0:0:
223,40,229491,1,0,0:0:0:0:
422,125,229679,6,0,P|435:167|435:214,1,71.9999978027344,10|0,0:0|0:0,0:0:0:0:
420,280,229929,1,0,0:0:0:0:
353,335,230054,6,0,P|340:293|340:246,1,71.9999978027344,10|0,0:0|0:0,0:0:0:0:
355,180,230304,1,0,0:0:0:0:
139,105,230429,6,0,P|210:115|276:140,1,135.000005149842,14|2,0:0|0:0,0:0:0:0:
113,193,230991,1,0,0:0:0:0:
42,101,231179,2,0,P|66:43|141:14,1,135.000005149842,12|0,0:0|0:0,0:0:0:0:
269,136,231741,1,0,0:0:0:0:
269,136,231835,1,0,0:0:0:0:
269,136,231929,6,0,P|268:176|259:229,1,67.5000025749208,2|0,0:0|0:0,0:0:0:0:
202,323,232304,1,2,0:0:0:0:
113,193,232491,1,0,0:0:0:0:
106,308,232679,1,2,0:0:0:0:
192,160,232866,1,0,0:0:0:0:
198,241,233054,1,0,0:0:0:0:
35,240,233241,1,0,0:0:0:0:
35,240,233335,1,0,0:0:0:0:
35,240,233429,6,0,P|25:196|27:160,1,67.5000025749208,2|0,0:0|0:0,0:0:0:0:
107,41,233804,2,0,P|117:85|115:121,1,67.5000025749208,2|0,0:0|0:0,0:0:0:0:
205,320,234179,2,0,P|195:276|199:233,1,80.9999975280763,2|0,0:0|0:0,0:0:0:0:
380,151,234554,2,0,P|390:195|386:238,1,80.9999975280763,2|0,0:0|0:0,0:0:0:0:
350,346,234929,5,12,0:0:0:0:
199,87,235116,1,0,0:0:0:0:
254,314,235304,5,12,0:0:0:0:
385,23,235491,1,0,0:0:0:0:
433,304,235679,5,12,0:0:0:0:
257,4,235866,1,0,0:0:0:0:
511,187,236054,1,12,0:0:0:0:
511,187,236147,1,0,0:0:0:0:
511,187,236241,1,0,0:0:0:0:
315,105,236429,5,12,0:0:0:0:
245,172,236616,1,8,0:0:0:0:
199,87,236804,1,8,0:0:0:0:
245,172,236991,1,8,0:0:0:0:
269,30,237179,1,8,0:0:0:0:
362,181,237366,1,8,0:0:0:0:
199,87,237554,1,8,0:0:0:0:
196,264,237741,1,8,0:0:0:0:
245,172,237929,5,8,0:0:0:0:
299,306,238116,1,8,0:0:0:0:
196,264,238304,1,8,0:0:0:0:
219,384,238491,1,8,0:0:0:0:
299,306,238679,1,8,0:0:0:0:
139,331,238866,1,8,0:0:0:0:
369,356,239054,2,0,P|382:313|375:268,1,80.9999975280763,8|0,0:0|0:0,0:0:0:0:
364,248,239335,1,0,0:0:0:0:
364,248,239429,6,0,P|328:227|276:223,1,80.9999975280763,14|0,0:0|0:0,0:0:0:0:
196,264,239804,1,0,0:0:0:0:
197,102,239991,2,0,L|223:192,1,80.9999975280763,6|0,0:0|0:0,0:0:0:0:
284,106,240366,1,0,0:0:0:0:
289,221,240554,1,0,0:0:0:0:
145,200,240741,2,0,P|126:219|115:241,1,40.4999987640381
77,301,240929,5,14,0:0:0:0:
64,123,241116,1,8,0:0:0:0:
196,264,241304,5,14,0:0:0:0:
90,101,241491,1,8,0:0:0:0:
119,230,241679,5,14,0:0:0:0:
112,84,241866,1,8,0:0:0:0:
250,196,242054,5,14,0:0:0:0:
249,18,242241,1,8,0:0:0:0:
420,101,242429,5,12,0:0:0:0:
368,183,242616,1,2,0:0:0:0:
298,108,242804,1,0,0:0:0:0:
381,284,242991,1,2,0:0:0:0:
250,196,243179,1,12,0:0:0:0:
473,328,243366,1,2,0:0:0:0:
420,101,243554,1,0,0:0:0:0:
326,365,243741,1,2,0:0:0:0:
378,205,243929,6,0,P|385:230|380:290,1,80.9999975280763,14|0,0:0|0:0,0:0:0:0:
458,79,244304,2,0,P|451:104|456:164,1,80.9999975280763,2|0,0:0|0:0,0:0:0:0:
302,29,244679,2,0,P|309:54|304:114,1,80.9999975280763,14|0,0:0|0:0,0:0:0:0:
250,178,244960,1,0,0:0:0:0:
217,154,245053,1,0,0:0:0:0:
179,142,245147,1,0,0:0:0:0:
138,144,245241,1,0,0:0:0:0:
101,160,245335,1,0,0:0:0:0:
72,187,245429,5,12,0:0:0:0:
56,349,245616,1,0,0:0:0:0:
7,111,245804,5,12,0:0:0:0:
166,265,245991,1,0,0:0:0:0:
199,23,246179,5,12,0:0:0:0:
341,285,246366,1,0,0:0:0:0:
437,17,246554,5,12,0:0:0:0:
137,138,246741,1,0,0:0:0:0:
479,239,246929,5,12,0:0:0:0:
141,350,247116,1,12,0:0:0:0:
228,0,247304,1,12,0:0:0:0:
228,0,247679,5,2,0:0:0:0:
245,98,247866,1,2,0:0:0:0:
314,36,248054,1,2,0:0:0:0:
154,60,248241,1,2,0:0:0:0:
261,183,248429,6,0,P|268:226|257:282,1,90,4|0,0:0|0:0,0:0:0:0:
136,345,248804,1,8,0:0:0:0:
183,227,248991,1,0,0:0:0:0:
267,365,249179,2,0,P|311:372|355:364,1,90
432,201,249554,1,8,0:0:0:0:
434,326,249741,1,0,0:0:0:0:
338,243,249929,6,0,P|330:195|342:142,1,90,2|0,0:0|0:0,0:0:0:0:
225,36,250304,2,0,P|233:84|221:137,1,90,10|0,0:0|0:0,0:0:0:0:
167,251,250679,1,2,0:0:0:0:
148,79,250866,1,0,0:0:0:0:
252,206,251054,1,10,0:0:0:0:
99,167,251241,1,0,0:0:0:0:
116,328,251429,6,0,P|170:340|213:333,1,90,2|0,0:0|0:0,0:0:0:0:
304,294,251804,1,10,0:0:0:0:
252,206,251991,1,0,0:0:0:0:
397,278,252179,2,0,P|397:324|377:366,1,90,2|0,0:0|0:0,0:0:0:0:
342,204,252554,1,10,0:0:0:0:
304,294,252741,1,0,0:0:0:0:
294,113,252929,6,0,P|370:106|445:175,1,180,0|8,0:0|0:0,0:0:0:0:
479,301,253491,1,0,0:0:0:0:
342,204,253679,1,0,0:0:0:0:
378,363,253866,1,0,0:0:0:0:
218,330,254054,2,0,L|226:376,2,45,10|2|2,0:0|0:0|0:0,0:0:0:0:
190,169,254429,5,4,0:0:0:0:
190,169,254804,2,0,L|190:265,1,90,8|0,0:0|0:0,0:0:0:0:
88,101,255179,6,0,P|87:45|92:-1,1,90,2|0,0:0|0:0,0:0:0:0:
283,127,255554,2,0,P|284:71|279:25,1,90,10|0,0:0|0:0,0:0:0:0:
62,159,255929,6,0,P|61:103|66:57,1,90,2|0,0:0|0:0,0:0:0:0:
312,194,256304,2,0,P|313:138|308:92,1,90,10|0,0:0|0:0,0:0:0:0:
33,216,256679,6,0,P|32:160|37:114,1,90,2|0,0:0|0:0,0:0:0:0:
342,260,257054,2,0,P|343:204|338:158,1,90,10|0,0:0|0:0,0:0:0:0:
9,335,257429,6,0,P|2:241|12:147,1,180,2|8,0:0|0:0,0:0:0:0:
190,21,257991,1,0,0:0:0:0:
372,143,258179,2,0,P|381:233|374:323,1,180,2|8,0:0|0:0,0:0:0:0:
282,117,258741,1,0,0:0:0:0:
282,117,258835,1,0,0:0:0:0:
282,117,258929,6,0,P|315:74|356:55,1,90,4|0,0:0|0:0,0:0:0:0:
466,248,259304,1,12,0:0:0:0:
372,143,259491,1,0,0:0:0:0:
374,322,259679,1,4,0:0:0:0:
235,207,259866,1,0,0:0:0:0:
85,289,260054,1,12,0:0:0:0:
119,298,260147,1,0,0:0:0:0:
155,302,260241,1,0,0:0:0:0:
191,301,260335,1,0,0:0:0:0:
226,295,260429,6,0,P|237:246|232:196,1,90,4|0,0:0|0:0,0:0:0:0:
182,33,260804,1,8,0:0:0:0:
128,156,260991,1,0,0:0:0:0:
294,87,261179,2,0,P|341:82|390:90,1,90
491,232,261554,1,8,0:0:0:0:
499,88,261741,1,0,0:0:0:0:
338,170,261929,6,0,L|360:268,1,90
491,232,262304,2,0,L|471:319,1,90,8|0,0:0|0:0,0:0:0:0:
388,356,262679,1,0,0:0:0:0:
434,167,262866,1,0,0:0:0:0:
357,257,263054,1,8,0:0:0:0:
246,138,263241,1,0,0:0:0:0:
146,278,263429,6,0,P|190:282|244:257,1,90
77,209,263804,1,8,0:0:0:0:
168,88,263991,2,0,P|159:135|171:189,1,90
223,356,264366,1,0,0:0:0:0:
349,214,264554,2,0,P|393:207|437:216,1,90,8|0,0:0|0:0,0:0:0:0:
272,150,264929,6,0,P|258:235|321:314,1,180,0|8,0:0|0:0,0:0:0:0:
184,322,265491,1,0,0:0:0:0:
349,214,265679,1,0,0:0:0:0:
179,113,265866,1,0,0:0:0:0:
179,113,265960,1,0,0:0:0:0:
179,113,266054,2,0,L|136:153,1,45,10|0,0:0|0:0,0:0:0:0:
50,118,266241,2,0,L|93:78,1,45,2|0,0:0|0:0,0:0:0:0:
167,14,266429,5,12,0:0:0:0:
243,224,266616,1,0,0:0:0:0:
44,233,266804,1,0,0:0:0:0:
302,108,266991,5,12,0:0:0:0:
182,350,267179,1,0,0:0:0:0:
179,113,267366,1,0,0:0:0:0:
345,257,267554,5,12,0:0:0:0:
116,277,267741,1,0,0:0:0:0:
302,108,267929,1,0,0:0:0:0:
288,358,268116,5,12,0:0:0:0:
155,95,268304,1,0,0:0:0:0:
431,211,268491,1,0,0:0:0:0:
177,196,268679,5,12,0:0:0:0:
408,32,268866,1,0,0:0:0:0:
332,273,269054,5,12,0:0:0:0:
279,0,269241,1,0,0:0:0:0:
449,103,269429,5,8,0:0:0:0:
361,95,269616,1,8,0:0:0:0:
431,211,269804,1,8,0:0:0:0:
277,118,269991,1,8,0:0:0:0:
332,273,270179,1,8,0:0:0:0:
200,172,270366,1,8,0:0:0:0:
162,356,270554,1,8,0:0:0:0:
24,158,270741,1,8,0:0:0:0:
348,177,270929,5,12,0:0:0:0:
44,308,271116,1,0,0:0:0:0:
225,18,271304,5,12,0:0:0:0:
192,366,271491,1,0,0:0:0:0:
91,51,271679,5,12,0:0:0:0:
343,316,271866,1,0,0:0:0:0:
16,291,272054,5,12,0:0:0:0:
415,56,272241,1,0,0:0:0:0:
