osu file format v14

[General]
AudioFilename: asd.mp3
AudioLeadIn: 0
PreviewTime: 218046
Countdown: 0
SampleSet: Soft
StackLeniency: 0.7
Mode: 0
LetterboxInBreaks: 0
WidescreenStoryboard: 1

[Editor]
Bookmarks: 39640,56233,116140,172390,173702,182890
DistanceSpacing: 0.8
BeatDivisor: 4
GridSize: 32
TimelineZoom: 3.799998

[Metadata]
Title:CANDY MAGIC
TitleUnicode:CANDY MAGIC
Artist:mimimemeMIMI
ArtistUnicode:みみめめMIMI
Creator:schoolboy
Version:Insane
Source:山田くんと7人の魔女
Tags:Yamada-kun to 7-nin no Majo ending ed full size きみのヒロインになりたくて Takao Yuki タカオ ユキ ailv komore Yamada-kun and the Seven Witches
BeatmapID:1695482
BeatmapSetID:807912

[Difficulty]
HPDrainRate:6
CircleSize:4
OverallDifficulty:7.5
ApproachRate:9
SliderMultiplier:1.6
SliderTickRate:1

[Events]
//Background and Video events
0,0,"bg.jpg",0,0
//Break Periods
2,174089,182290
2,198640,210040
//Storyboard Layer 0 (Background)
//Storyboard Layer 1 (Fail)
//Storyboard Layer 2 (Pass)
//Storyboard Layer 3 (Foreground)
//Storyboard Sound Samples

[TimingPoints]
1390,375,4,2,1,30,1,0
1390,-133.333333333333,4,2,1,30,0,0
2890,-133.333333333333,4,2,1,45,0,0
10390,-133.333333333333,4,2,1,60,0,0
11890,-100,4,2,1,60,0,0
16296,-100,4,2,1,5,0,0
16390,-100,4,2,1,60,0,0
20890,-100,4,2,1,65,0,0
21640,-100,4,2,1,70,0,0
22390,-100,4,2,1,75,0,0
23327,-100,4,2,1,65,0,0
23890,-133.333333333333,4,2,1,45,0,0
35890,-117.647058823529,4,2,1,55,0,0
59890,-133.333333333333,4,2,1,50,0,0
62890,-100,4,2,1,60,0,0
64765,-133.333333333333,4,2,1,45,0,0
65327,-133.333333333333,4,2,1,53,0,0
65890,-100,4,2,1,65,0,0
74890,-100,4,2,1,70,0,0
77890,-100,4,2,1,65,0,0
86140,-133.333333333333,4,2,1,60,0,0
86890,-100,4,2,1,60,0,0
97952,-133.333333333333,4,2,1,50,0,0
98140,-200,4,2,1,40,0,0
98327,-200,4,2,1,30,0,0
98515,-200,4,2,1,20,0,0
98890,-133.333333333333,4,2,1,40,0,0
110046,-133.333333333333,4,2,1,40,0,0
110140,-133.333333333333,4,2,1,40,0,0
110890,-133.333333333333,4,2,1,55,0,0
121390,-117.647058823529,4,2,1,55,0,0
122890,-133.333333333333,4,2,1,50,0,0
125890,-100,4,2,1,60,0,0
127765,-100,4,2,1,40,0,0
128515,-133.333333333333,4,2,1,40,0,0
128890,-100,4,2,1,65,0,0
137890,-100,4,2,1,70,0,0
140890,-100,4,2,1,65,0,0
150077,-100,4,2,52,60,0,0
150452,-100,4,2,2,60,0,0
150640,-100,4,2,52,60,0,0
151015,-100,4,2,2,60,0,0
151202,-100,4,2,52,60,0,0
151390,-100,4,2,2,60,0,0
151577,-100,4,2,57,60,0,0
151765,-100,4,2,56,60,0,0
151952,-100,4,2,57,60,0,0
152140,-100,4,2,2,60,0,0
152702,-100,4,2,68,60,0,0
152796,-100,4,2,69,60,0,0
152890,-100,4,2,59,60,0,0
152983,-100,4,2,59,5,0,0
153077,-100,4,2,64,60,0,0
153171,-100,4,2,64,5,0,0
153265,-100,4,2,61,60,0,0
153358,-100,4,2,61,5,0,0
153452,-100,4,2,59,60,0,0
153640,-100,4,2,2,60,0,0
153827,-100,4,2,56,60,0,0
154202,-100,4,2,51,60,0,0
154296,-100,4,2,53,60,0,0
154390,-100,4,2,54,60,0,0
154952,-100,4,2,53,60,0,0
155327,-100,4,2,77,60,0,0
155515,-100,4,2,2,60,0,0
155702,-100,4,2,54,60,0,0
155796,-100,4,2,56,60,0,0
155890,-100,4,2,100,60,0,0
156171,-100,4,2,64,60,0,0
156265,-100,4,2,54,60,0,0
156733,-100,4,2,64,60,0,0
156827,-100,4,2,54,60,0,0
157015,-100,4,2,57,60,0,0
157202,-100,4,2,52,60,0,0
157296,-100,4,2,54,60,0,0
157671,-100,4,2,64,60,0,0
157952,-100,4,2,54,60,0,0
158140,-100,4,2,2,60,0,0
158233,-100,4,2,64,60,0,0
158327,-100,4,2,54,60,0,0
158890,-100,4,2,2,60,0,0
159265,-100,4,2,44,60,0,0
159452,-100,4,2,45,60,0,0
159546,-100,4,2,47,60,0,0
159640,-100,4,2,45,60,0,0
159827,-100,4,2,52,60,0,0
160015,-100,4,2,54,60,0,0
160202,-100,4,2,56,60,0,0
160390,-100,4,2,59,60,0,0
161890,-133.333333333333,4,2,1,50,0,0
167890,-100,4,2,1,60,0,0
170890,-100,4,2,1,50,0,0
171640,-100,4,2,1,43,0,0
172015,-100,4,2,1,30,0,0
172390,-166.666666666667,4,2,1,44,0,0
173890,-166.666666666667,4,2,1,15,0,0
182890,-166.666666666667,4,2,1,30,0,0
185702,-166.666666666667,4,2,1,45,0,0
196015,-166.666666666667,4,2,1,60,0,0
198640,375,4,2,1,60,1,0
210640,-133.333333333333,4,2,1,45,0,0
217765,-133.333333333333,4,2,1,50,0,0
218140,-133.333333333333,4,2,1,60,0,0
218702,-133.333333333333,4,2,1,45,0,0
218890,-133.333333333333,4,2,1,60,0,0
219640,-100,4,2,1,65,0,0
228640,-100,4,2,1,75,0,0
231640,-133.333333333333,4,2,1,60,0,0
248140,-133.333333333333,4,2,1,65,0,0
249640,-100,4,2,1,60,0,0

[Colours]
Combo1 : 158,241,248
Combo2 : 218,184,248
Combo3 : 255,184,149
Combo4 : 155,255,181

[HitObjects]
103,145,1765,6,0,P|98:118|101:81,2,60.0000022888184,2|2|2,0:0|0:0|0:0,0:0:0:0:
175,191,2327,1,2,0:0:0:0:
115,254,2515,2,0,P|85:248|55:247,1,60.0000022888184,2|2,0:0|0:0,0:0:0:0:
196,320,2890,6,0,P|261:311|330:306,1,120.000004577637,2|0,0:0|0:0,0:0:0:0:
469,373,3640,2,0,P|490:309|459:263,1,120.000004577637,2|2,0:0|0:0,0:0:0:0:
393,219,4202,1,0,0:0:0:0:
471,142,4390,6,0,P|411:131|352:120,1,120.000004577637,2|2,0:0|0:0,0:0:0:0:
283,168,4952,1,2,0:0:0:0:
215,109,5140,2,0,P|219:78|227:29,1,60.0000022888184,2|2,0:0|0:0,0:0:0:0:
123,155,5515,2,0,P|129:184|135:213,1,60.0000022888184,2|2,0:0|0:0,0:0:0:0:
89,288,5890,6,0,P|141:305|201:276,1,120.000004577637,2|2,0:0|0:0,0:0:0:0:
394,186,6640,2,0,P|341:160|284:177,1,120.000004577637,2|2,0:0|0:0,0:0:0:0:
314,370,7390,6,0,P|323:311|332:252,1,120.000004577637,2|0,0:0|0:0,0:0:0:0:
427,283,7952,1,2,0:0:0:0:
427,283,8140,2,0,P|418:222|408:161,1,120.000004577637,2|2,0:0|3:2,0:0:0:0:
472,98,8702,1,2,0:0:0:0:
335,17,8890,6,0,L|325:90,1,60.0000022888184,6|2,0:0|0:0,0:0:0:0:
240,137,9265,2,0,L|252:205,1,60.0000022888184,2|0,0:0|0:0,0:0:0:0:
340,318,9640,1,2,0:0:0:0:
368,226,9827,1,2,0:0:0:0:
234,314,10015,2,0,P|204:307|165:300,1,60.0000022888184,2|8,0:0|0:0,0:0:0:0:
146,328,10296,1,8,0:0:0:0:
146,328,10390,5,6,1:2:0:0:
40,115,10577,1,0,1:0:0:0:
254,216,10765,1,8,0:0:0:0:
25,384,11140,6,0,P|35:313|47:240,1,120.000004577637,2|10,0:0|0:0,0:0:0:0:
115,212,11702,1,2,0:0:0:0:
6,155,11890,6,0,P|71:176|137:104,1,160,6|8,1:2|0:0,0:0:0:0:
254,165,12452,2,0,P|247:126|240:87,1,80,2|0,0:0|3:2,0:0:0:0:
440,146,12827,1,2,0:0:0:0:
372,1,13015,2,0,P|365:38|357:90,1,80,8|2,0:0|0:0,0:0:0:0:
483,244,13390,6,0,P|424:257|385:236,1,80,2|0,1:3|0:0,0:0:0:0:
207,187,13765,2,0,L|306:175,1,80,2|0,1:3|0:0,0:0:0:0:
262,281,14140,1,2,3:2:0:0:
239,86,14327,1,2,0:0:0:0:
262,281,14515,2,0,L|257:337,2,40,10|0|2,0:0|0:0|0:2,0:0:0:0:
428,207,14890,6,0,P|469:201|533:192,1,80,2|0,1:2|0:0,0:0:0:0:
347,296,15265,2,0,L|404:310,1,40,10|0,0:0|0:0,0:0:0:0:
254,188,15452,2,0,L|343:174,1,80,2|0,0:0|3:0,0:0:0:0:
189,304,15827,1,2,0:0:0:0:
72,208,16015,2,0,P|80:148|89:89,1,120,10|0,0:0|0:0,0:0:0:0:
68,67,16390,6,0,P|148:20|204:50,1,160,2|8,0:0|0:0,0:0:0:0:
292,171,16952,1,2,0:0:0:0:
349,45,17140,1,2,1:2:0:0:
176,191,17327,1,8,0:0:0:0:
176,191,17421,1,8,0:0:0:0:
175,191,17515,2,0,L|182:230,2,40,8|8|8,0:0|0:0|0:0,0:0:0:0:
94,326,17890,5,6,1:2:0:0:
397,260,18077,1,2,3:2:0:0:
175,191,18265,1,8,0:0:0:0:
254,384,18452,2,0,P|269:283|281:224,1,160,6|0,1:2|0:0,0:0:0:0:
64,30,19015,5,6,1:2:0:0:
232,123,19202,1,2,3:2:0:0:
48,204,19390,1,10,0:0:0:0:
225,22,19577,2,0,P|302:39|381:52,1,160,6|0,0:0|0:0,0:0:0:0:
381,52,20140,6,0,P|366:106|364:144,1,80,2|0,1:2|0:0,0:0:0:0:
496,296,20515,2,0,P|508:257|512:218,1,80,10|0,0:0|0:0,0:0:0:0:
363,246,20890,5,2,1:2:0:0:
478,112,21077,1,2,3:2:0:0:
263,208,21265,1,8,0:0:0:0:
467,317,21452,1,2,3:2:0:0:
239,206,21640,1,2,1:2:0:0:
478,112,21827,1,2,3:2:0:0:
333,333,22015,1,8,0:0:0:0:
225,77,22202,1,2,3:2:0:0:
433,228,22390,6,0,P|478:222|519:216,1,80,2|2,1:2|3:2,0:0:0:0:
256,350,22765,2,0,P|301:356|342:362,1,80,8|2,0:0|3:2,0:0:0:0:
191,221,23140,1,2,1:2:0:0:
71,357,23327,1,2,0:0:0:0:
71,357,23421,1,2,0:0:0:0:
71,357,23515,2,0,L|58:296,3,40,8|2|2|0,0:0|0:0|0:0|0:0,0:0:0:0:
45,298,23890,6,0,P|103:259|161:279,1,120.000004577637,2|0,0:0|0:0,0:0:0:0:
277,140,24640,2,0,P|271:169|265:198,1,60.0000022888184,2|0,0:0|0:0,0:0:0:0:
370,289,25015,1,2,0:0:0:0:
356,195,25202,1,0,0:0:0:0:
434,370,25390,6,0,P|464:250|468:239,2,120.000004577637,2|2|2,0:0|0:0|0:1,0:0:0:0:
186,256,26702,1,2,0:0:0:0:
186,256,26890,6,0,P|132:267|108:273,1,60.0000022888184,2|0,0:0|0:0,0:0:0:0:
34,185,27265,2,0,P|72:183|101:200,1,60.0000022888184,2|0,0:0|0:0,0:0:0:0:
160,126,27640,2,0,L|142:8,1,120.000004577637,2|2,0:0|0:0,0:0:0:0:
142,8,28202,1,2,0:0:0:0:
266,105,28390,6,0,P|317:123|374:78,2,120.000004577637,2|2|2,0:0|0:0|0:1,0:0:0:0:
112,282,29702,1,2,0:0:0:0:
112,282,29890,6,0,P|176:271|237:265,1,120.000004577637,2|0,0:0|0:0,0:0:0:0:
307,308,30452,1,0,0:0:0:0:
380,263,30640,2,0,P|402:220|365:152,1,120.000004577637,2|0,0:1|0:0,0:0:0:0:
307,308,31202,1,0,0:0:0:0:
369,368,31390,6,0,P|445:339|501:362,1,120.000004577637,2|0,0:0|0:0,0:0:0:0:
421,256,31952,1,0,0:0:0:0:
488,191,32140,2,0,P|511:135|503:58,1,120.000004577637,2|0,0:0|0:0,0:0:0:0:
298,0,32890,6,0,L|314:129,1,120.000004577637,2|0,0:0|0:0,0:0:0:0:
312,119,33452,1,2,0:0:0:0:
221,193,33640,2,0,P|226:159|234:112,1,60.0000022888184,2|0,0:1|0:0,0:0:0:0:
125,78,34015,2,0,P|131:107|137:145,1,60.0000022888184,2|0,0:0|0:0,0:0:0:0:
29,260,34390,6,0,P|75:231|140:246,1,120.000004577637,2|0,0:0|0:0,0:0:0:0:
203,302,34952,1,2,0:0:0:0:
268,236,35140,2,0,P|261:204|253:166,1,60.0000022888184,2|0,0:0|0:0,0:0:0:0:
379,65,35515,2,0,L|365:174,1,90.0000034332277,2|0,3:2|0:0,0:0:0:0:
378,177,35890,6,0,P|451:168|486:232,2,136.000002593994,6|2|2,3:2|3:2|3:2,0:0:0:0:
311,228,36827,1,0,0:0:0:0:
381,300,37015,2,0,P|415:293|468:288,1,68.0000012969971,2|0,3:2|0:0,0:0:0:0:
285,373,37390,6,0,P|213:362|133:359,1,136.000002593994,2|0,3:2|3:2,0:0:0:0:
49,384,37952,1,0,0:0:0:0:
94,215,38140,2,0,L|108:286,1,68.0000012969971,2|0,3:2|0:0,0:0:0:0:
14,266,38515,1,2,0:0:0:0:
186,227,38702,1,2,0:0:0:0:
67,133,38890,6,0,P|32:142|-10:147,1,68.0000012969971,2|0,3:2|0:0,0:0:0:0:
121,55,39265,1,2,3:2:0:0:
216,111,39452,1,2,0:0:0:0:
216,111,39640,2,0,P|276:82|343:90,1,136.000002593994,2|2,3:2|3:2,0:0:0:0:
415,150,40202,1,2,0:0:0:0:
474,21,40390,6,0,L|485:92,1,68.0000012969971,2|0,3:2|0:0,0:0:0:0:
400,167,40765,2,0,P|389:198|387:232,1,68.0000012969971,2|0,3:2|0:0,0:0:0:0:
490,339,41140,2,0,P|513:298|481:220,1,136.000002593994,2|0,3:2|3:2,0:0:0:0:
380,350,41702,1,8,0:0:0:0:
380,350,41796,1,8,0:0:0:0:
380,350,41890,6,0,P|290:336|244:331,1,136.000002593994,6|0,1:2|3:0,0:0:0:0:
164,243,42452,1,2,0:0:0:0:
164,243,42640,2,0,L|239:232,1,68.0000012969971,2|0,3:2|0:0,0:0:0:0:
135,351,43015,2,0,P|102:357|50:339,1,68.0000012969971,2|0,3:2|0:0,0:0:0:0:
151,176,43390,6,0,L|165:250,1,68.0000012969971,2|0,3:2|0:0,0:0:0:0:
242,155,43765,1,0,3:0:0:0:
133,82,43952,1,2,0:0:0:0:
133,82,44140,2,0,L|143:-4,1,68.0000012969971,2|0,3:2|0:0,0:0:0:0:
231,66,44515,1,2,3:2:0:0:
151,176,44702,1,2,0:0:0:0:
287,235,44890,6,0,P|354:227|422:219,1,136.000002593994,2|2,3:2|3:2,0:0:0:0:
499,159,45452,1,0,0:0:0:0:
499,159,45640,2,0,L|487:114,2,34.0000006484985,2|0|2,3:2|0:0|0:0,0:0:0:0:
394,77,46015,2,0,L|405:33,2,34.0000006484985,2|0|2,3:2|0:0|0:0,0:0:0:0:
301,192,46390,6,0,P|259:225|169:197,1,136.000002593994,2|0,3:2|3:0,0:0:0:0:
13,100,47046,1,8,0:0:0:0:
20,94,47140,2,0,P|31:132|38:185,1,68.0000012969971,8|0,0:0|3:0,0:0:0:0:
140,30,47515,2,0,P|136:68|122:107,1,68.0000012969971,0|0,3:0|3:0,0:0:0:0:
260,181,47890,6,0,P|326:169|393:157,1,136.000002593994,6|0,1:2|0:0,0:0:0:0:
512,226,48452,1,8,0:0:0:0:
305,384,48827,1,2,0:0:0:0:
305,384,49015,2,0,P|309:349|317:308,1,68.0000012969971,10|2,0:0|0:0,0:0:0:0:
342,287,49296,1,0,3:0:0:0:
342,287,49390,6,0,P|273:335|202:314,1,136.000002593994,2|0,1:2|0:0,0:0:0:0:
116,264,49952,1,8,0:0:0:0:
358,165,50327,1,0,3:0:0:0:
358,165,50515,2,0,P|391:170|425:176,1,68.0000012969971,10|2,0:0|0:0,0:0:0:0:
280,86,50890,6,0,P|213:98|146:111,1,136.000002593994,2|0,1:2|0:0,0:0:0:0:
35,152,51452,2,0,P|44:124|55:67,1,68.0000012969971,8|0,0:0|0:0,0:0:0:0:
116,214,51827,1,0,3:0:0:0:
116,214,52015,2,0,L|128:288,1,68.0000012969971,8|2,0:2|0:0,0:0:0:0:
107,319,52296,1,0,3:0:0:0:
107,319,52390,6,0,P|177:286|243:309,1,136.000002593994,2|0,1:2|0:0,0:0:0:0:
309,358,52952,1,8,0:0:0:0:
401,286,53140,2,0,P|393:218|384:151,1,136.000002593994,2|8,0:0|0:0,0:0:0:0:
490,50,53702,1,8,0:0:0:0:
490,50,53796,1,8,0:0:0:0:
490,50,53890,6,0,P|484:83|479:117,1,68.0000012969971,6|0,1:2|0:0,0:0:0:0:
329,64,54265,2,0,P|361:53|393:43,1,68.0000012969971,2|8,0:0|0:0,0:0:0:0:
286,150,54640,2,0,P|253:142|207:132,1,68.0000012969971,2|0,0:0|3:0,0:0:0:0:
156,57,55015,2,0,P|105:76|69:75,1,68.0000012969971,10|2,0:0|0:0,0:0:0:0:
62,58,55296,1,0,3:0:0:0:
62,58,55390,6,0,L|81:157,1,68.0000012969971,2|0,1:2|0:0,0:0:0:0:
161,204,55765,2,0,P|154:237|147:270,1,68.0000012969971,2|8,0:0|0:0,0:0:0:0:
56,384,56140,2,0,P|44:349|54:299,1,68.0000012969971,2|0,0:0|3:0,0:0:0:0:
146,270,56515,2,0,P|196:283|246:290,1,102.000001945496,10|0,0:0|3:0,0:0:0:0:
267,275,56890,6,0,P|293:215|266:154,1,136.000002593994,2|0,1:2|0:0,0:0:0:0:
102,32,57452,2,0,L|129:165,1,136.000002593994,8|0,0:0|0:0,0:0:0:0:
0,303,58015,2,0,P|50:294|100:286,1,102.000001945496,8|0,0:0|0:0,0:0:0:0:
116,302,58390,6,0,P|106:334|97:367,1,68.0000012969971,6|0,1:2|0:0,0:0:0:0:
258,238,58765,2,0,P|248:205|239:172,1,68.0000012969971,8|0,0:0|0:0,0:0:0:0:
295,112,59046,1,8,0:0:0:0:
295,112,59140,2,0,P|331:111|375:132,1,68.0000012969971,0|0,1:0|0:0,0:0:0:0:
426,76,59421,1,8,0:0:0:0:
426,76,59515,2,0,L|414:25,1,34.0000006484985,8|0,0:0|1:0,0:0:0:0:
490,121,59702,2,0,L|478:172,1,34.0000006484985,8|0,0:0|1:0,0:0:0:0:
505,273,59890,6,0,B|407:254|431:335|329:317,1,180.000006866455,6|0,1:2|0:0,0:0:0:0:
259,274,60640,2,0,P|247:218|280:170,1,120.000004577637,2|0,0:0|0:0,0:0:0:0:
400,91,61202,2,0,L|390:136,1,30.0000011444092,2|0,3:2|0:0,0:0:0:0:
310,69,61390,6,0,P|251:80|192:90,2,120.000004577637,2|2|2,0:0|0:0|0:0,0:0:0:0:
406,24,62327,1,0,3:0:0:0:
471,97,62515,1,0,1:0:0:0:
471,97,62702,1,0,3:0:0:0:
416,219,62890,6,0,P|483:238|514:251,1,80,6|0,1:2|3:0,0:0:0:0:
338,316,63265,2,0,P|377:348|402:378,1,80,8|0,0:0|3:0,0:0:0:0:
174,316,63640,2,0,P|135:348|110:378,1,80,2|0,1:2|3:0,0:0:0:0:
96,219,64015,2,0,P|29:238|-2:251,1,80,8|2,0:0|0:0,0:0:0:0:
19,241,64296,1,0,3:0:0:0:
19,241,64390,5,6,1:2:0:0:
251,103,64577,1,2,1:0:0:0:
143,46,64765,6,0,P|149:77|154:108,1,60.0000022888184,2|2,0:0|0:0,0:0:0:0:
153,105,65140,1,2,3:2:0:0:
243,194,65327,1,8,0:0:0:0:
240,217,65421,1,8,0:0:0:0:
237,240,65515,1,8,0:0:0:0:
234,263,65608,1,8,0:0:0:0:
231,286,65702,1,8,0:0:0:0:
228,309,65796,1,8,0:0:0:0:
225,330,65890,6,0,P|213:250|201:171,1,160,6|8,1:2|0:0,0:0:0:0:
313,247,66452,1,2,0:0:0:0:
120,371,66640,2,0,P|125:331|130:291,1,80,0|0,1:2|0:0,0:0:0:0:
10,192,67015,2,0,P|23:268|27:294,1,80,8|0,0:0|0:0,0:0:0:0:
135,140,67390,6,0,P|197:102|288:125,1,160,2|8,1:2|0:0,0:0:0:0:
397,201,67952,1,2,0:0:0:0:
457,70,68140,1,2,1:2:0:0:
278,118,68327,1,2,0:0:0:0:
278,118,68515,2,0,P|283:157|289:197,1,80,10|0,0:0|0:0,0:0:0:0:
357,352,68890,6,0,B|442:373|427:312|510:336,1,160,2|8,1:2|0:0,0:0:0:0:
511,337,69452,1,2,0:0:0:0:
293,254,69640,2,0,P|236:291|252:376,1,160,2|8,1:2|0:0,0:0:0:0:
402,215,70202,1,2,0:0:0:0:
402,215,70296,1,0,0:0:0:0:
402,215,70390,6,0,P|390:132|378:56,1,160,2|8,1:2|0:0,0:0:0:0:
475,110,70952,1,2,0:0:0:0:
310,203,71140,1,2,1:2:0:0:
478,304,71327,1,2,0:0:0:0:
478,304,71515,2,0,P|485:263|492:220,1,80,10|0,0:0|0:0,0:0:0:0:
352,312,71890,6,0,P|299:354|201:333,1,160,2|8,1:2|0:0,0:0:0:0:
122,234,72452,1,2,0:0:0:0:
43,345,72640,2,0,P|81:336|121:329,1,80,0|0,1:2|0:0,0:0:0:0:
55,120,73015,2,0,P|44:178|33:238,1,120,10|0,0:0|0:0,0:0:0:0:
23,263,73390,6,0,P|6:189|0:163,1,80,2|0,1:2|0:0,0:0:0:0:
143,73,73765,2,0,L|130:152,1,80,10|0,0:0|0:0,0:0:0:0:
254,312,74140,2,0,P|248:267|242:226,1,80,2|0,1:2|0:0,0:0:0:0:
391,158,74515,2,0,P|432:171|481:181,1,80,10|0,0:0|0:0,0:0:0:0:
282,56,74890,5,6,1:2:0:0:
354,253,75077,1,0,3:0:0:0:
387,29,75265,1,8,0:0:0:0:
244,233,75452,1,0,3:0:0:0:
430,330,75640,6,0,P|444:293|446:236,1,80,4|0,1:2|0:0,0:0:0:0:
282,56,76015,2,0,P|268:93|266:150,1,80,12|8,0:0|0:0,0:0:0:0:
291,158,76296,1,0,3:0:0:0:
291,158,76390,6,0,L|387:149,1,80,4|0,1:2|0:0,0:0:0:0:
216,270,76765,1,8,0:0:0:0:
223,277,76858,1,8,0:0:0:0:
223,277,76952,2,0,P|174:282|138:264,1,80,8|0,0:0|1:2,0:0:0:0:
71,212,77327,1,8,0:0:0:0:
71,212,77421,1,8,0:0:0:0:
71,212,77515,2,0,L|63:165,3,40,8|8|8|8,0:0|0:0|0:0|0:0,0:0:0:0:
46,163,77890,6,0,P|102:109|178:122,1,160,6|8,1:2|0:0,0:0:0:0:
297,22,78452,1,2,0:0:0:0:
297,22,78640,2,0,P|254:31|204:36,1,80,2|0,1:2|0:0,0:0:0:0:
266,217,79015,2,0,P|274:173|287:127,1,80,8|0,0:0|0:0,0:0:0:0:
417,33,79390,6,0,P|428:112|439:191,1,160,2|8,1:2|0:0,0:0:0:0:
318,334,79952,1,2,0:0:0:0:
356,229,80140,1,2,1:2:0:0:
421,379,80327,1,2,0:0:0:0:
240,245,80515,1,10,0:0:0:0:
473,294,80702,1,2,0:0:0:0:
240,384,80890,6,0,P|206:314|242:245,1,160,2|8,1:2|0:0,0:0:0:0:
412,108,81640,2,0,L|427:203,1,80,2|0,1:2|3:0,0:0:0:0:
450,217,81921,1,0,3:0:0:0:
450,217,82015,2,0,L|438:298,1,80,10|0,0:0|0:0,0:0:0:0:
284,384,82390,5,6,1:2:0:0:
153,300,82577,1,8,0:0:0:0:
153,300,82671,1,8,0:0:0:0:
153,300,82765,2,0,L|61:314,1,80,8|0,0:0|3:0,0:0:0:0:
19,261,83046,1,0,3:0:0:0:
19,261,83140,2,0,P|13:220|32:178,1,80,0|8,1:0|0:0,0:0:0:0:
79,123,83421,1,8,0:0:0:0:
79,123,83515,2,0,L|66:70,1,40,8|8,0:0|0:0,0:0:0:0:
158,13,83702,2,0,L|149:69,1,40,8|8,0:0|0:0,0:0:0:0:
230,118,83890,6,0,P|269:111|308:104,1,80,6|0,1:2|0:0,0:0:0:0:
448,183,84265,2,0,P|457:144|468:105,1,80,10|0,0:0|0:0,0:0:0:0:
323,230,84640,1,2,1:2:0:0:
327,261,84733,1,2,0:0:0:0:
331,292,84827,1,8,0:0:0:0:
335,323,84921,1,8,0:0:0:0:
341,354,85015,2,0,L|361:297,3,40,8|10|10|10,0:0|0:0|0:0|0:0,0:0:0:0:
397,303,85390,5,6,1:2:0:0:
101,215,85577,1,0,1:0:0:0:
310,87,85765,1,8,0:0:0:0:
310,87,86140,6,0,P|302:146|294:206,1,120.000004577637,2|10,0:0|0:0,0:0:0:0:
382,175,86702,1,2,0:0:0:0:
197,116,86890,6,0,P|119:133|42:151,1,160,6|8,1:2|0:0,0:0:0:0:
165,265,87452,2,0,P|214:276|248:264,1,80,2|0,0:0|3:2,0:0:0:0:
369,107,87827,1,2,0:0:0:0:
399,209,88015,2,2,L|307:198,1,80,8|2,0:0|0:0,0:0:0:0:
361,384,88390,6,0,L|373:299,1,80,2|0,1:3|0:0,0:0:0:0:
224,142,88765,2,0,P|228:182|235:243,1,80,2|0,1:3|0:0,0:0:0:0:
342,172,89140,1,2,3:2:0:0:
128,192,89327,1,2,0:0:0:0:
342,172,89515,2,0,L|403:162,2,40,10|0|2,0:0|0:0|0:2,0:0:0:0:
122,300,89890,6,0,P|82:292|26:285,1,80,2|0,1:2|0:0,0:0:0:0:
194,164,90265,2,0,L|136:176,1,40,10|0,0:0|0:0,0:0:0:0:
32,83,90452,2,0,P|39:121|46:161,1,80,2|0,0:0|3:0,0:0:0:0:
167,38,90827,1,2,0:0:0:0:
277,147,91015,2,0,P|333:168|409:132,1,120,10|0,0:0|0:0,0:0:0:0:
415,127,91390,6,0,P|402:191|386:284,1,160,2|8,0:0|0:0,0:0:0:0:
508,381,91952,1,0,3:0:0:0:
487,226,92140,1,0,1:0:0:0:
282,264,92327,1,0,3:0:0:0:
386,284,92515,1,8,0:0:0:0:
386,284,92608,1,2,0:0:0:0:
386,284,92702,1,0,3:0:0:0:
268,355,92890,6,0,P|189:348|109:352,1,160,6|8,1:2|0:0,0:0:0:0:
242,229,93452,1,0,3:0:0:0:
242,229,93546,1,0,3:0:0:0:
242,229,93640,2,0,L|253:178,3,40,0|0|0|0,3:0|3:0|3:0|3:0,0:0:0:0:
189,140,94015,2,0,P|136:126|62:203,1,160,10|0,0:0|1:0,0:0:0:0:
242,228,94577,6,0,P|251:149|263:70,1,160,2|0,1:0|3:0,0:0:0:0:
133,8,95140,2,0,L|145:98,1,80,2|0,1:2|3:0,0:0:0:0:
87,139,95421,1,0,3:0:0:0:
87,139,95515,2,0,L|41:129,3,40,8|8|8|8,0:0|0:0|0:0|0:0,0:0:0:0:
19,160,95890,5,6,1:2:0:0:
217,240,96077,1,2,3:2:0:0:
61,287,96265,1,8,0:0:0:0:
199,138,96452,1,2,3:2:0:0:
299,351,96640,1,2,1:2:0:0:
325,134,96827,1,2,3:2:0:0:
198,261,97015,1,8,0:0:0:0:
140,59,97202,1,2,3:2:0:0:
168,343,97390,5,2,1:2:0:0:
364,241,97577,1,2,3:2:0:0:
117,155,97765,1,10,0:0:0:0:
240,100,97952,6,0,L|248:169,1,60.0000022888184,10|0,3:2|3:0,0:0:0:0:
341,230,98327,6,0,L|331:284,1,40,0|0,3:2|1:0,0:0:0:0:
126,380,98890,6,0,P|100:325|129:262,2,120.000004577637,2|2|2,1:2|1:2|1:2,0:0:0:0:
245,331,99827,1,2,0:0:0:0:
245,331,100015,2,0,L|173:319,1,60.0000022888184,2|0,1:0|0:0,0:0:0:0:
228,235,100390,5,2,1:2:0:0:
388,354,100765,1,2,1:2:0:0:
494,203,101140,2,0,P|484:142|470:57,1,120.000004577637,2|0,1:1|1:0,0:0:0:0:
474,84,101702,1,2,0:0:0:0:
399,40,101890,6,0,L|318:65,1,60.0000022888184,2|2,1:2|0:0,0:0:0:0:
269,118,102265,2,0,P|222:109|200:95,1,60.0000022888184,2|2,1:2|0:0,0:0:0:0:
142,47,102640,1,2,1:2:0:0:
73,114,102827,1,2,0:0:0:0:
73,114,103015,2,0,L|86:188,1,60.0000022888184,2|2,1:2|0:0,0:0:0:0:
151,269,103390,6,0,P|97:273|17:288,2,120.000004577637,2|2|2,1:2|1:2|1:2,0:0:0:0:
326,380,104515,1,2,1:2:0:0:
326,380,104890,6,0,P|343:272|348:247,1,120.000004577637,2|0,1:2|1:0,0:0:0:0:
427,212,105452,1,2,0:0:0:0:
427,212,105640,2,0,L|490:223,1,60.0000022888184,2|0,1:2|0:0,0:0:0:0:
352,157,106015,2,0,P|342:131|345:96,1,60.0000022888184,2|0,1:2|0:0,0:0:0:0:
416,35,106390,5,2,1:2:0:0:
224,146,106765,2,0,L|157:134,1,60.0000022888184,0|2,1:0|0:0,0:0:0:0:
96,75,107140,1,2,1:2:0:0:
96,75,107327,1,2,0:0:0:0:
26,147,107515,2,0,P|30:178|41:222,1,60.0000022888184,2|2,1:2|0:0,0:0:0:0:
116,261,107890,6,0,P|60:301|-4:290,1,120.000004577637,2|0,1:2|1:2,0:0:0:0:
203,102,108640,2,0,L|220:220,1,120.000004577637,2|0,1:2|1:0,0:0:0:0:
433,384,109390,6,0,B|462:253|462:253|431:279|382:290,1,210.000008010865,2|0,2:2|0:0,0:0:0:0:
381,298,110140,5,8,0:0:0:0:
289,80,110327,1,0,1:0:0:0:
362,132,110702,1,8,0:0:0:0:
362,132,110796,1,8,0:0:0:0:
362,132,110890,6,0,P|421:142|494:152,1,120.000004577637,6|0,1:2|0:0,0:0:0:0:
420,253,111452,2,0,P|376:284|310:271,1,120.000004577637,8|2,0:0|0:0,0:0:0:0:
195,220,112015,2,0,L|207:284,1,60.0000022888184,2|2,0:0|0:0,0:0:0:0:
100,373,112390,6,0,P|74:318|113:254,1,120.000004577637,2|0,1:2|0:0,0:0:0:0:
0,181,112952,2,0,P|55:172|134:157,1,120.000004577637,8|0,0:0|3:0,0:0:0:0:
206,75,113515,2,0,L|144:64,1,60.0000022888184,10|2,0:0|0:0,0:0:0:0:
226,169,113890,5,2,1:2:0:0:
362,59,114265,2,0,P|359:33|350:-6,1,60.0000022888184,0|8,0:0|0:0,0:0:0:0:
456,38,114640,2,0,P|447:92|434:169,1,120.000004577637,0|8,0:0|0:2,0:0:0:0:
491,246,115202,1,2,3:2:0:0:
491,246,115296,1,0,3:0:0:0:
491,246,115390,6,0,P|460:219|369:227,1,120.000004577637,2|0,1:2|0:0,0:0:0:0:
302,373,115952,1,8,0:0:0:0:
225,324,116140,2,0,P|283:329|331:295,1,120.000004577637,2|8,0:0|0:0,0:0:0:0:
137,268,116702,1,8,0:0:0:0:
137,268,116796,1,8,0:0:0:0:
137,268,116890,6,0,L|76:286,1,60.0000022888184,6|0,1:2|0:0,0:0:0:0:
0,178,117265,2,0,P|33:184|72:195,1,60.0000022888184,2|8,0:0|0:0,0:0:0:0:
134,128,117640,2,0,P|127:96|121:59,1,60.0000022888184,2|0,0:0|3:0,0:0:0:0:
246,153,118015,2,0,L|233:222,1,60.0000022888184,10|2,0:0|0:0,0:0:0:0:
258,246,118296,1,0,3:0:0:0:
258,246,118390,6,0,P|288:258|318:258,1,60.0000022888184,2|0,1:2|0:0,0:0:0:0:
432,168,118765,2,0,P|389:178|371:192,1,60.0000022888184,2|8,0:0|0:0,0:0:0:0:
424,329,119140,2,0,L|437:259,1,60.0000022888184,2|0,0:0|3:0,0:0:0:0:
365,127,119515,2,0,L|375:185,1,60.0000022888184,10|0,0:0|0:0,0:0:0:0:
442,61,119890,6,0,P|385:25|331:33,1,120.000004577637,2|0,1:2|0:0,0:0:0:0:
242,109,120452,2,0,P|183:100|124:92,1,120.000004577637,8|0,0:0|0:0,0:0:0:0:
17,44,121015,2,0,P|24:77|35:140,1,90.0000034332277,8|0,0:0|0:0,0:0:0:0:
23,151,121390,6,0,P|16:185|10:218,1,68.0000012969971,6|0,1:2|0:0,0:0:0:0:
121,334,121765,2,0,P|123:283|93:252,1,68.0000012969971,8|0,0:0|0:0,0:0:0:0:
177,220,122046,1,8,0:0:0:0:
177,220,122140,2,0,L|260:233,1,68.0000012969971,0|0,1:0|0:0,0:0:0:0:
302,177,122421,1,8,0:0:0:0:
302,177,122515,2,0,L|292:118,1,34.0000006484985,8|0,0:0|1:0,0:0:0:0:
366,221,122702,2,0,L|356:280,1,34.0000006484985,8|0,0:0|1:0,0:0:0:0:
512,384,122890,6,0,P|523:347|405:324,1,180.000006866455,6|0,1:2|0:0,0:0:0:0:
356,382,123640,2,0,P|289:376|236:370,1,120.000004577637,2|0,0:0|0:0,0:0:0:0:
116,302,124202,2,0,L|124:341,1,30.0000011444092,2|0,3:2|0:0,0:0:0:0:
196,260,124390,6,0,P|209:206|151:151,2,120.000004577637,2|2|2,0:0|0:0|0:0,0:0:0:0:
101,217,125327,1,0,3:0:0:0:
172,157,125515,1,0,1:0:0:0:
172,157,125702,1,0,3:0:0:0:
76,106,125890,6,0,P|55:76|24:17,1,80,6|0,1:2|3:0,0:0:0:0:
201,170,126265,2,0,P|189:132|176:61,1,80,8|0,0:0|3:0,0:0:0:0:
331,92,126640,2,0,P|323:131|311:170,1,80,2|0,1:2|3:0,0:0:0:0:
478,38,127015,2,0,P|458:73|436:106,1,80,8|2,0:0|0:0,0:0:0:0:
436,105,127296,1,0,3:0:0:0:
436,105,127390,5,6,1:2:0:0:
497,362,127577,1,2,1:0:0:0:
417,294,127765,5,2,0:0:0:0:
342,246,127952,1,2,0:0:0:0:
259,276,128140,1,2,0:0:0:0:
247,363,128327,1,2,0:0:0:0:
168,326,128515,6,0,L|116:338,3,30.0000011444092,2|2|2|2,0:0|0:0|0:0|0:0,0:0:0:0:
106,362,128890,6,0,P|115:282|125:203,1,160,6|8,1:2|0:0,0:0:0:0:
259,68,129452,1,2,0:0:0:0:
170,32,129640,2,0,L|181:111,1,80,0|0,1:2|0:0,0:0:0:0:
307,238,130015,2,0,L|318:159,1,80,8|0,0:0|0:0,0:0:0:0:
351,138,130296,1,0,0:0:0:0:
351,138,130390,6,0,P|413:115|481:176,1,160,2|8,1:2|0:0,0:0:0:0:
343,43,130952,1,2,0:0:0:0:
260,115,131140,2,0,P|220:109|180:104,1,80,2|2,1:2|0:0,0:0:0:0:
62,43,131515,1,10,0:0:0:0:
127,200,131702,1,0,0:0:0:0:
19,325,131890,6,0,B|105:300|89:368|175:348,1,160,2|8,1:2|0:0,0:0:0:0:
330,259,132452,1,2,0:0:0:0:
238,192,132640,2,0,P|251:270|264:349,1,160,2|8,1:2|0:0,0:0:0:0:
463,297,133202,1,2,0:0:0:0:
463,297,133296,1,0,0:0:0:0:
463,297,133390,6,0,P|407:246|313:273,1,160,2|8,1:2|0:0,0:0:0:0:
197,171,133952,1,2,0:0:0:0:
326,130,134140,1,2,1:2:0:0:
198,273,134327,1,2,0:0:0:0:
84,126,134515,2,0,P|90:86|97:47,1,80,10|0,0:0|0:0,0:0:0:0:
198,273,134890,6,0,P|65:300|25:311,1,160,2|8,1:2|0:0,0:0:0:0:
180,168,135452,1,2,0:0:0:0:
289,274,135640,2,0,L|275:356,1,80,0|0,1:2|0:0,0:0:0:0:
426,228,136015,2,0,P|415:168|405:110,1,120,10|0,0:0|0:0,0:0:0:0:
419,89,136390,6,0,P|457:118|490:124,1,80,2|0,1:2|0:0,0:0:0:0:
294,12,136765,2,0,P|287:49|278:94,1,80,10|0,0:0|0:0,0:0:0:0:
154,237,137140,2,0,P|146:197|138:158,1,80,2|0,1:2|0:0,0:0:0:0:
279,247,137515,1,10,0:0:0:0:
138,368,137702,1,0,0:0:0:0:
279,247,137890,6,0,P|318:256|357:267,1,80,6|0,1:2|3:0,0:0:0:0:
110,157,138265,2,0,P|71:167|32:177,1,80,8|0,0:0|3:0,0:0:0:0:
252,46,138640,5,4,1:2:0:0:
190,251,138827,1,0,0:0:0:0:
125,35,139015,1,12,0:0:0:0:
315,172,139202,1,8,0:0:0:0:
315,172,139296,1,0,3:0:0:0:
315,172,139390,6,0,L|416:158,1,80,4|0,1:2|0:0,0:0:0:0:
507,70,139765,1,8,0:0:0:0:
507,70,139858,1,8,0:0:0:0:
507,70,139952,2,0,L|493:119,2,40,8|0|0,0:0|0:0|1:2,0:0:0:0:
394,161,140327,1,8,0:0:0:0:
396,180,140421,1,8,0:0:0:0:
398,199,140515,1,8,0:0:0:0:
400,218,140608,1,8,0:0:0:0:
403,237,140702,2,0,L|388:303,1,40,8|8,0:0|0:0,0:0:0:0:
325,358,140890,6,0,P|397:316|485:358,1,160,6|8,1:2|0:0,0:0:0:0:
365,155,141452,1,2,0:0:0:0:
365,155,141640,2,0,L|347:268,1,80,2|0,1:2|0:0,0:0:0:0:
472,162,142015,1,8,0:0:0:0:
291,59,142202,1,2,3:2:0:0:
291,59,142296,1,0,3:0:0:0:
291,59,142390,6,0,P|221:74|116:89,1,160,2|8,1:2|0:0,0:0:0:0:
11,30,142952,1,2,0:0:0:0:
59,182,143140,1,2,1:2:0:0:
133,87,143327,1,2,0:0:0:0:
85,281,143515,1,10,0:0:0:0:
20,63,143702,1,2,0:0:0:0:
189,209,143890,6,0,P|230:215|268:200,1,80,2|0,1:2|0:0,0:0:0:0:
400,103,144265,2,0,P|385:181|373:246,1,120,8|0,0:0|0:0,0:0:0:0:
430,285,144640,2,0,P|471:275|516:268,1,80,2|0,1:2|3:0,0:0:0:0:
285,371,145015,2,0,P|243:376|209:363,1,80,10|0,0:0|0:0,0:0:0:0:
84,191,145390,5,6,1:2:0:0:
197,61,145577,1,8,0:0:0:0:
197,61,145671,1,8,0:0:0:0:
197,61,145765,2,0,L|210:165,1,80,8|0,0:0|3:0,0:0:0:0:
270,193,146046,1,0,3:0:0:0:
270,193,146140,2,0,P|303:207|346:200,1,80,0|8,1:0|0:0,0:0:0:0:
403,144,146421,1,8,0:0:0:0:
403,144,146515,2,0,L|388:90,3,40,8|8|8|8,0:0|0:0|0:0|0:0,0:0:0:0:
424,84,146890,6,0,P|412:163|403:242,1,160,6|8,1:2|0:0,0:0:0:0:
502,366,147452,1,8,0:0:0:0:
502,366,147546,1,8,0:0:0:0:
502,366,147640,2,0,P|514:319|490:272,1,80,0|2,1:0|0:0,0:0:0:0:
435,238,147921,1,8,0:0:0:0:
402,242,148015,1,8,0:0:0:0:
370,246,148108,1,8,0:0:0:0:
337,248,148202,1,8,0:0:0:0:
305,254,148296,1,8,0:0:0:0:
272,256,148390,5,4,1:2:0:0:
130,184,148577,1,0,3:2:0:0:
223,359,148765,1,8,0:0:0:0:
302,136,148952,1,0,3:0:0:0:
104,267,149140,2,0,L|13:254,1,80,2|2,1:2|3:2,0:2:0:0:
329,357,149515,1,8,0:0:0:0:
348,359,149608,1,8,0:0:0:0:
367,362,149702,1,8,0:0:0:0:
386,364,149796,1,8,0:0:0:0:
406,366,149890,6,0,P|445:358|484:351,1,80,12|2,0:0|0:0,0:0:0:0:
341,245,150265,2,0,P|288:222|209:244,1,120,10|0,0:0|0:0,0:0:0:0:
137,202,150640,2,0,P|144:241|150:280,1,80,6|2,0:0|0:0,0:0:0:0:
307,135,151015,1,8,0:0:0:0:
219,49,151202,2,0,L|210:129,1,80,2|8,0:0|0:1,0:0:0:0:
290,329,151577,5,2,0:0:0:0:
210,128,151765,1,10,0:0:0:0:
54,231,151952,2,0,P|133:239|212:253,1,160,2|0,0:0|0:0,0:0:0:0:
316,93,152515,2,0,P|279:108|235:111,1,80,8|2,0:0|0:0,0:0:0:0:
171,64,152796,1,2,0:0:0:0:
180,46,152890,6,0,L|165:109,1,40,6|0,0:0|0:0,0:0:0:0:
92,137,153077,2,0,L|102:188,1,40,2|0,0:0|0:0,0:0:0:0:
175,240,153265,2,0,L|163:286,1,40,10|0,0:0|0:0,0:0:0:0:
83,340,153452,2,0,P|43:333|4:328,1,80,2|8,0:0|0:1,0:0:0:0:
244,384,153827,2,0,P|303:376|441:366,1,160,2|2,0:0|0:0,0:0:0:0:
482,344,154296,1,2,0:0:0:0:
482,344,154390,6,0,P|428:288|351:299,1,160,6|10,0:0|0:0,0:0:0:0:
400,114,154952,2,0,P|407:153|413:192,1,80,2|0,0:0|0:0,0:0:0:0:
253,345,155327,2,0,P|258:305|266:266,1,80,2|8,0:0|0:0,0:0:0:0:
168,188,155702,1,10,0:0:0:0:
168,188,155796,1,10,0:0:0:0:
168,188,155890,6,0,P|109:180|71:209,1,80,14|0,0:0|0:0,0:0:0:0:
38,243,156171,2,0,L|51:289,1,40,2|10,0:0|0:0,0:0:0:0:
180,108,156452,6,0,L|166:199,1,80,2|4,0:0|0:0,0:0:0:0:
232,234,156733,2,0,L|277:222,1,40,2|2,0:0|0:0,0:0:0:0:
438,161,157015,2,0,P|381:132|350:140,1,80,10|2,0:0|0:0,0:0:0:0:
382,217,157296,1,2,0:0:0:0:
382,217,157390,6,0,L|396:314,1,80,6|0,0:0|0:0,0:0:0:0:
455,345,157671,2,0,L|447:386,1,40,2|8,0:0|0:0,0:0:0:0:
302,281,157952,6,0,P|258:258|195:272,1,80,2|8,0:0|0:1,0:0:0:0:
165,300,158233,2,0,L|112:294,1,40,2|2,0:0|0:0,0:0:0:0:
0,193,158515,2,0,P|39:187|79:183,1,80,10|2,0:0|0:0,0:0:0:0:
115,158,158796,1,2,0:0:0:0:
115,158,158890,6,0,P|110:118|105:78,1,80,4|0,0:0|0:0,0:0:0:0:
168,35,159171,1,0,0:0:0:0:
168,35,159265,2,0,P|214:28|257:48,1,80,10|2,0:0|0:0,0:0:0:0:
307,92,159546,1,2,0:0:0:0:
307,92,159640,2,0,L|410:81,1,80,6|2,0:0|0:0,0:0:0:0:
509,173,160015,1,10,0:0:0:0:
385,316,160202,1,10,0:0:0:0:
385,316,160296,1,8,0:0:0:0:
385,316,160390,6,0,P|393:256|402:197,1,120,14|8,0:0|0:0,0:0:0:0:
334,156,160765,2,0,P|294:161|254:168,1,80,8|8,0:0|0:0,0:0:0:0:
193,217,161046,1,8,0:0:0:0:
181,236,161140,2,0,L|193:311,2,53.3333333333333,8|8|8,3:0|3:0|3:0,0:0:0:0:
94,183,161515,2,0,L|102:130,2,53.3333333333333,8|8|8,3:0|3:0|3:0,0:0:0:0:
0,337,161890,6,0,B|95:302|79:382|170:359,1,180.000006866455,6|0,1:2|1:0,0:0:0:0:
252,282,162640,2,0,P|211:248|129:264,1,120.000004577637,10|0,0:0|3:0,0:0:0:0:
293,375,163202,1,8,0:0:0:0:
293,375,163296,1,8,0:0:0:0:
293,375,163390,6,0,P|327:371|371:366,1,60.0000022888184,2|8,1:2|0:0,0:0:0:0:
352,368,163765,1,0,0:0:0:0:
512,326,163952,2,0,P|463:286|397:299,1,120.000004577637,2|0,0:0|0:0,0:0:0:0:
338,231,164515,2,0,P|341:202|347:172,1,60.0000022888184,2|0,0:0|0:0,0:0:0:0:
233,42,164890,6,0,L|246:169,1,120.000004577637,2|0,1:2|0:0,0:0:0:0:
245,161,165452,1,0,1:0:0:0:
144,221,165640,2,0,P|85:211|26:204,1,120.000004577637,8|2,0:0|0:0,0:0:0:0:
136,322,166202,1,8,0:0:0:0:
136,322,166296,1,8,0:0:0:0:
136,322,166390,6,0,L|207:311,1,60.0000022888184,2|8,1:2|0:0,0:0:0:0:
278,359,166765,1,0,1:0:0:0:
485,249,167140,2,0,L|411:236,1,60.0000022888184,2|0,2:0|1:0,0:0:0:0:
356,178,167515,1,8,0:0:0:0:
337,150,167608,1,8,0:0:0:0:
334,116,167702,1,8,0:0:0:0:
346,85,167796,1,8,0:0:0:0:
374,63,167890,5,6,1:2:0:0:
334,267,168265,1,0,1:0:0:0:
130,227,168640,1,0,1:0:0:0:
170,23,169015,1,0,1:0:0:0:
258,136,169390,6,0,L|317:127,3,40,2|2|2|2,1:2|3:2|1:2|3:2,0:0:0:0:
346,24,169765,6,0,L|354:64,3,40,2|2|2|2,1:2|3:2|1:2|3:2,0:0:0:0:
464,106,170140,6,0,L|425:113,3,40,2|2|2|2,3:2|3:2|3:2|3:2,0:0:0:0:
375,217,170515,6,0,L|368:178,3,40,2|2|2|2,1:2|3:2|3:2|3:2,0:0:0:0:
385,259,170890,5,6,1:2:0:0:
269,219,171077,1,0,3:2:0:0:
359,361,171265,1,2,3:2:0:0:
368,178,171452,1,0,3:2:0:0:
183,354,171640,1,10,0:2:0:0:
339,281,171827,1,0,3:2:0:0:
191,127,172015,2,0,P|183:166|176:205,1,80,0|0,3:0|0:0,0:0:0:0:
34,382,172390,6,0,B|19:329|54:286|54:286|138:198|72:110|4:110|-34:196|18:225,1,383.99998828125,4|2,0:0|0:0,0:0:0:0:
199,330,182890,6,0,B|277:363|320:297|320:297|354:365|430:383|478:286|405:227|357:300,1,383.99998828125,2|2,0:0|0:0,0:0:0:0:
360,294,184577,2,0,L|367:241,2,47.9999985351563,2|2|2,0:0|0:0|0:0,0:0:0:0:
292,356,185702,1,8,0:0:0:0:
292,356,185796,1,8,0:0:0:0:
292,356,185890,6,0,P|244:349|196:342,1,95.9999970703126,2|0,1:2|1:0,0:0:0:0:
106,270,186640,2,0,P|58:276|10:283,1,95.9999970703126,2|0,1:2|1:0,0:0:0:0:
10,283,187202,1,2,0:0:0:0:
50,188,187390,6,0,L|33:94,2,95.9999970703126,2|0|0,1:2|1:0|1:0,0:0:0:0:
227,338,188515,1,0,1:2:0:0:
227,338,188890,6,0,P|276:312|329:324,1,95.9999970703126,2|0,1:2|1:0,0:0:0:0:
471,256,189640,2,0,P|418:263|371:228,1,95.9999970703126,2|0,1:2|1:0,0:0:0:0:
314,167,190296,1,0,3:0:0:0:
308,162,190390,6,0,L|331:56,1,95.9999970703126,2|0,1:2|0:0,0:0:0:0:
200,189,190952,1,8,0:0:0:0:
200,189,191140,2,0,L|211:253,1,47.9999985351563,2|0,1:2|0:0,0:0:0:0:
267,302,191515,1,2,3:2:0:0:
209,372,191702,1,2,0:0:0:0:
389,258,191890,6,0,P|439:277|424:362,1,143.999995605469,6|0,1:2|1:0,0:0:0:0:
310,220,192640,2,0,P|317:172|327:108,1,95.9999970703126,8|0,0:0|0:0,0:0:0:0:
394,81,193202,1,0,1:0:0:0:
231,24,193390,6,0,L|240:70,2,47.9999985351563,10|8|0,0:0|0:0|3:2,0:0:0:0:
75,156,194140,2,0,P|106:153|131:156,1,47.9999985351563,8|0,0:0|0:0,0:0:0:0:
185,226,194515,1,8,0:0:0:0:
182,247,194608,1,8,0:0:0:0:
180,268,194702,1,8,0:0:0:0:
178,289,194796,1,8,0:0:0:0:
176,310,194890,5,2,1:2:0:0:
380,170,195265,1,0,1:0:0:0:
352,63,195452,1,8,0:0:0:0:
482,218,195640,1,8,0:0:0:0:
266,134,195827,1,8,0:0:0:0:
467,74,196015,1,8,0:0:0:0:
333,274,196202,1,2,1:2:0:0:
333,274,196296,1,0,1:2:0:0:
333,274,196390,5,12,0:0:0:0:
265,0,196577,1,8,0:0:0:0:
21,262,210640,6,0,P|1:218|46:157,2,120.000004577637,6|0|0,1:2|1:0|1:2,0:0:0:0:
131,384,211765,2,0,L|140:316,1,60.0000022888184,0|0,1:0|0:0,0:0:0:0:
216,286,212140,6,0,P|275:279|335:272,1,120.000004577637,2|2,1:0|1:2,0:0:0:0:
419,308,212702,1,2,0:0:0:0:
419,308,212890,2,0,L|410:242,1,60.0000022888184,2|2,1:2|0:0,0:0:0:0:
507,151,213265,2,0,P|500:183|495:214,1,60.0000022888184,2|2,1:2|0:0,0:0:0:0:
398,130,213640,6,0,P|346:104|289:118,1,120.000004577637,2|2,1:2|1:2,0:0:0:0:
146,200,214390,2,0,P|134:141|122:82,1,120.000004577637,2|2,1:2|1:2,0:0:0:0:
0,359,215140,6,0,P|51:320|122:343,1,120.000004577637,2|0,1:2|0:0,0:0:0:0:
184,192,215702,1,0,3:0:0:0:
88,237,215890,1,0,3:0:0:0:
88,237,216077,1,0,3:0:0:0:
176,382,216265,2,0,P|190:354|192:319,1,60.0000022888184,0|0,1:0|0:0,0:0:0:0:
303,266,216640,6,0,L|374:254,1,60.0000022888184,4|2,1:2|2:0,0:0:0:0:
493,384,217015,2,0,P|436:339|370:359,1,120.000004577637,2|2,0:0|1:0,0:0:0:0:
305,372,217577,1,2,0:0:0:0:
362,256,217765,2,0,L|355:206,3,30.0000011444092,8|8|8|8,0:0|0:0|0:0|0:0,0:0:0:0:
381,191,218140,5,6,1:2:0:0:
132,301,218327,1,0,1:0:0:0:
383,377,218515,1,8,0:0:0:0:
258,245,218702,2,0,P|252:277|245:313,1,60.0000022888184,2|8,0:0|0:0,0:0:0:0:
87,373,219077,5,8,0:0:0:0:
64,350,219170,1,8,0:0:0:0:
51,322,219264,1,8,0:0:0:0:
49,291,219358,1,8,0:0:0:0:
57,260,219452,1,8,0:0:0:0:
75,235,219545,1,8,0:0:0:0:
101,217,219640,6,0,P|180:229|258:243,1,160,6|8,1:2|0:0,0:0:0:0:
426,137,220202,1,2,0:0:0:0:
326,105,220390,2,0,P|333:144|341:183,1,80,0|0,1:2|0:0,0:0:0:0:
444,320,220765,2,0,P|451:280|459:241,1,80,8|0,0:0|0:0,0:0:0:0:
326,105,221140,6,0,P|271:72|181:100,1,160,2|8,1:2|0:0,0:0:0:0:
89,196,221702,1,2,0:0:0:0:
25,88,221890,1,2,1:2:0:0:
203,197,222077,1,2,0:0:0:0:
60,296,222265,2,0,P|67:256|75:217,1,80,10|0,0:0|0:0,0:0:0:0:
180,38,222640,6,0,P|191:117|202:196,1,160,2|8,1:2|0:0,0:0:0:0:
386,266,223202,1,2,0:0:0:0:
276,382,223390,2,0,P|286:302|296:223,1,160,2|8,1:2|0:0,0:0:0:0:
214,120,223952,1,2,0:0:0:0:
214,120,224046,1,0,3:0:0:0:
214,120,224140,6,0,P|156:130|83:138,1,120,2|0,1:2|0:0,0:0:0:0:
24,92,224515,1,8,0:0:0:0:
185,209,224702,1,2,0:0:0:0:
22,265,224890,1,2,1:2:0:0:
121,118,225077,1,2,0:0:0:0:
214,330,225265,1,10,0:0:0:0:
96,216,225452,1,0,0:0:0:0:
253,123,225640,6,0,B|301:94|341:111|341:111|365:145|413:142,1,160,2|8,1:2|0:0,0:0:0:0:
417,41,226202,1,2,0:0:0:0:
290,205,226390,2,0,P|236:196|155:182,1,120,0|0,1:2|0:0,0:0:0:0:
92,165,226765,2,0,P|101:204|107:243,1,80,10|0,0:0|0:0,0:0:0:0:
265,362,227140,6,0,P|304:356|344:352,1,80,2|0,1:2|0:0,0:0:0:0:
512,254,227515,2,0,P|472:248|432:244,1,80,10|0,0:0|0:0,0:0:0:0:
357,133,227890,2,0,P|365:91|375:42,1,80,2|0,1:2|0:0,0:0:0:0:
220,172,228265,2,0,P|226:211|232:250,1,80,10|0,0:0|0:0,0:0:0:0:
125,348,228640,5,6,1:2:0:0:
380,253,228827,1,0,3:0:0:0:
139,199,229015,1,8,0:0:0:0:
306,337,229202,1,0,3:0:0:0:
117,194,229390,1,4,1:2:0:0:
352,139,229577,1,0,0:0:0:0:
63,264,229765,1,12,0:0:0:0:
326,364,229952,1,8,0:0:0:0:
326,364,230046,1,8,0:0:0:0:
326,364,230140,6,0,P|356:298|313:238,1,120,6|0,1:2|0:0,0:0:0:0:
270,222,230515,2,0,L|171:236,1,80,8|0,0:0|0:0,0:0:0:0:
131,187,230796,1,8,0:0:0:0:
119,173,230890,2,0,L|132:97,2,53.3333333333333,8|8|8,3:0|3:0|3:0,0:0:0:0:
43,239,231265,2,0,L|51:291,2,53.3333333333333,8|8|8,3:0|3:0|3:0,0:0:0:0:
157,336,231640,6,0,B|256:348|230:281|326:295,1,180.000006866455,6|0,1:2|1:0,0:0:0:0:
404,356,232390,2,0,P|426:315|404:241,1,120.000004577637,10|0,0:0|3:0,0:0:0:0:
324,186,232952,1,8,0:0:0:0:
324,186,233046,1,8,0:0:0:0:
324,186,233140,6,0,L|336:127,1,60.0000022888184,2|0,1:2|0:0,0:0:0:0:
312,103,233421,1,0,1:2:0:0:
312,103,233515,2,0,P|264:115|225:118,1,60.0000022888184,0|2,0:0|0:0,0:0:0:0:
179,56,233890,1,2,0:0:0:0:
179,56,234077,1,2,0:0:0:0:
87,106,234265,1,2,0:0:0:0:
170,193,234452,1,10,0:0:0:0:
170,193,234546,1,8,0:0:0:0:
170,193,234640,6,0,P|194:235|164:313,1,120.000004577637,6|2,1:2|0:0,0:0:0:0:
176,301,235202,1,0,1:0:0:0:
310,384,235390,2,0,P|291:328|316:275,1,120.000004577637,8|0,0:0|0:0,0:0:0:0:
394,222,235952,1,8,0:0:0:0:
394,222,236046,1,8,0:0:0:0:
394,222,236140,6,0,P|429:229|465:237,1,60.0000022888184,6|0,1:2|0:0,0:0:0:0:
272,130,236515,2,0,P|242:136|213:142,1,60.0000022888184,12|0,0:0|0:0,0:0:0:0:
382,53,236890,5,0,1:0:0:0:
315,275,237077,1,0,1:0:0:0:
220,150,237265,1,8,0:0:0:0:
220,150,237358,1,8,0:0:0:0:
220,150,237452,1,0,3:0:0:0:
233,343,237640,5,2,1:1:0:0:
319,153,238015,1,2,1:2:0:0:
94,228,238390,5,2,1:2:0:0:
186,246,238577,1,2,0:0:0:0:
94,228,238765,1,2,1:2:0:0:
186,246,238952,1,2,0:0:0:0:
126,323,239140,5,2,1:1:0:0:
153,73,239515,1,2,1:2:0:0:
403,99,239890,1,2,1:1:0:0:
377,349,240265,1,2,1:2:0:0:
321,271,240452,1,8,0:0:0:0:
321,271,240546,1,8,0:0:0:0:
321,271,240640,6,0,P|396:250|450:288,1,120.000004577637,6|0,1:2|0:0,0:0:0:0:
281,354,241202,2,0,P|222:342|162:333,1,120.000004577637,2|0,0:0|0:0,0:0:0:0:
64,284,241765,2,0,P|69:311|76:349,1,60.0000022888184,2|0,1:2|0:0,0:0:0:0:
154,235,242140,5,2,3:2:0:0:
154,235,242327,1,0,3:2:0:0:
289,161,242515,1,2,3:2:0:0:
289,161,242702,1,0,3:2:0:0:
172,118,242890,1,2,3:2:0:0:
172,118,243077,1,0,3:2:0:0:
256,317,243265,1,2,3:2:0:0:
256,317,243452,1,0,3:2:0:0:
408,190,243640,6,0,B|444:138|405:75|405:75|450:75|456:120,1,180.000006866455,6|0,1:2|1:0,0:0:0:0:
333,139,244390,2,0,L|256:123,1,60.0000022888184,8|0,0:0|0:0,0:0:0:0:
201,76,244765,2,0,L|138:85,1,60.0000022888184,2|8,0:0|0:0,0:0:0:0:
109,118,245046,1,8,0:0:0:0:
109,118,245140,6,0,P|100:57|87:-6,2,120.000004577637,6|2|2,1:2|0:0|0:0,0:0:0:0:
297,264,246077,1,8,0:0:0:0:
300,234,246170,1,8,0:0:0:0:
304,204,246264,1,8,0:0:0:0:
308,174,246358,1,8,0:0:0:0:
312,144,246452,1,8,0:0:0:0:
316,115,246545,1,8,0:0:0:0:
320,85,246639,5,6,1:2:0:0:
180,178,246827,1,2,3:2:0:0:
412,269,247015,1,8,0:0:0:0:
155,177,247202,1,2,3:2:0:0:
411,78,247390,1,2,1:2:0:0:
172,293,247577,1,2,3:2:0:0:
392,172,247765,1,8,0:0:0:0:
102,72,247952,1,10,0:2:0:0:
102,72,248046,1,8,0:0:0:0:
102,72,248140,5,6,1:2:0:0:
296,185,248327,1,0,1:0:0:0:
29,347,248515,1,8,0:0:0:0:
117,224,248890,6,0,P|181:237|257:253,1,120.000004577637,2|2,0:0|0:2,0:0:0:0:
234,248,249452,1,2,0:0:0:0:
366,352,249640,6,0,P|404:279|343:206,1,160,6|8,1:2|0:0,0:0:0:0:
286,98,250202,2,0,L|271:176,1,80,2|0,0:0|3:2,0:0:0:0:
118,265,250577,1,2,0:0:0:0:
226,359,250765,2,0,P|222:317|216:267,1,80,8|2,0:0|0:0,0:0:0:0:
82,166,251140,6,0,P|44:178|5:186,1,80,2|0,1:3|0:0,0:0:0:0:
194,67,251515,2,0,P|235:75|270:88,1,80,2|0,1:3|0:0,0:0:0:0:
400,179,251890,1,2,3:2:0:0:
467,62,252077,1,2,0:0:0:0:
303,186,252265,2,0,L|316:239,2,40,10|0|2,0:0|0:0|0:2,0:0:0:0:
466,273,252640,6,0,L|451:352,1,80,2|0,1:2|0:0,0:0:0:0:
281,263,253015,2,0,L|334:254,1,40,10|0,0:0|0:0,0:0:0:0:
221,353,253202,2,0,L|132:338,1,80,2|0,0:0|3:0,0:0:0:0:
196,183,253577,1,2,0:0:0:0:
0,248,253765,2,0,P|64:272|121:231,1,120,10|0,0:0|0:0,0:0:0:0:
124,225,254140,6,0,P|112:145|101:66,2,160,2|8|0,1:2|0:0|1:0,0:0:0:0:
25,165,255077,1,2,0:0:0:0:
201,96,255265,1,8,0:0:0:0:
201,96,255358,1,8,0:0:0:0:
201,96,255452,1,2,3:2:0:0:
307,219,255640,6,0,P|387:237|443:187,1,160,6|8,1:2|0:0,0:0:0:0:
262,343,256390,2,0,P|222:336|183:329,1,80,2|0,1:2|0:0,0:0:0:0:
65,289,256765,2,0,P|72:328|83:384,1,80,10|0,0:0|0:0,0:0:0:0:
152,229,257140,6,0,P|158:186|165:143,1,80,2|0,1:2|0:0,0:0:0:0:
47,50,257515,2,0,L|60:136,1,80,10|0,0:0|0:0,0:0:0:0:
190,46,257890,2,0,P|251:39|282:36,1,80,2|0,1:2|0:0,0:0:0:0:
449,152,258265,2,0,P|375:168|336:118,1,120,10|0,0:0|0:0,0:0:0:0:
334,109,258640,6,0,P|320:187|306:266,1,160,6|8,1:2|0:0,0:0:0:0:
400,373,259202,2,0,L|388:325,1,40,2|0,0:0|0:0,0:0:0:0:
306,266,259390,2,0,B|230:248|232:306|152:290,1,160,0|8,1:2|0:0,0:0:0:0:
36,259,259952,1,2,3:2:0:0:
36,259,260046,1,2,3:2:0:0:
36,259,260140,6,0,L|49:345,1,80,6|0,1:2|0:0,0:0:0:0:
162,204,260515,1,0,1:0:0:0:
11,123,260702,1,4,1:2:0:0:
121,45,260890,2,0,L|106:111,2,40,2|0|2,1:2|0:0|0:0,0:0:0:0:
281,229,261265,1,8,0:0:0:0:
274,193,261358,1,8,0:0:0:0:
265,157,261452,1,8,0:0:0:0:
256,121,261546,1,8,0:0:0:0:
247,85,261640,6,0,P|316:130|399:112,1,160,6|8,1:2|0:0,0:0:0:0:
512,49,262202,2,0,P|471:40|415:27,1,80,2|0,0:0|3:2,0:0:0:0:
455,224,262577,2,0,P|463:182|477:128,1,80,2|8,0:0|0:0,0:0:0:0:
352,228,262952,1,2,0:0:0:0:
495,353,263140,6,0,P|460:334|404:338,1,80,2|0,1:3|0:0,0:0:0:0:
256,245,263515,2,0,L|342:237,1,80,2|0,1:3|0:0,0:0:0:0:
312,338,263890,1,2,3:2:0:0:
288,142,264077,1,2,0:0:0:0:
312,338,264265,2,0,L|319:388,2,40,10|0|2,0:0|0:0|0:2,0:0:0:0:
138,241,264640,6,0,L|154:134,1,80,2|0,1:2|0:0,0:0:0:0:
9,69,265015,2,0,L|20:125,1,40,10|0,0:0|0:0,0:0:0:0:
148,45,265202,2,0,P|189:34|242:50,1,80,2|0,0:0|3:0,0:0:0:0:
405,146,265577,1,2,0:0:0:0:
303,215,265765,2,0,P|313:150|322:88,1,120,10|0,0:0|0:0,0:0:0:0:
344,72,266140,6,0,P|406:46|491:104,1,160,2|8,0:0|0:0,0:0:0:0:
227,155,266702,1,2,0:0:0:0:
192,32,266890,1,2,1:2:0:0:
354,167,267077,1,8,0:0:0:0:
354,167,267171,1,8,0:0:0:0:
354,167,267265,2,0,L|402:157,2,40,8|8|8,0:0|0:0|0:0,0:0:0:0:
181,242,267640,5,6,1:2:0:0:
393,158,267827,1,2,3:2:0:0:
152,81,268015,1,8,0:0:0:0:
278,308,268202,2,0,B|259:254|306:208|273:150,1,160,6|0,1:2|0:0,0:0:0:0:
376,276,268765,5,6,1:2:0:0:
183,362,268952,1,2,3:2:0:0:
400,265,269140,1,10,0:0:0:0:
165,175,269327,2,0,P|95:189|-19:208,1,160,6|0,0:0|0:0,0:0:0:0:
7,203,269890,6,0,P|92:223|103:226,1,80,2|0,1:2|0:0,0:0:0:0:
259,52,270265,2,0,P|220:61|180:69,1,80,10|0,0:0|0:0,0:0:0:0:
274,287,270640,5,6,1:2:0:0:
243,182,270827,1,2,3:2:0:0:
343,350,271015,1,8,0:0:0:0:
155,167,271202,1,2,3:2:0:0:
378,223,271390,1,2,1:2:0:0:
152,279,271577,1,2,3:2:0:0:
305,66,271765,1,8,0:0:0:0:
274,287,271952,1,2,3:2:0:0:
182,21,272140,5,2,1:2:0:0:
378,223,272327,1,2,3:2:0:0:
127,163,272515,1,8,0:0:0:0:
420,59,272702,1,2,3:2:0:0:
313,362,272890,1,2,1:2:0:0:
275,157,273077,5,2,0:0:0:0:
275,157,273171,1,2,0:0:0:0:
275,157,273265,2,0,L|262:227,3,40,8|2|10|0,0:0|0:0|0:0|0:0,0:0:0:0:
