osu file format v14

[General]
AudioFilename: audio.mp3
AudioLeadIn: 0
PreviewTime: 52074
Countdown: 0
SampleSet: Soft
StackLeniency: 0.7
Mode: 0
LetterboxInBreaks: 0
WidescreenStoryboard: 1

[Editor]
DistanceSpacing: 1.6
BeatDivisor: 4
GridSize: 8
TimelineZoom: 1.450003

[Metadata]
Title:CANDY MAGIC (TV Size)
TitleUnicode:CANDY MAGIC (TV Size)
Artist:mimimemeMIMI
ArtistUnicode:みみめめMIMI
Creator:Uta
Version:Hard
Source:山田くんと7人の魔女
Tags:Yamada-kun to 7-nin no Majo ending ed きみのヒロインになりたくて Takao Yuki タカオ ユキ Yamada-kun and the Seven Witches sotarks fluffy hair waifuiscute onlybiscuit a_r_m_i_n agent_james
BeatmapID:1828024
BeatmapSetID:871425

[Difficulty]
HPDrainRate:5.5
CircleSize:3.6
OverallDifficulty:7.2
ApproachRate:7.8
SliderMultiplier:1.3
SliderTickRate:1

[Events]
//Background and Video events
0,0,"bg.jpg",0,0
//Break Periods
//Storyboard Layer 0 (Background)
//Storyboard Layer 1 (Fail)
//Storyboard Layer 2 (Pass)
//Storyboard Layer 3 (Foreground)
//Storyboard Sound Samples

[TimingPoints]
841,375,4,2,22,32,1,0
1216,-111.111111111111,4,2,22,32,0,0
9841,-111.111111111111,4,2,22,50,0,0
11341,-90.9090909090909,4,2,22,52,0,0
23341,-111.111111111111,4,2,22,32,0,0
34591,-111.111111111111,4,2,22,42,0,0
47341,-111.111111111111,4,2,22,32,0,0
49778,-111.111111111111,4,2,22,42,0,0
50341,-111.111111111111,4,2,22,52,0,0
52216,-111.111111111111,4,2,22,42,0,0
52966,-111.111111111111,4,2,22,42,0,0
53341,-90.9090909090908,4,2,22,62,0,1
65341,-90.9090909090908,4,2,22,52,0,0
65434,-90.9090909090908,4,2,22,42,0,0
80341,-90.9090909090908,4,2,22,50,0,0
82216,-111.111111111111,4,2,22,50,0,0
83247,-111.111111111111,4,2,22,25,0,0
83997,-111.111111111111,4,2,22,5,0,0
84093,600,4,2,22,32,1,0
84693,582.52427184466,4,2,22,32,1,0
85305,750,4,2,22,32,1,0
85986,375,4,2,22,32,1,0
86173,-100,4,2,22,5,0,0

[Colours]
Combo1 : 204,251,117
Combo2 : 249,151,219
Combo3 : 242,130,150
Combo4 : 126,250,201

[HitObjects]
471,310,1216,6,0,P|477:338|478:368,2,58.4999982147217,2|0|2,0:2|0:2|0:2,0:0:0:0:
376,321,1778,2,0,P|375:291|382:263,2,58.4999982147217,2|2|0,0:2|0:2|0:2,0:0:0:0:
291,372,2341,2,0,L|169:361,1,116.999996429443,2|2,0:2|0:0,0:0:0:0:
77,373,2903,1,0,0:2:0:0:
77,373,3091,2,0,L|74:300,1,58.4999982147217,2|0,0:2|0:2,0:0:0:0:
1,251,3466,2,0,L|4:178,1,58.4999982147217,2|0,0:2|0:2,0:0:0:0:
65,116,3841,6,0,P|118:104|187:98,1,116.999996429443,2|2,0:2|0:2,0:0:0:0:
265,147,4403,2,0,P|257:175|256:204,2,58.4999982147217,2|2|2,0:2|0:2|0:2,0:0:0:0:
338,80,4966,1,2,0:2:0:0:
338,80,5153,1,0,0:2:0:0:
419,138,5341,6,0,P|430:191|432:267,2,116.999996429443,2|2|2,0:2|0:2|0:2,0:0:0:0:
500,28,6466,1,2,0:2:0:0:
318,183,6841,6,0,P|264:155|198:164,1,116.999996429443,2|2,0:2|0:2,0:0:0:0:
122,202,7403,1,2,0:2:0:0:
122,202,7591,2,0,P|126:245|128:273,1,58.4999982147217,2|0,0:2|0:0,0:0:0:0:
99,356,7966,2,0,L|172:350,1,58.4999982147217,2|0,0:2|3:2,0:0:0:0:
178,343,8247,1,0,3:2:0:0:
201,334,8341,6,0,P|259:344|279:345,1,58.4999982147217,2|0,0:2|0:2,0:0:0:0:
343,287,8716,1,2,0:2:0:0:
343,287,8903,1,0,0:2:0:0:
428,346,9091,1,2,0:2:0:0:
428,346,9278,1,0,0:2:0:0:
493,271,9466,2,0,L|485:196,1,58.4999982147217,0|0,0:2|3:2,0:0:0:0:
493,191,9747,1,0,3:2:0:0:
493,191,9841,5,8,0:2:0:0:
398,109,10028,1,10,0:2:0:0:
490,29,10216,1,10,0:2:0:0:
363,198,10591,6,0,P|367:247|368:271,1,58.4999982147217,2|0,0:2|0:0,0:0:0:0:
315,342,10966,2,0,P|258:323|216:333,1,87.7499973220826,10|0,0:2|0:0,0:0:0:0:
211,335,11341,6,0,L|205:180,1,143.000004364014,6|10,1:2|0:2,0:0:0:0:
106,149,11903,2,0,P|70:148|35:141,1,71.5000021820069,2|0,0:2|1:2,0:0:0:0:
172,65,12278,1,2,0:2:0:0:
172,65,12466,2,0,L|250:57,1,71.5000021820069,10|0,0:2|0:2,0:0:0:0:
351,146,12841,6,0,L|273:138,1,71.5000021820069,0|0,1:2|0:2,0:0:0:0:
398,18,13216,2,0,L|326:25,1,71.5000021820069,8|0,0:2|0:2,0:0:0:0:
459,114,13591,1,2,1:2:0:0:
459,114,13778,1,2,0:2:0:0:
441,216,13966,1,10,0:2:0:0:
441,216,14153,1,2,0:2:0:0:
351,146,14341,6,0,L|180:128,1,143.000004364014,2|10,1:2|0:2,0:0:0:0:
162,227,14903,2,0,P|172:275|175:307,1,71.5000021820069,2|0,0:2|1:2,0:0:0:0:
237,384,15278,1,2,0:2:0:0:
327,330,15466,2,0,P|366:326|406:326,1,71.5000021820069,10|0,0:2|0:2,0:0:0:0:
497,367,15841,6,0,P|493:327|493:288,1,71.5000021820069,0|0,1:2|0:0,0:0:0:0:
433,206,16216,2,0,P|393:209|354:210,1,71.5000021820069,8|2,0:2|0:2,0:0:0:0:
395,94,16591,2,0,P|434:97|474:98,1,71.5000021820069,14|2,0:2|1:2,0:0:0:0:
478,91,16872,1,0,1:2:0:0:
478,91,16966,2,0,L|473:39,2,35.7500010910034,10|8|2,0:2|0:2|1:2,0:0:0:0:
433,206,17341,6,0,P|397:204|361:202,1,71.5000021820069,14|0,0:2|1:2,0:0:0:0:
263,157,17716,1,0,1:2:0:0:
207,248,17903,2,0,P|171:250|135:251,1,71.5000021820069,14|0,0:2|1:2,0:0:0:0:
47,190,18278,1,0,1:2:0:0:
124,115,18466,2,0,L|120:38,2,71.5000021820069,14|0|0,0:2|1:2|1:2,0:0:0:0:
47,190,19028,6,0,L|38:18,1,143.000004364014,14|0,0:2|1:2,0:0:0:0:
143,137,19591,2,0,P|197:128|225:125,1,71.5000021820069,14|0,0:2|1:2,0:0:0:0:
279,41,19966,2,0,P|314:47|349:51,1,71.5000021820069,8|0,0:2|1:2,0:0:0:0:
366,46,20247,1,0,1:2:0:0:
366,46,20341,6,0,L|374:127,1,71.5000021820069,6|0,1:2|1:2,0:0:0:0:
480,114,20716,2,0,L|472:195,1,71.5000021820069,0|0,1:2|1:2,0:0:0:0:
406,269,21091,1,0,1:2:0:0:
406,269,21278,1,0,1:2:0:0:
318,207,21466,1,0,1:2:0:0:
318,207,21653,1,0,1:2:0:0:
239,280,21841,6,0,P|199:275|153:271,2,71.5000021820069,10|8|8,0:2|0:2|0:2,0:0:0:0:
318,207,22403,1,8,0:2:0:0:
251,122,22591,2,0,L|246:43,1,71.5000021820069,8|8,0:2|0:2,0:0:0:0:
233,38,22872,2,0,L|195:42,3,35.7500010910034,2|8|2|8,0:0|0:2|0:0|0:2,0:0:0:0:
101,35,23341,6,0,P|110:95|116:155,1,116.999996429443,2|2,0:2|0:2,0:0:0:0:
27,304,24091,2,0,P|21:266|20:226,1,58.4999982147217,2|0,0:2|0:2,0:0:0:0:
126,316,24466,2,0,P|128:277|135:238,1,58.4999982147217,2|0,0:2|0:2,0:0:0:0:
207,187,24841,2,0,L|334:198,2,116.999996429443,2|2|2,0:2|0:2|0:2,0:0:0:0:
255,320,26153,1,2,0:2:0:0:
255,320,26341,6,0,P|291:315|327:311,1,58.4999982147217,2|0,0:2|0:2,0:0:0:0:
408,346,26716,2,0,P|411:316|415:287,1,58.4999982147217,0|2,0:2|0:2,0:0:0:0:
492,222,27091,2,0,L|483:93,1,116.999996429443,2|2,0:2|0:2,0:0:0:0:
423,28,27653,1,2,0:2:0:0:
331,76,27841,2,0,L|253:70,1,58.4999982147217,2|0,0:2|0:0,0:0:0:0:
186,15,28216,2,0,P|130:22|63:31,1,116.999996429443,2|2,0:2|0:2,0:0:0:0:
49,252,29341,6,0,P|53:188|17:137,1,116.999996429443,2|0,0:2|0:2,0:0:0:0:
103,74,29903,1,2,0:2:0:0:
103,74,30091,2,0,P|154:87|180:86,1,58.4999982147217,2|0,0:2|0:2,0:0:0:0:
262,60,30466,2,0,P|277:115|265:179,1,116.999996429443,2|2,0:2|0:2,0:0:0:0:
179,337,31403,5,2,0:2:0:0:
179,337,31591,2,0,L|170:265,1,58.4999982147217,0|0,0:2|0:2,0:0:0:0:
88,204,31966,2,0,L|80:262,1,58.4999982147217,2|0,0:2|0:2,0:0:0:0:
27,369,32341,6,0,P|87:356|162:350,1,116.999996429443,2|0,0:2|0:0,0:0:0:0:
386,303,33091,2,0,P|325:290|251:284,1,116.999996429443,2|0,0:2|0:0,0:0:0:0:
130,176,33841,6,0,P|164:168|206:165,1,58.4999982147217,2|0,0:2|0:2,0:0:0:0:
263,105,34216,2,0,P|297:112|339:115,1,58.4999982147217,0|0,0:0|0:2,0:0:0:0:
403,58,34591,1,8,0:2:0:0:
484,165,34778,2,0,P|475:208|468:287,1,116.999996429443,0|4,1:2|0:3,0:0:0:0:
468,302,35247,1,4,0:3:0:0:
468,302,35341,6,0,P|438:298|409:296,1,58.4999982147217,4|0,1:2|0:0,0:0:0:0:
312,348,35716,1,0,0:2:0:0:
235,273,35903,2,0,P|208:276|173:281,1,58.4999982147217,8|0,0:2|0:2,0:0:0:0:
86,335,36278,1,0,1:2:0:0:
72,242,36466,1,8,0:2:0:0:
61,149,36653,1,0,1:2:0:0:
61,149,36747,1,0,1:2:0:0:
60,149,36841,5,0,1:2:0:0:
173,182,37028,2,0,P|213:175|255:170,1,58.4999982147217,0|0,1:2|0:0,0:0:0:0:
348,103,37403,2,0,P|337:164|333:232,1,116.999996429443,8|0,0:2|1:2,0:0:0:0:
451,132,37966,2,0,P|459:170|463:204,1,58.4999982147217,8|0,0:2|1:2,0:0:0:0:
512,311,38341,6,0,P|417:300|388:297,1,116.999996429443,2|0,0:2|0:2,0:0:0:0:
303,244,38903,2,0,P|273:247|244:250,1,58.4999982147217,8|0,0:2|0:2,0:0:0:0:
150,297,39278,1,0,1:2:0:0:
70,212,39466,2,0,P|78:162|79:148,1,58.4999982147217,8|0,0:2|1:2,0:0:0:0:
75,131,39747,1,0,1:2:0:0:
75,131,39841,5,0,1:2:0:0:
185,164,40028,2,0,P|241:158|302:153,1,116.999996429443,0|8,1:2|0:2,0:0:0:0:
394,97,40591,1,0,0:2:0:0:
279,26,40778,1,0,1:2:0:0:
279,26,40966,2,0,P|250:23|220:20,1,58.4999982147217,8|0,0:2|1:2,0:0:0:0:
202,29,41247,1,0,1:2:0:0:
202,29,41341,6,0,P|217:93|191:153,1,116.999996429443,4|0,1:2|0:2,0:0:0:0:
98,95,41903,2,0,L|93:169,1,58.4999982147217,8|0,0:2|0:2,0:0:0:0:
164,233,42278,1,0,1:2:0:0:
266,207,42466,2,0,L|271:281,1,58.4999982147217,8|0,0:2|1:2,0:0:0:0:
281,362,42841,5,0,1:2:0:0:
281,362,43028,1,0,1:2:0:0:
391,374,43216,1,0,0:2:0:0:
433,290,43403,2,0,L|436:231,1,58.4999982147217,8|0,0:2|0:0,0:0:0:0:
357,165,43778,1,0,1:2:0:0:
266,207,43966,2,0,L|271:281,1,58.4999982147217,8|0,0:2|0:2,0:0:0:0:
200,354,44341,6,0,P|137:338|77:338,1,116.999996429443,0|0,1:2|0:2,0:0:0:0:
43,195,44903,2,0,P|32:242|32:269,1,58.4999982147217,8|0,0:2|0:2,0:0:0:0:
137,208,45278,1,0,1:2:0:0:
207,140,45466,2,0,P|203:110|195:82,1,58.4999982147217,8|0,0:2|1:2,0:0:0:0:
184,67,45747,1,8,0:2:0:0:
184,67,45841,6,0,L|63:61,1,116.999996429443,4|8,1:2|0:2,0:0:0:0:
14,153,46403,1,0,1:2:0:0:
14,153,46497,1,8,0:2:0:0:
14,153,46591,1,0,1:2:0:0:
99,218,46778,2,0,L|105:255,1,29.2499991073609,0|0,1:2|1:2,0:0:0:0:
125,292,46966,2,0,L|119:329,3,29.2499991073609,8|8|8|0,0:2|0:2|0:3|0:0,0:0:0:0:
185,237,47341,6,0,P|243:245|303:251,1,116.999996429443,6|0,1:2|0:0,0:0:0:0:
452,339,48091,2,0,P|472:280|462:209,1,116.999996429443,2|0,0:2|0:0,0:0:0:0:
416,138,48653,1,2,0:2:0:0:
323,202,48841,6,0,P|269:208|185:213,2,116.999996429443,6|2|2,0:2|0:2|0:2,0:0:0:0:
409,123,49778,1,8,0:3:0:0:
321,39,49966,1,4,0:3:0:0:
245,103,50153,1,4,0:3:0:0:
245,103,50341,6,0,P|212:98|168:93,1,58.4999982147217,8|0,0:2|1:2,0:0:0:0:
46,63,50716,2,0,P|75:59|103:54,1,58.4999982147217,8|0,0:2|1:2,0:0:0:0:
173,184,51091,2,0,P|143:187|115:192,1,58.4999982147217,8|0,0:2|1:2,0:0:0:0:
54,312,51466,2,0,P|83:315|111:320,1,58.4999982147217,8|0,0:2|1:2,0:0:0:0:
130,331,51747,1,0,1:2:0:0:
130,331,51841,5,8,0:2:0:0:
277,275,52028,2,0,P|334:270|454:257,1,175.499994644165,8|8,0:2|0:3,0:0:0:0:
474,140,52778,2,0,L|468:91,5,29.2499991073609,0|0|8|8|8|8,1:2|1:2|0:2|0:2|0:2|0:2,0:0:0:0:
458,162,53341,6,0,P|375:139|309:138,1,143.000004364014,6|8,1:2|0:2,0:0:0:0:
228,66,53903,1,2,0:2:0:0:
133,131,54091,2,0,L|132:209,1,71.5000021820069,2|0,1:2|0:2,0:0:0:0:
94,310,54466,2,0,L|165:309,1,71.5000021820069,8|0,0:2|0:2,0:0:0:0:
190,299,54747,1,0,0:0:0:0:
190,299,54841,6,0,P|267:310|336:322,2,143.000004364014,0|10|2,1:2|0:2|1:2,0:0:0:0:
123,188,55778,1,2,0:2:0:0:
123,188,55966,2,0,P|163:181|216:174,1,71.5000021820069,10|2,0:2|0:2,0:0:0:0:
246,59,56341,6,0,P|327:71|409:84,1,143.000004364014,2|8,1:2|0:2,0:0:0:0:
498,15,56903,1,2,0:2:0:0:
509,143,57091,2,0,L|512:218,1,71.5000021820069,2|0,1:2|0:2,0:0:0:0:
411,295,57466,1,8,0:2:0:0:
306,220,57653,1,0,0:2:0:0:
306,220,57747,1,2,0:2:0:0:
306,220,57841,6,0,P|228:226|156:233,2,143.000004364014,2|10|2,1:2|0:2|1:2,0:0:0:0:
408,142,58778,1,2,0:2:0:0:
357,23,58966,1,10,0:2:0:0:
250,94,59153,1,2,0:2:0:0:
125,59,59341,6,0,P|131:138|135:203,1,143.000004364014,2|8,1:2|0:2,0:0:0:0:
7,184,59903,1,2,0:2:0:0:
7,184,60091,2,0,P|4:218|3:258,1,71.5000021820069,2|0,1:2|0:2,0:0:0:0:
34,380,60466,2,0,P|80:370|122:364,1,71.5000021820069,10|0,0:2|0:2,0:0:0:0:
213,297,60841,6,0,P|284:309|359:322,2,143.000004364014,2|10|2,1:2|0:2|1:2,0:0:0:0:
174,118,61966,1,10,0:2:0:0:
174,118,62153,1,2,0:2:0:0:
279,192,62341,6,0,P|379:200|422:168,1,143.000004364014,4|10,1:2|0:2,0:0:0:0:
499,96,62903,1,0,0:2:0:0:
392,37,63091,2,0,P|335:33|308:31,1,71.5000021820069,6|0,1:2|0:2,0:0:0:0:
186,112,63466,2,0,P|243:108|270:106,1,71.5000021820069,8|0,0:2|0:0,0:0:0:0:
274,120,63747,1,10,0:2:0:0:
274,120,63841,6,0,P|259:214|254:264,1,143.000004364014,4|10,1:2|0:2,0:0:0:0:
314,371,64403,1,10,0:2:0:0:
190,356,64591,2,0,L|123:362,2,47.6666681213379,10|4|4,0:2|0:3|0:3,0:0:0:0:
109,284,64966,2,0,L|61:279,2,47.6666681213379,10|4|4,0:3|0:3|0:3,0:0:0:0:
184,236,65341,6,0,P|200:188|164:91,1,143.000004364014,6|0,1:2|0:2,0:0:0:0:
69,31,65903,1,2,1:2:0:0:
9,132,66091,2,0,P|15:197|17:218,1,71.5000021820069,14|2,0:2|1:2,0:0:0:0:
48,323,66466,2,0,P|93:323|137:305,1,71.5000021820069,0|0,0:0|1:2,0:0:0:0:
136,305,66747,1,0,1:2:0:0:
136,305,66841,6,0,L|270:318,2,107.25000327301,4|0|2,1:2|1:2|1:2,0:0:0:0:
208,196,67591,2,0,L|293:204,1,71.5000021820069,14|0,0:2|0:0,0:0:0:0:
377,286,67966,1,2,0:2:0:0:
489,224,68153,1,8,0:2:0:0:
489,224,68247,1,0,0:0:0:0:
489,224,68341,6,0,P|483:158|471:75,2,143.000004364014,6|2|10,1:2|0:2|0:2,0:0:0:0:
439,342,69278,1,0,0:0:0:0:
314,306,69466,2,0,P|278:301|228:299,1,71.5000021820069,2|0,0:2|1:2,0:0:0:0:
223,293,69747,1,0,1:2:0:0:
223,293,69841,6,0,P|188:297|138:299,1,71.5000021820069,10|0,0:2|1:2,0:0:0:0:
29,341,70216,2,0,P|33:306|35:256,1,71.5000021820069,12|2,0:2|1:2,0:0:0:0:
149,208,70591,2,0,P|144:173|142:123,1,71.5000021820069,10|0,0:2|1:2,0:0:0:0:
76,26,70966,2,0,L|12:20,3,35.7500010910034,8|8|4|4,0:3|0:3|0:3|0:3,0:0:0:0:
100,34,71341,6,0,P|159:29|196:26,1,71.5000021820069,4|2,1:2|0:2,0:0:0:0:
265,94,71716,2,0,P|300:96|336:100,1,71.5000021820069,2|2,1:2|0:2,0:0:0:0:
441,53,72091,2,0,P|436:123|435:140,1,71.5000021820069,2|2,1:2|0:2,0:0:0:0:
386,227,72466,1,2,1:2:0:0:
386,227,72653,1,2,0:2:0:0:
487,279,72841,6,0,P|492:349|493:366,1,71.5000021820069,0|2,1:2|0:2,0:0:0:0:
377,348,73216,2,0,P|341:350|305:353,1,71.5000021820069,2|2,1:2|0:2,0:0:0:0:
220,275,73591,2,0,P|184:272|148:269,1,71.5000021820069,2|0,1:2|0:0,0:0:0:0:
304,195,73966,2,0,P|339:192|375:189,1,71.5000021820069,2|10,1:2|0:2,0:0:0:0:
394,196,74247,1,8,0:2:0:0:
394,196,74341,6,0,P|395:126|400:51,2,143.000004364014,6|0|0,1:2|1:2|1:2,0:0:0:0:
314,337,75466,2,0,P|282:332|238:330,1,71.5000021820069,0|0,1:2|0:2,0:0:0:0:
226,340,75747,1,2,1:2:0:0:
226,340,75841,5,2,1:2:0:0:
136,281,76028,1,8,0:3:0:0:
204,201,76216,1,4,0:3:0:0:
148,112,76403,1,8,0:3:0:0:
229,165,76591,2,0,L|314:171,2,71.5000021820069,4|4|4,0:3|0:3|0:3,0:0:0:0:
290,57,77153,1,2,0:2:0:0:
387,98,77341,6,0,P|392:135|395:171,1,71.5000021820069,6|0,1:2|0:0,0:0:0:0:
339,277,77716,1,0,0:2:0:0:
339,277,77903,1,0,1:2:0:0:
427,360,78091,1,10,0:2:0:0:
500,283,78278,2,0,L|494:201,2,71.5000021820069,0|0|2,0:0|0:2|1:2,0:0:0:0:
427,360,78841,6,0,P|364:363|263:375,2,143.000004364014,2|2|14,1:2|1:2|0:2,0:0:0:0:
365,255,79778,1,0,1:2:0:0:
243,244,79966,2,0,L|246:283,3,35.7500010910034,8|8|8|8,0:2|0:2|0:2|0:2,0:0:0:0:
236,229,80341,6,0,L|145:222,1,71.5000021820069,0|2,1:2|1:2,0:0:0:0:
315,164,80716,1,0,0:0:0:0:
315,164,80903,1,0,0:0:0:0:
205,110,81091,2,0,L|114:103,1,71.5000021820069,10|10,0:2|0:2,0:0:0:0:
337,38,81466,2,0,L|428:31,1,71.5000021820069,10|2,0:2|1:2,0:0:0:0:
418,44,81747,1,0,1:2:0:0:
418,44,81841,5,8,0:2:0:0:
501,141,82028,1,10,0:2:0:0:
453,261,82216,2,0,P|387:247|316:240,1,116.999996429443,10|0,0:2|0:0,0:0:0:0:
176,285,82966,1,0,0:0:0:0:
79,312,83153,6,0,B|69:252|107:209|107:209|133:189|150:146|128:123|107:114|75:129|81:183,1,263.249991966248
63,177,84093,6,0,L|20:171,2,43.3333333333333,2|0|0,0:2|0:2|0:2,0:0:0:0:
136,99,84693,6,0,L|179:92,2,43.3333333333333,2|0|0,0:2|0:2|0:2,0:0:0:0:
245,166,85305,6,0,L|287:173,2,43.3333333333333,2|0|0,0:2|0:2|0:2,0:0:0:0:
256,192,85986,12,0,88236,0:0:0:0:
