osu file format v14

[General]
AudioFilename: audio.mp3
AudioLeadIn: 0
PreviewTime: 52122
Countdown: 0
SampleSet: Soft
StackLeniency: 0.7
Mode: 0
LetterboxInBreaks: 0
WidescreenStoryboard: 1

[Editor]
DistanceSpacing: 1.4
BeatDivisor: 4
GridSize: 4
TimelineZoom: 1

[Metadata]
Title:CANDY MAGIC (TV Size)
TitleUnicode:CANDY MAGIC (TV Size)
Artist:mimimemeMIMI
ArtistUnicode:みみめめMIMI
Creator:Sajinn
Version:Hard
Source:山田くんと7人の魔女
Tags:jpop j-pop japanese anime Yamada-kun to 7-nin no Majou ending ed きみのヒロインになりたくて Takao Yuki タカオ ユキ Yamada-kun and the Seven Witches Kirishima Kirishima- Uta
BeatmapID:2915789
BeatmapSetID:1414644

[Difficulty]
HPDrainRate:4.2
CircleSize:3.2
OverallDifficulty:6.5
ApproachRate:7.5
SliderMultiplier:1.42
SliderTickRate:1

[Events]
//Background and Video events
0,0,"bg.jpg",0,0
//Break Periods
//Storyboard Layer 0 (Background)
//Storyboard Layer 1 (Fail)
//Storyboard Layer 2 (Pass)
//Storyboard Layer 3 (Foreground)
//Storyboard Layer 4 (Overlay)
//Storyboard Sound Samples

[TimingPoints]
-3659,375,4,2,22,32,1,0
1216,-161.290322580645,4,2,22,32,0,0
2341,-138.888888888889,4,2,22,32,0,0
6747,-89.2857142857143,4,2,22,5,0,0
6841,-138.888888888889,4,2,22,32,0,0
7966,-108.695652173913,4,2,22,32,0,0
9841,-108.695652173913,4,2,22,50,0,0
10216,-108.695652173913,4,2,22,32,0,0
10872,-89.2857142857143,4,2,22,5,0,0
10966,-81.9672131147541,4,2,22,32,0,0
11341,-108.695652173913,4,2,22,52,0,0
17341,-98.0392156862745,4,2,22,52,0,0
23341,-138.888888888889,4,2,22,32,0,0
34591,-138.888888888889,4,2,22,42,0,0
35341,-121.951219512195,4,2,22,42,0,0
45747,-89.2857142857143,4,2,22,42,0,0
45841,-121.951219512195,4,2,22,42,0,0
46684,-121.951219512195,4,2,22,32,0,0
46778,-121.951219512195,4,2,22,42,0,0
47341,-161.290322580645,4,2,22,32,0,0
49778,-161.290322580645,4,2,22,42,0,0
50341,-98.0392156862745,4,2,22,52,0,0
52591,-98.0392156862745,4,2,22,42,0,0
52684,-98.0392156862745,4,2,22,32,0,0
52778,-98.0392156862745,4,2,22,42,0,0
52872,-98.0392156862745,4,2,22,32,0,0
52966,-98.0392156862745,4,2,22,42,0,0
53341,-89.2857142857143,4,2,22,62,0,0
63747,-89.2857142857143,4,2,22,62,0,0
65341,-108.695652173913,4,2,22,52,0,0
65434,-108.695652173913,4,2,22,42,0,0
67778,-108.695652173913,4,2,22,32,0,0
67966,-108.695652173913,4,2,22,42,0,0
71341,-121.951219512195,4,2,22,42,0,0
77341,-138.888888888889,4,2,22,42,0,0
78841,-108.695652173913,4,2,22,42,0,0
80341,-98.0392156862745,4,2,22,42,0,0
84093,600,4,2,22,32,1,0
84693,582.52427184466,4,2,22,32,1,0
85305,750,4,2,22,32,1,0
85986,375,4,2,22,32,1,0

[Colours]
Combo1 : 234,0,117
Combo2 : 255,185,255
Combo3 : 155,155,255
Combo4 : 157,255,255

[HitObjects]
80,36,1216,6,0,P|47:30|20:25,2,44.0199982536011,2|0|0,0:2|0:2|0:2,0:2:0:0:
149,87,1778,2,0,P|182:81|209:76,2,44.0199982536011,2|0|0,0:2|0:2|0:2,0:2:0:0:
90,149,2341,6,0,P|101:206|118:303,1,153.360003744141,2|0,0:2|0:2,0:2:0:0:
186,350,3091,1,2,0:2:0:0:
280,229,3466,1,0,0:2:0:0:
413,304,3841,1,0,0:2:0:0:
393,151,4216,6,0,P|360:157|332:163,2,51.1200012480469,2|0|0,0:2|0:2|0:2,0:2:0:0:
462,100,4778,2,0,P|495:106|524:112,2,51.1200012480469,2|0|0,0:2|0:2|0:2,0:2:0:0:
401,40,5341,6,0,P|360:46|294:56,1,102.240002496094,2|2,0:2|0:2,0:2:0:0:
152,97,6091,2,0,P|182:89|236:132,1,102.240002496094,2|2,0:2|0:2,0:2:0:0:
118,228,6841,6,0,B|174:217|174:217|207:236|207:236|278:223,1,153.360003744141,2|2,0:2|0:2,0:2:0:0:
313,156,7591,1,2,0:2:0:0:
484,218,7966,2,0,P|475:275|461:358,1,130.639995614502,0|2,0:2|0:2,0:0:0:0:
383,378,8528,6,0,P|351:361|313:363,2,65.319997807251,0|2|0,0:2|0:2|0:2,0:0:0:0:
324,275,9091,2,0,P|291:276|263:292,2,65.319997807251,2|0|0,0:2|0:2|0:2,0:2:0:0:
372,202,9653,5,0,3:2:0:0:
372,202,9747,1,0,3:2:0:0:
372,202,9841,1,8,0:2:0:0:
312,132,10028,1,10,0:2:0:0:
348,48,10216,1,10,0:2:0:0:
181,123,10591,6,0,P|122:108|73:96,1,97.9799967108766,2|0,0:2|0:0,0:2:0:0:
75,97,10966,1,10,0:2:0:0:
113,259,11341,6,0,B|187:231|169:305|253:286,1,130.639995614502,6|10,1:2|0:2,0:2:0:0:
309,338,11903,2,0,P|358:333|452:323,1,130.639995614502,2|2,0:2|0:2,0:2:0:0:
496,253,12466,2,0,P|512:222|504:174,1,65.319997807251,10|0,0:2|0:2,0:2:0:0:
456,118,12841,6,0,B|396:84|396:84|328:121,1,130.639995614502,0|8,1:2|0:2,0:2:0:0:
183,21,13591,2,0,P|161:50|165:102,1,65.319997807251,2|2,1:2|0:2,0:0:0:0:
236,124,13966,2,0,P|258:153|254:205,1,65.319997807251,10|2,0:2|0:2,0:0:0:0:
204,253,14341,6,0,P|237:272|335:242,1,130.639995614502,2|10,1:2|0:2,0:2:0:0:
352,167,14903,2,0,B|426:136|426:136|478:158,1,130.639995614502,2|2,0:2|0:2,0:2:0:0:
503,242,15466,1,10,0:2:0:0:
379,376,15841,6,0,P|387:315|397:230,1,130.639995614502,0|8,1:2|0:2,0:2:0:0:
352,167,16403,2,0,P|304:176|268:184,2,65.319997807251,2|14|2,0:2|0:2|1:2,0:0:0:0:
388,84,16966,1,10,0:2:0:0:
388,84,17153,1,2,1:2:0:0:
264,18,17341,5,14,0:2:0:0:
181,76,17528,2,0,P|174:107|166:149,1,72.4200004420166,0|0,1:2|1:2,0:0:0:0:
85,208,17903,2,0,P|113:239|222:234,1,144.840000884033,14|0,0:2|1:2,0:0:0:0:
288,177,18466,1,14,0:2:0:0:
361,246,18653,2,0,P|367:277|376:319,1,72.4200004420166,0|0,1:2|1:2,0:0:0:0:
441,186,19028,6,0,P|452:110|463:39,1,144.840000884033,14|0,0:2|1:2,0:0:0:0:
366,75,19591,2,0,P|326:80|283:44,1,72.4200004420166,14|0,0:2|1:2,0:0:0:0:
217,4,19966,1,8,0:2:0:0:
202,20,20341,6,0,P|208:66|213:101,1,72.4200004420166,6|0,1:2|1:2,0:0:0:0:
122,139,20716,2,0,P|116:185|111:220,1,72.4200004420166,0|0,1:2|1:2,0:0:0:0:
38,280,21091,2,0,P|74:308|123:308,1,72.4200004420166,0|0,1:2|1:2,0:0:0:0:
192,270,21466,2,0,P|226:278|253:302,1,72.4200004420166,0|0,1:2|1:2,0:0:0:0:
329,369,21841,5,10,0:2:0:0:
329,369,22028,1,8,0:2:0:0:
415,315,22216,2,0,P|420:279|424:243,1,72.4200004420166,8|8,0:2|0:2,0:0:0:0:
337,191,22591,2,0,P|331:155|327:119,1,72.4200004420166,8|8,0:2|0:2,0:0:0:0:
397,46,22966,1,8,0:2:0:0:
397,46,23153,1,8,0:2:0:0:
474,75,23341,6,0,B|489:137|489:137|470:174,1,102.240002496094,2|2,0:2|0:2,0:2:0:0:
337,191,24091,2,0,L|286:184,1,51.1200012480469,2|0,0:2|0:2,0:0:0:0:
241,118,24466,2,0,L|190:125,1,51.1200012480469,2|0,0:2|0:2,0:2:0:0:
135,66,24841,6,0,P|115:91|117:162,2,102.240002496094,2|2|2,0:2|0:2|0:2,0:2:0:0:
17,277,26153,1,2,0:2:0:0:
94,241,26341,6,0,L|145:248,1,51.1200012480469,2|0,0:2|0:2,0:2:0:0:
205,303,26716,2,0,L|256:296,1,51.1200012480469,0|2,0:2|0:2,0:0:0:0:
335,328,27091,1,2,0:2:0:0:
444,221,27466,2,0,P|461:195|460:162,1,51.1200012480469,2|2,0:2|0:2,0:0:0:0:
408,113,27841,6,0,P|366:108|285:97,2,102.240002496094,2|2|2,0:2|0:2|0:2,0:2:0:0:
469,349,29341,6,0,P|426:295|347:300,1,153.360003744141,2|2,0:2|0:2,0:2:0:0:
269,335,30091,2,0,P|237:328|205:321,1,51.1200012480469,2|0,0:2|0:2,0:2:0:0:
165,257,30466,2,0,P|147:260|115:267,1,51.1200012480469,2|0,0:2|0:2,0:2:0:0:
62,340,30841,5,2,0:2:0:0:
54,110,31403,2,0,P|47:134|41:164,2,51.1200012480469,2|0|0,0:2|0:2|0:2,0:2:0:0:
115,46,31966,2,0,P|139:39|169:33,1,51.1200012480469,2|0,0:2|0:2,0:2:0:0:
233,92,32341,6,0,B|319:69|300:149|382:135,1,153.360003744141,2|0,0:2|0:2,0:2:0:0:
435,70,33091,2,0,P|430:99|411:225,1,153.360003744141,2|0,0:2|0:2,0:2:0:0:
349,276,33841,5,2,0:2:0:0:
23,185,34591,5,8,0:2:0:0:
23,185,34778,1,0,1:2:0:0:
193,367,35153,5,4,0:3:0:0:
193,367,35247,1,4,0:3:0:0:
193,367,35341,2,0,P|200:311|211:239,1,116.440001776733,4|0,1:2|0:2,0:2:0:0:
160,178,35903,2,0,P|193:162|271:185,1,116.440001776733,8|0,0:2|1:2,0:2:0:0:
335,236,36466,2,0,P|377:229|410:223,1,58.2200008883667,8|0,0:2|1:2,0:0:0:0:
452,162,36841,5,0,1:2:0:0:
452,162,37028,2,0,P|459:120|465:87,1,58.2200008883667,0|0,1:2|0:2,0:2:0:0:
512,35,37403,2,0,P|479:19|401:42,1,116.440001776733,8|0,0:2|1:2,0:2:0:0:
338,96,37966,2,0,P|296:89|263:83,1,58.2200008883667,8|0,0:2|1:2,0:0:0:0:
216,26,38341,5,2,1:2:0:0:
86,142,38716,2,0,P|128:135|161:129,1,58.2200008883667,0|8,0:2|0:2,0:0:0:0:
227,155,39091,2,0,P|206:199|249:270,1,116.440001776733,0|8,0:2|0:2,0:0:0:0:
304,304,39653,5,0,1:2:0:0:
304,304,39747,1,0,1:2:0:0:
304,304,39841,2,0,P|352:294|426:277,1,116.440001776733,0|0,1:2|0:2,0:2:0:0:
479,217,40403,1,8,0:2:0:0:
479,217,40591,2,0,P|488:166|493:138,2,58.2200008883667,0|0|8,0:2|1:2|0:2,0:0:0:0:
431,89,41153,5,0,1:2:0:0:
431,89,41247,1,0,1:2:0:0:
431,89,41341,2,0,P|378:81|299:69,1,116.440001776733,4|0,1:2|0:2,0:2:0:0:
239,112,41903,1,8,0:2:0:0:
239,112,42091,2,0,P|195:121|166:128,1,58.2200008883667,0|0,0:2|1:2,0:0:0:0:
130,53,42466,2,0,P|101:46|73:40,1,58.2200008883667,8|0,0:2|1:2,0:2:0:0:
10,102,42841,6,0,P|-4:132|2:178,1,58.2200008883667,0|0,1:2|1:2,0:0:0:0:
76,190,43216,2,0,P|90:220|84:266,1,58.2200008883667,0|8,0:2|0:2,0:0:0:0:
44,319,43591,2,0,P|85:290|158:309,1,116.440001776733,0|8,0:2|0:2,0:0:0:0:
310,363,44341,6,0,P|302:303|294:239,1,116.440001776733,0|0,1:2|0:2,0:2:0:0:
241,178,44903,1,8,0:2:0:0:
241,178,45091,2,0,P|246:133|251:102,1,58.2200008883667,0|0,0:2|1:2,0:0:0:0:
299,49,45466,2,0,P|328:30|391:45,1,87.3300013325501,8|8,0:2|0:2,0:2:0:0:
397,48,45841,5,4,1:2:0:0:
486,197,46216,2,0,P|455:192|425:187,1,58.2200008883667,8|0,0:2|1:2,0:0:0:0:
346,156,46591,2,0,L|311:163,3,29.1100004441834,0|0|0|0,1:2|1:2|1:2|1:2,0:2:0:0:
282,187,46966,2,0,L|253:181,3,29.1100004441834,8|8|8|4,0:2|0:2|0:3|0:3,0:0:0:0:
214,176,47341,6,0,B|157:166|157:166|112:186|112:186|38:171,1,176.079993014405,6|2,1:2|0:2,0:2:0:0:
56,335,48653,5,2,0:2:0:0:
56,335,48841,2,0,P|95:327|150:316,2,88.0399965072023,6|2|2,0:2|0:2|0:2,0:2:0:0:
68,245,49778,2,0,P|79:217|88:193,2,44.0199982536011,8|4|4,0:3|0:3|0:3,0:0:0:0:
136,130,50341,6,0,P|169:113|220:124,1,72.4200004420166,8|0,0:2|1:2,0:0:0:0:
268,203,50716,2,0,P|306:193|343:185,1,72.4200004420166,8|0,0:2|1:2,0:0:0:0:
360,292,51091,2,0,P|395:299|430:309,1,72.4200004420166,8|0,0:2|1:2,0:0:0:0:
506,231,51466,1,8,0:2:0:0:
506,231,51653,1,0,1:2:0:0:
465,129,51841,5,8,0:2:0:0:
381,72,52028,1,8,0:2:0:0:
149,47,52591,6,0,L|157:89,3,36.2100002210083,2|0|0|0,0:2|0:0|0:2|1:2,0:2:0:0:
189,124,52966,2,0,L|181:166,3,36.2100002210083,8|8|8|8,0:2|0:2|0:2|0:2,0:0:0:0:
194,201,53341,6,0,B|280:175|263:248|354:235,1,159.040001941406,6|8,1:2|0:2,0:2:0:0:
419,156,53903,1,2,0:2:0:0:
495,237,54091,2,0,P|486:275|475:326,1,79.5200009707031,2|0,1:2|0:2,0:2:0:0:
375,360,54466,2,0,P|336:338|296:341,1,79.5200009707031,8|0,0:2|0:2,0:2:0:0:
208,384,54841,5,0,1:2:0:0:
7,286,55216,2,0,P|15:247|24:208,1,79.5200009707031,10|2,0:2|0:2,0:0:0:0:
136,202,55591,2,0,P|127:163|118:124,1,79.5200009707031,2|2,1:2|0:2,0:0:0:0:
40,44,55966,1,10,0:2:0:0:
40,44,56153,1,2,0:2:0:0:
147,12,56341,6,0,P|202:20|316:37,1,159.040001941406,2|8,1:2|0:2,0:2:0:0:
412,11,56903,1,2,0:2:0:0:
426,121,57091,2,0,P|401:150|402:210,1,79.5200009707031,2|0,1:2|0:2,0:2:0:0:
482,260,57466,2,0,P|507:289|506:349,1,79.5200009707031,8|0,0:2|0:2,0:2:0:0:
412,379,57841,5,0,1:2:0:0:
195,328,58216,2,0,P|246:319|286:313,1,79.5200009707031,10|2,0:2|0:2,0:0:0:0:
304,207,58591,2,0,P|343:213|382:220,1,79.5200009707031,2|2,1:2|0:2,0:0:0:0:
470,151,58966,1,10,0:2:0:0:
470,151,59153,1,2,0:2:0:0:
415,53,59341,6,0,B|357:49|357:49|319:71|319:71|230:65,1,159.040001941406,2|8,1:2|0:2,0:2:0:0:
161,19,59903,1,2,0:2:0:0:
79,95,60091,2,0,P|87:141|95:180,1,79.5200009707031,2|0,1:2|0:2,0:2:0:0:
204,178,60466,2,0,P|196:224|188:263,1,79.5200009707031,10|0,0:2|0:2,0:2:0:0:
260,342,60841,6,0,P|315:331|429:313,2,159.040001941406,2|10|2,1:2|0:2|1:2,0:2:0:0:
38,316,61966,1,10,0:2:0:0:
38,316,62153,1,2,0:2:0:0:
127,249,62341,6,0,P|119:210|112:170,1,79.5200009707031,4|2,1:2|0:2,0:0:0:0:
149,65,62716,2,0,P|195:45|237:58,1,79.5200009707031,10|0,0:2|0:2,0:0:0:0:
277,147,63091,2,0,P|316:150|350:131,1,79.5200009707031,6|0,1:2|0:2,0:0:0:0:
415,41,63466,1,8,0:2:0:0:
489,123,63653,5,8,0:0:0:0:
489,123,63747,1,10,0:2:0:0:
489,123,63841,2,0,P|482:162|474:201,1,79.5200009707031,4|0,1:2|1:2,0:2:0:0:
407,290,64216,2,0,L|354:278,3,39.7600004853516,10|8|10|8,0:2|0:2|0:2|0:2,0:2:0:0:
319,254,64591,6,0,L|267:265,2,53.0133339804688,10|4|4,0:2|0:3|0:3,0:2:0:0:
235,294,64966,2,0,L|183:283,2,53.0133339804688,10|4|4,0:3|0:3|0:3,0:2:0:0:
161,259,65341,6,0,P|155:214|143:114,1,130.639995614502,6|0,1:2|0:2,0:2:0:0:
69,76,65903,1,2,1:2:0:0:
131,8,66091,1,14,0:2:0:0:
131,8,66278,2,0,B|211:-2|211:-2|271:39,1,130.639995614502,2|0,1:2|1:2,0:0:0:0:
307,99,66841,6,0,P|361:91|422:80,2,97.9799967108766,4|0|2,1:2|1:2|1:2,0:2:0:0:
266,181,67591,2,0,P|275:223|285:263,1,65.319997807251,14|0,0:2|0:0,0:2:0:0:
366,276,67966,2,0,P|357:318|347:358,1,65.319997807251,2|8,0:2|0:2,0:0:0:0:
342,370,68247,1,8,0:2:0:0:
342,369,68341,5,6,1:2:0:0:
160,346,68716,2,0,P|126:356|88:341,1,65.319997807251,2|0,0:2|1:2,0:0:0:0:
51,269,69091,2,0,P|60:227|79:138,1,130.639995614502,10|2,0:2|0:2,0:2:0:0:
147,81,69653,5,0,1:2:0:0:
147,81,69747,1,0,1:2:0:0:
147,81,69841,2,0,P|193:73|238:66,1,65.319997807251,10|0,0:2|1:2,0:0:0:0:
289,118,70216,1,12,0:2:0:0:
289,118,70403,1,2,1:2:0:0:
364,66,70591,1,10,0:2:0:0:
364,66,70778,1,0,1:2:0:0:
437,121,70966,2,0,L|449:166,3,32.6599989036255,8|8|4|4,0:3|0:3|0:3|0:3,0:0:0:0:
459,190,71341,6,0,P|447:244|435:308,1,116.440001776733,4|2,1:2|1:2,0:2:0:0:
362,340,71903,1,2,0:2:0:0:
362,340,72091,2,0,P|328:328|293:331,1,58.2200008883667,2|2,1:2|0:2,0:0:0:0:
231,295,72466,1,2,1:2:0:0:
231,295,72654,2,0,P|197:307|162:304,1,58.2200008883667,2|0,0:2|1:2,0:2:0:0:
96,327,73028,6,0,P|89:355|82:383,2,58.2200008883667,2|2|2,0:2|1:2|0:2,0:0:0:0:
46,262,73591,1,2,1:2:0:0:
32,110,73966,2,0,P|71:116|96:120,1,58.2200008883667,2|10,1:2|0:2,0:0:0:0:
120,109,74247,1,8,0:2:0:0:
120,109,74341,6,0,P|157:90|226:134,1,116.440001776733,6|0,1:2|1:2,0:2:0:0:
270,191,74903,1,2,0:2:0:0:
270,191,75091,2,0,P|263:219|240:325,1,116.440001776733,0|0,1:2|1:2,0:0:0:0:
308,368,75653,1,0,0:2:0:0:
308,368,75841,6,0,P|351:361|380:357,1,58.2200008883667,0|8,1:2|0:3,0:0:0:0:
402,289,76216,2,0,P|386:263|387:221,1,58.2200008883667,4|8,0:3|0:3,0:0:0:0:
444,181,76591,2,0,P|460:155|459:113,1,58.2200008883667,4|4,0:3|0:3,0:0:0:0:
414,62,76966,2,0,P|371:55|342:51,1,58.2200008883667,4|2,0:3|0:2,0:2:0:0:
262,42,77341,6,0,P|301:58|307:130,1,102.240002496094,6|0,1:2|0:2,0:2:0:0:
261,180,77903,1,0,1:2:0:0:
261,180,78091,2,0,P|221:174|157:163,1,102.240002496094,14|0,0:2|0:2,0:2:0:0:
92,210,78653,1,2,1:2:0:0:
15,162,78841,6,0,P|9:129|3:97,1,65.319997807251,2|8,1:2|0:2,0:0:0:0:
53,21,79216,2,0,P|86:5|129:13,1,65.319997807251,2|0,1:2|0:2,0:2:0:0:
195,52,79591,1,14,0:2:0:0:
287,13,79778,2,0,L|331:7,5,32.6599989036255,0|0|8|8|8|8,1:2|1:2|0:2|0:2|0:2|0:2,0:2:0:0:
359,27,80341,6,0,P|350:68|343:104,1,72.4200004420166,4|2,1:2|1:2,0:0:0:0:
428,153,80716,2,0,P|437:194|444:230,1,72.4200004420166,2|2,1:2|1:2,0:0:0:0:
390,310,81091,1,10,0:2:0:0:
390,310,81278,1,10,0:2:0:0:
308,248,81466,2,0,P|267:239|231:232,1,72.4200004420166,10|2,0:2|1:2,0:0:0:0:
206,225,81747,5,0,1:2:0:0:
206,225,81841,1,8,0:2:0:0:
106,298,82028,1,10,0:2:0:0:
35,205,82216,1,10,0:2:0:0:
158,79,84093,6,0,L|149:132,2,47.3333333333333,2|0|0,0:2|0:2|0:2,0:2:0:0:
235,114,84693,2,0,L|244:167,2,47.3333333333333,2|0|0,0:2|0:2|0:2,0:2:0:0:
328,158,85305,2,0,L|319:211,2,47.3333333333333,2|0|0,0:2|0:2|0:2,0:2:0:0:
397,113,85986,5,0,0:0:0:0:
