osu file format v14

[General]
AudioFilename: audio.mp3
AudioLeadIn: 0
PreviewTime: 52122
Countdown: 0
SampleSet: Soft
StackLeniency: 0.7
Mode: 0
LetterboxInBreaks: 0
WidescreenStoryboard: 0

[Editor]
DistanceSpacing: 1.1
BeatDivisor: 4
GridSize: 4
TimelineZoom: 1.9

[Metadata]
Title:CANDY MAGIC (TV Size)
TitleUnicode:CANDY MAGIC (TV Size)
Artist:mimimemeMIMI
ArtistUnicode:みみめめMIMI
Creator:Sajinn
Version:Expert
Source:山田くんと7人の魔女
Tags:jpop j-pop japanese anime Yamada-kun to 7-nin no Majou ending ed きみのヒロインになりたくて Takao Yuki タカオ ユキ Yamada-kun and the Seven Witches Kirishima Kirishima- Uta
BeatmapID:2915788
BeatmapSetID:1414644

[Difficulty]
HPDrainRate:5
CircleSize:3.6
OverallDifficulty:8.5
ApproachRate:9
SliderMultiplier:1.82
SliderTickRate:1

[Events]
//Background and Video events
0,0,"bg.jpg",0,0
//Break Periods
//Storyboard Layer 0 (Background)
//Storyboard Layer 1 (Fail)
//Storyboard Layer 2 (Pass)
//Storyboard Layer 3 (Foreground)
//Storyboard Layer 4 (Overlay)
//Storyboard Sound Samples

[TimingPoints]
-3659,375,4,2,22,32,1,0
1216,-161.290322580645,4,2,22,32,0,0
2341,-138.888888888889,4,2,22,32,0,0
6747,-89.2857142857143,4,2,22,5,0,0
6841,-138.888888888889,4,2,22,32,0,0
7966,-108.695652173913,4,2,22,32,0,0
9841,-108.695652173913,4,2,22,50,0,0
10216,-108.695652173913,4,2,22,32,0,0
10591,-312.5,4,2,22,32,0,0
10872,-89.2857142857143,4,2,22,5,0,0
10966,-81.9672131147541,4,2,22,32,0,0
11247,-89.2857142857143,4,2,22,5,0,0
11341,-70.4225352112676,4,2,22,52,0,0
11622,-89.2857142857143,4,2,22,5,0,0
11716,-70.4225352112676,4,2,22,52,0,0
11903,-108.695652173913,4,2,22,52,0,0
17341,-89.2857142857143,4,2,22,52,0,0
20341,-89.2857142857143,4,2,22,52,0,0
20434,-89.2857142857143,4,2,22,5,0,0
20528,-89.2857142857143,4,2,22,52,0,0
20621,-89.2857142857143,4,2,22,5,0,0
20716,-89.2857142857143,4,2,22,52,0,0
20809,-89.2857142857143,4,2,22,5,0,0
20903,-89.2857142857143,4,2,22,52,0,0
20996,-89.2857142857143,4,2,22,5,0,0
21091,-81.9672131147541,4,2,22,52,0,0
21184,-81.9672131147541,4,2,22,5,0,0
21278,-81.9672131147541,4,2,22,52,0,0
21371,-81.9672131147541,4,2,22,5,0,0
21466,-81.9672131147541,4,2,22,52,0,0
21559,-81.9672131147541,4,2,22,5,0,0
21653,-81.9672131147541,4,2,22,52,0,0
21746,-81.9672131147541,4,2,22,5,0,0
21841,-81.9672131147541,4,2,22,52,0,0
23341,-121.951219512195,4,2,22,32,0,0
30747,-89.2857142857143,4,2,22,5,0,0
30841,-121.951219512195,4,2,22,32,0,0
32341,-138.888888888889,4,2,22,32,0,0
34591,-138.888888888889,4,2,22,42,0,0
35341,-81.9672131147541,4,2,22,42,0,0
35622,-89.2857142857143,4,2,22,5,0,0
35716,-81.9672131147541,4,2,22,42,0,0
35903,-121.951219512195,4,2,22,42,0,0
38341,-98.0392156862745,4,2,22,42,0,0
38622,-89.2857142857143,4,2,22,5,0,0
38716,-121.951219512195,4,2,22,42,0,0
41341,-81.967213114754,4,2,22,42,0,0
41622,-89.2857142857143,4,2,22,5,0,0
41716,-121.951219512195,4,2,22,42,0,0
42372,-89.2857142857143,4,2,22,5,0,0
42466,-121.951219512195,4,2,22,42,0,0
44247,-121.951219512195,4,2,22,32,0,0
44341,-121.951219512195,4,2,22,42,0,0
45841,-108.695652173913,4,2,22,42,0,0
46122,-89.2857142857143,4,2,22,42,0,0
46216,-108.695652173913,4,2,22,42,0,0
46684,-108.695652173913,4,2,22,32,0,0
46778,-108.695652173913,4,2,22,42,0,0
47341,-192.307692307692,4,2,22,32,0,0
49778,-192.307692307692,4,2,22,42,0,0
50341,-192.307692307692,4,2,22,52,0,0
51653,-89.2857142857142,4,2,22,52,0,0
52403,-89.2857142857142,4,2,22,42,0,0
52497,-89.2857142857142,4,2,22,32,0,0
52591,-89.2857142857142,4,2,22,42,0,0
52684,-89.2857142857142,4,2,22,32,0,0
52778,-81.9672131147541,4,2,22,42,0,0
52872,-81.9672131147541,4,2,22,32,0,0
52966,-81.9672131147541,4,2,22,42,0,0
53341,-70.4225352112676,4,2,22,62,0,0
53622,-89.2857142857143,4,2,22,5,0,0
53716,-89.2857142857143,4,2,22,62,0,0
54747,-89.2857142857143,4,2,22,32,0,0
54841,-89.2857142857143,4,2,22,62,0,0
60747,-89.2857142857143,4,2,22,5,0,0
60841,-89.2857142857143,4,2,22,62,0,0
61872,-89.2857142857143,4,2,22,5,0,0
61966,-89.2857142857143,4,2,22,62,0,0
62341,-138.888888888889,4,2,22,62,0,0
62622,-89.2857142857143,4,2,22,5,0,0
62716,-89.2857142857143,4,2,22,62,0,0
62997,-89.2857142857143,4,2,22,5,0,0
63091,-75.7575757575758,4,2,22,62,0,0
63372,-89.2857142857143,4,2,22,5,0,0
63466,-65.7894736842105,4,2,22,62,0,0
63841,-89.2857142857143,4,2,22,62,0,0
65341,-89.2857142857143,4,2,22,52,0,0
65434,-89.2857142857143,4,2,22,42,0,0
67778,-89.2857142857143,4,2,22,32,0,0
67966,-89.2857142857143,4,2,22,42,0,0
69091,-75.7575757575758,4,2,22,42,0,0
70966,-98.0392156862745,4,2,22,42,0,0
71341,-81.9672131147541,4,2,22,42,0,0
71622,-89.2857142857143,4,2,22,5,0,0
71716,-108.695652173913,4,2,22,42,0,0
79872,-89.2857142857143,4,2,22,42,0,0
84093,600,4,2,22,32,1,0
84693,582.52427184466,4,2,22,32,1,0
85305,750,4,2,22,32,1,0
85305,-161.290322580645,4,2,22,32,0,0
85986,375,4,2,22,32,1,0

[Colours]
Combo1 : 234,0,117
Combo2 : 255,185,255
Combo3 : 155,155,255
Combo4 : 157,255,255

[HitObjects]
154,224,1216,6,0,P|142:181|132:145,2,56.4199977616578,2|0|0,0:2|0:2|0:2,0:2:0:0:
307,291,1778,1,2,0:2:0:0:
239,239,1966,1,0,0:2:0:0:
291,171,2153,1,0,0:2:0:0:
432,159,2341,6,0,P|368:146|294:130,1,131.040003199219,2|0,0:2|0:0,0:2:0:0:
245,64,2903,1,0,0:2:0:0:
71,215,3091,6,0,P|83:172|93:131,1,65.5200015996094,2|0,0:2|0:2,0:2:0:0:
177,156,3466,2,0,P|165:113|155:72,1,65.5200015996094,0|0,0:2|0:2,0:2:0:0:
58,231,3841,1,0,0:2:0:0:
160,167,4028,1,0,0:0:0:0:
189,306,4216,6,0,P|146:294|107:282,2,65.5200015996094,2|0|0,0:2|0:2|0:2,0:2:0:0:
260,251,4778,1,2,0:2:0:0:
322,314,4966,1,0,0:2:0:0:
387,374,5153,1,0,0:2:0:0:
398,208,5341,5,2,0:2:0:0:
378,193,5716,2,0,P|335:181|296:169,1,65.5200015996094,2|0,0:2|0:2,0:2:0:0:
443,83,6091,2,0,P|411:92|380:101,1,65.5200015996094,2|0,0:2|0:2,0:2:0:0:
201,110,6466,2,0,P|241:74|304:86,1,98.2800023994141,2|0,0:2|0:0,0:2:0:0:
292,82,6841,5,2,0:2:0:0:
94,52,7403,1,2,0:2:0:0:
47,125,7591,2,0,P|55:156|64:188,1,65.5200015996094,2|0,0:2|0:0,0:2:0:0:
144,310,7966,6,0,B|105:294|105:294|97:297|97:297|52:282,1,83.7199971895753,0|0,0:2|3:2,0:0:0:0:
59,279,8247,1,0,3:2:0:0:
55,274,8341,1,2,0:2:0:0:
201,232,8528,5,0,0:2:0:0:
252,297,8716,1,2,0:2:0:0:
319,250,8903,1,0,0:2:0:0:
420,340,9091,5,2,0:2:0:0:
400,266,9278,1,0,0:2:0:0:
382,190,9466,1,0,0:2:0:0:
477,45,9653,5,0,3:2:0:0:
481,40,9747,1,0,3:2:0:0:
485,37,9841,1,8,0:2:0:0:
382,190,10028,1,10,0:2:0:0:
303,28,10216,1,10,0:2:0:0:
144,178,10591,6,0,P|172:170|195:165,1,43.68,2|0,0:2|0:0,0:2:0:0:
195,160,10966,6,0,B|222:131|251:98|251:98|291:128|340:159,1,166.529993139176,10|0,0:2|0:0,0:0:0:0:
457,238,11341,6,0,B|415:207|400:143|400:143|400:194|350:224,1,193.829990239884,6|0,1:2|0:0,0:2:0:0:
354,220,11716,1,10,0:2:0:0:
251,331,11903,2,0,P|307:314|362:299,1,83.7199971895753,2|0,0:2|1:2,0:2:0:0:
195,160,12278,1,2,0:2:0:0:
142,255,12466,2,0,P|153:214|166:173,1,83.7199971895753,10|0,0:2|0:2,0:2:0:0:
0,71,12841,6,0,B|61:62|61:62|97:81|97:81|186:70,1,167.439994379151,0|8,1:2|0:2,0:2:0:0:
174,77,13591,5,2,1:2:0:0:
249,25,13778,5,2,0:2:0:0:
334,96,13966,5,10,0:2:0:0:
454,29,14153,5,2,0:2:0:0:
377,175,14341,6,0,B|414:155|422:112|422:112|434:175|471:193,1,167.439994379151,2|10,1:2|0:2,0:2:0:0:
350,366,14903,2,0,B|330:325|330:325|352:281,1,83.7199971895753,2|0,0:2|1:2,0:2:0:0:
430,326,15278,1,2,0:2:0:0:
290,177,15466,2,0,P|249:188|209:200,1,83.7199971895753,10|0,0:2|0:2,0:2:0:0:
52,291,15841,2,0,B|81:240|135:245|135:245|156:283|201:285,1,167.439994379151,0|8,1:2|0:2,0:2:0:0:
350,362,16403,5,2,0:2:0:0:
286,293,16591,1,14,0:2:0:0:
409,197,16778,1,2,1:2:0:0:
413,191,16872,1,0,1:2:0:0:
417,186,16966,2,0,L|346:166,1,41.8599985947876,10|8,0:2|0:2,0:2:0:0:
320,103,17153,1,2,1:2:0:0:
187,281,17341,5,14,0:2:0:0:
144,207,17528,1,0,1:2:0:0:
205,142,17716,1,0,1:2:0:0:
180,293,17903,5,14,0:2:0:0:
118,117,18091,1,0,1:2:0:0:
47,290,18278,1,0,1:2:0:0:
123,104,18466,5,14,0:2:0:0:
205,142,18653,1,0,1:2:0:0:
286,175,18841,1,0,1:2:0:0:
428,61,19028,5,14,0:2:0:0:
271,89,19216,1,0,1:2:0:0:
309,260,19403,1,0,1:2:0:0:
494,181,19591,5,14,0:2:0:0:
408,152,19778,1,0,1:2:0:0:
507,185,19966,5,8,0:2:0:0:
319,257,20153,1,0,1:2:0:0:
309,260,20247,1,0,1:2:0:0:
294,264,20341,6,0,P|262:268|219:235,1,50.9600006220703,6|0,1:2|0:0,0:0:0:0:
229,62,20528,2,0,P|258:74|279:124,1,50.9600006220703,0|0,1:2|0:0,0:0:0:0:
181,196,20716,2,0,P|189:164|196:137,1,50.9600006220703,0|0,1:2|0:0,0:0:0:0:
118,297,20903,2,0,P|111:272|105:247,1,50.9600006220703,0|0,1:2|0:0,0:0:0:0:
22,80,21091,6,0,P|59:71|103:61,1,55.5099977130586,0|0,1:2|0:0,0:0:0:0:
193,146,21278,2,0,P|166:139|139:133,1,55.5099977130586,0|0,1:2|0:0,0:0:0:0:
283,49,21466,2,0,P|255:55|229:61,1,55.5099977130586,0|0,1:2|0:0,0:0:0:0:
405,122,21653,2,0,P|378:115|351:109,1,55.5099977130586,0|0,1:2|0:0,0:0:0:0:
201,244,21841,5,10,0:2:0:0:
418,113,22028,1,8,0:2:0:0:
353,296,22216,5,8,0:2:0:0:
291,54,22403,1,8,0:2:0:0:
253,341,22591,5,8,0:2:0:0:
389,7,22778,1,8,0:2:0:0:
512,254,22966,5,8,0:2:0:0:
235,349,23153,1,8,0:2:0:0:
274,258,23341,6,0,P|228:244|182:231,1,74.6200011386109,2|0,0:2|0:0,0:2:0:0:
81,185,23716,2,0,P|116:174|152:163,1,74.6200011386109,2|0,0:2|0:0,0:0:0:0:
269,77,24091,2,0,P|258:112|247:148,2,74.6200011386109,2|0|2,0:2|0:2|0:2,0:0:0:0:
208,14,24653,1,0,0:2:0:0:
347,141,24841,6,0,P|398:130|503:107,2,149.240002277222,2|2|2,0:2|0:2|0:2,0:2:0:0:
336,151,26153,1,2,0:2:0:0:
287,24,26341,6,0,P|276:59|265:95,1,74.6200011386109,2|0,0:2|0:2,0:2:0:0:
151,215,26716,1,0,0:2:0:0:
227,176,26903,1,2,0:2:0:0:
389,291,27091,2,0,P|350:246|255:265,1,149.240002277222,2|2,0:2|0:2,0:2:0:0:
147,370,27653,1,2,0:2:0:0:
151,215,27841,6,0,P|165:270|188:371,1,149.240002277222,2|2,0:2|0:2,0:2:0:0:
66,188,28591,1,2,0:2:0:0:
350,90,29341,6,0,B|311:80|270:71|270:71|230:94|244:143,1,149.240002277222,2|0,0:2|0:2,0:2:0:0:
321,178,29903,1,2,0:2:0:0:
438,78,30091,2,0,P|446:114|455:150,1,74.6200011386109,2|0,0:2|0:2,0:2:0:0:
476,276,30466,2,0,P|448:245|363:262,1,111.930001707916,2|0,0:2|0:0,0:2:0:0:
371,254,30841,5,2,0:2:0:0:
256,344,31403,2,0,P|220:332|184:321,2,74.6200011386109,2|0|0,0:2|0:2|0:2,0:2:0:0:
130,251,31966,1,2,0:2:0:0:
187,187,32153,1,0,0:2:0:0:
7,109,32341,6,0,B|75:93|75:93|119:114|119:114|205:93,1,196.560004798828,2|0,0:2|0:2,0:2:0:0:
301,30,33091,2,0,P|292:86|268:239,1,196.560004798828,2|0,0:2|0:2,0:2:0:0:
339,347,33841,5,2,0:2:0:0:
408,296,34028,1,0,0:2:0:0:
229,298,34309,1,0,0:0:0:0:
224,295,34403,1,0,0:2:0:0:
412,379,34591,5,8,0:2:0:0:
270,224,34778,1,0,1:2:0:0:
417,103,35153,5,4,0:3:0:0:
416,97,35247,1,4,0:3:0:0:
414,91,35341,2,0,B|372:73|358:9|358:9|355:54|319:81,1,166.529993139176,4|0,1:2|0:0,0:2:0:0:
327,77,35716,1,0,0:2:0:0:
185,134,35903,2,0,B|271:103|258:188|348:163,1,149.240002277222,8|0,0:2|1:2,0:2:0:0:
390,228,36466,1,8,0:2:0:0:
231,357,36653,2,0,L|238:312,1,37.3100005693054,0|0,1:2|1:2,0:0:0:0:
301,261,36841,5,0,1:2:0:0:
89,283,37028,2,0,P|136:270|179:259,1,74.6200011386109,0|0,1:2|0:2,0:2:0:0:
38,89,37403,2,0,P|27:142|6:256,1,149.240002277222,8|0,0:2|1:2,0:2:0:0:
148,351,37966,1,8,0:2:0:0:
89,283,38153,1,0,1:2:0:0:
144,143,38341,6,0,B|171:118|199:94|199:94|223:125|259:164,1,139.230000849792,2|0,1:2|0:0,0:2:0:0:
247,153,38716,2,0,P|234:200|223:243,1,74.6200011386109,0|8,0:2|0:2,0:0:0:0:
402,293,39091,2,0,P|336:268|281:318,1,149.240002277222,0|8,0:2|0:2,0:0:0:0:
450,218,39747,5,0,1:2:0:0:
456,211,39841,2,0,P|446:174|417:61,1,149.240002277222,0|0,1:2|0:2,0:2:0:0:
350,149,40403,1,8,0:2:0:0:
206,60,40591,1,0,0:2:0:0:
291,36,40778,1,0,1:2:0:0:
266,120,40966,1,8,0:2:0:0:
65,147,41153,5,0,1:2:0:0:
58,144,41247,1,0,1:2:0:0:
53,141,41341,2,0,B|94:109|113:56|113:56|113:103|144:132,1,166.529993139176,4|0,1:2|0:0,0:2:0:0:
139,119,41716,2,0,P|151:174|160:219,1,74.6200011386109,0|8,0:2|0:2,0:0:0:0:
328,268,42091,2,0,P|289:285|224:248,1,111.930001707916,0|0,0:2|0:0,0:0:0:0:
225,245,42466,1,8,0:2:0:0:
413,131,42747,5,0,1:2:0:0:
421,139,42841,2,0,P|416:189|413:230,1,74.6200011386109,0|0,1:2|1:2,0:0:0:0:
480,354,43216,2,0,P|445:338|412:322,1,74.6200011386109,0|8,0:2|0:2,0:0:0:0:
267,311,43591,2,0,P|297:289|327:267,1,74.6200011386109,0|0,0:2|1:2,0:0:0:0:
501,199,43966,1,8,0:2:0:0:
341,73,44247,5,0,0:0:0:0:
334,68,44341,2,0,B|272:60|272:60|241:76|241:76|164:65,1,149.240002277222,0|0,1:2|0:2,0:2:0:0:
74,171,44903,5,8,0:2:0:0:
143,137,45091,1,0,1:2:0:0:
314,227,45278,5,0,1:2:0:0:
200,204,45466,1,8,0:2:0:0:
422,150,45747,5,8,0:2:0:0:
428,147,45841,2,0,P|417:192|394:287,1,125.579995784363,4|0,1:2|1:2,0:0:0:0:
394,281,46216,1,8,0:2:0:0:
209,334,46497,5,8,0:2:0:0:
201,338,46591,2,0,L|141:316,1,41.8599985947876,0|0,1:2|1:2,0:2:0:0:
46,221,46778,2,0,L|106:199,1,41.8599985947876,0|0,1:2|1:2,0:0:0:0:
205,26,46966,5,8,0:2:0:0:
214,66,47059,1,8,0:2:0:0:
223,107,47153,1,8,0:3:0:0:
232,148,47247,1,4,0:3:0:0:
243,192,47341,6,0,B|226:216|202:224|202:224|345:199,1,189.279998844727,6|2,1:2|0:2,0:2:0:0:
205,347,48653,5,2,0:2:0:0:
197,349,48747,1,0,0:0:0:0:
191,351,48841,2,0,B|180:280|180:280|146:246|146:246|134:162,1,189.279998844727,6|2,0:2|0:2,0:2:0:0:
37,49,49778,5,8,0:3:0:0:
107,98,49966,1,4,0:3:0:0:
184,60,50153,1,4,0:3:0:0:
361,225,50341,5,8,0:2:0:0:
232,136,50528,1,0,1:2:0:0:
387,33,50716,5,8,0:2:0:0:
451,234,50903,1,0,1:2:0:0:
255,346,51091,5,8,0:2:0:0:
410,149,51278,1,0,1:2:0:0:
503,361,51466,5,8,0:2:0:0:
361,225,51653,2,0,L|308:216,1,50.9600006220703,0|0,1:2|1:2,0:0:0:0:
512,367,51841,5,8,0:2:0:0:
232,136,52028,1,8,0:2:0:0:
77,365,52403,5,0,0:2:0:0:
69,360,52497,1,0,0:0:0:0:
63,356,52591,1,2,0:2:0:0:
56,352,52684,1,0,0:0:0:0:
37,342,52778,5,0,0:2:0:0:
13,326,52872,1,0,1:2:0:0:
0,291,52966,1,8,0:2:0:0:
1,249,53059,1,8,0:2:0:0:
26,209,53153,1,8,0:2:0:0:
55,169,53247,1,8,0:2:0:0:
47,117,53341,6,0,B|30:107|-4:107|-4:107|150:84,1,193.829990239884,6|0,1:2|0:0,0:2:0:0:
149,85,53716,1,8,0:2:0:0:
293,223,53903,1,2,0:2:0:0:
181,293,54091,2,0,P|194:229|205:175,1,101.920001244141,2|0,1:2|0:2,0:2:0:0:
433,89,54466,2,0,B|467:130|467:130|450:187,1,101.920001244141,8|0,0:2|0:2,0:2:0:0:
398,239,54747,1,0,0:0:0:0:
392,243,54841,2,0,P|342:232|292:222,1,101.920001244141,0|0,1:2|0:2,0:0:0:0:
220,31,55216,5,10,0:2:0:0:
289,93,55403,1,2,0:2:0:0:
433,89,55591,5,2,1:2:0:0:
200,122,55778,1,2,0:2:0:0:
357,34,55966,5,10,0:2:0:0:
292,222,56153,1,2,0:2:0:0:
474,290,56341,6,0,B|434:247|377:260|377:260|347:322|280:310,1,203.840002488281,2|8,1:2|0:2,0:2:0:0:
116,166,56903,1,2,0:2:0:0:
173,324,57091,2,0,P|186:260|197:206,1,101.920001244141,2|0,1:2|0:2,0:2:0:0:
0,86,57466,2,0,P|47:91|88:48,1,101.920001244141,8|0,0:2|0:2,0:2:0:0:
154,15,57747,1,0,0:2:0:0:
161,20,57841,2,0,P|225:33|279:44,1,101.920001244141,0|0,1:2|0:2,0:2:0:0:
446,69,58216,5,10,0:2:0:0:
372,116,58403,1,2,0:2:0:0:
197,121,58591,5,2,1:2:0:0:
266,177,58778,1,2,0:2:0:0:
364,29,58966,5,10,0:2:0:0:
382,210,59153,1,2,0:2:0:0:
107,247,59341,6,0,B|146:226|167:175|167:175|176:248|246:292,1,203.840002488281,2|8,1:2|0:2,0:2:0:0:
459,326,59903,1,2,0:2:0:0:
382,210,60091,2,0,B|354:254|354:254|372:308,1,101.920001244141,2|0,1:2|0:2,0:2:0:0:
512,142,60466,2,0,P|459:129|356:103,1,152.880001866211,10|0,0:2|0:0,0:2:0:0:
350,111,60841,6,0,B|249:73|266:216|158:175,1,203.840002488281,2|10,1:2|0:2,0:2:0:0:
24,166,61403,1,0,0:2:0:0:
52,59,61591,2,0,P|62:113|86:252,1,152.880001866211,2|0,1:2|0:2,0:0:0:0:
85,218,61966,1,10,0:2:0:0:
25,294,62153,1,2,0:2:0:0:
328,354,62341,6,0,P|293:322|301:266,1,98.2800023994141,4|0,1:2|0:0,0:0:0:0:
499,231,62716,6,0,P|438:221|345:204,1,152.880001866211,10|0,0:2|0:0,0:0:0:0:
206,289,63091,6,0,B|197:231|197:231|227:189|227:189|207:98,1,180.179999450134,6|0,1:2|0:0,0:0:0:0:
144,65,63466,5,8,0:2:0:0:
356,20,63747,5,10,0:2:0:0:
362,29,63841,2,0,P|348:80|326:166,1,101.920001244141,4|0,1:2|1:2,0:2:0:0:
389,192,64122,5,0,1:2:0:0:
403,203,64216,2,0,L|422:267,1,50.9600006220703,10|8,0:2|0:2,0:2:0:0:
333,347,64403,2,0,P|304:346|263:312,1,50.9600006220703,10|8,0:2|0:2,0:2:0:0:
218,233,64591,5,10,0:2:0:0:
188,253,64716,5,4,0:3:0:0:
142,234,64841,5,4,0:3:0:0:
121,246,64966,5,10,0:3:0:0:
106,241,65091,5,4,0:3:0:0:
94,251,65216,5,4,0:3:0:0:
56,232,65341,6,0,B|106:140|-26:137|21:42,1,203.840002488281,6|0,1:2|0:2,0:2:0:0:
108,16,65903,1,2,1:2:0:0:
296,152,66091,5,14,0:2:0:0:
213,108,66278,1,2,1:2:0:0:
285,64,66466,1,0,1:2:0:0:
417,231,66747,5,0,1:2:0:0:
422,237,66841,2,0,B|366:228|366:228|325:251|325:251|260:239,2,152.880001866211,4|0|2,1:2|1:2|1:2,0:2:0:0:
219,320,67591,5,14,0:2:0:0:
168,248,67778,1,0,0:0:0:0:
118,176,67966,1,2,0:2:0:0:
51,325,68153,2,0,L|113:311,1,50.9600006220703,8|8,0:2|0:2,0:0:0:0:
298,359,68341,6,0,B|322:348|358:347|358:347|207:317,1,203.840002488281,6|2,1:2|0:2,0:2:0:0:
158,381,68903,1,0,1:2:0:0:
70,98,69091,6,0,B|53:78|19:76|19:76|132:47|86:145|229:112,1,240.239999266846,10|2,0:2|0:2,0:2:0:0:
331,49,69653,1,0,1:2:0:0:
337,45,69747,1,0,1:2:0:0:
342,40,69841,5,10,0:2:0:0:
412,249,70028,1,0,1:2:0:0:
298,359,70216,5,12,0:2:0:0:
346,186,70403,1,2,1:2:0:0:
431,338,70591,5,10,0:2:0:0:
178,227,70778,1,0,1:2:0:0:
202,349,70966,2,0,L|217:295,2,46.4100002832642,8|8|4,0:3|0:3|0:3,0:0:0:0:
0,188,71341,6,0,B|25:159|56:120|56:120|81:153|112:186,1,166.529993139176,4|0,1:2|0:0,0:2:0:0:
117,183,71716,2,0,P|170:168|213:157,1,83.7199971895753,2|2,1:2|0:2,0:2:0:0:
292,22,72091,2,0,P|255:52|257:98,1,83.7199971895753,2|2,1:2|0:2,0:0:0:0:
387,194,72466,1,2,1:2:0:0:
316,250,72653,2,0,B|290:210|290:210|307:155,1,83.7199971895753,2|0,0:2|1:2,0:2:0:0:
428,24,73028,5,2,0:2:0:0:
488,86,73216,1,2,1:2:0:0:
411,106,73403,1,2,0:2:0:0:
511,196,73591,2,0,B|447:186|447:186|403:204|403:204|316:189,1,167.439994379151,2|2,1:2|1:2,0:2:0:0:
246,345,74153,5,10,0:2:0:0:
241,351,74247,1,8,0:2:0:0:
237,356,74341,2,0,P|214:255|195:169,1,167.439994379151,6|0,1:2|1:2,0:2:0:0:
128,143,74903,1,2,0:2:0:0:
241,36,75091,2,0,P|200:46|160:58,1,83.7199971895753,0|0,1:2|0:2,0:0:0:0:
345,147,75466,2,0,P|304:135|264:124,1,83.7199971895753,0|0,1:2|0:2,0:2:0:0:
81,223,75841,5,0,1:2:0:0:
38,64,76028,1,8,0:3:0:0:
24,150,76216,5,4,0:3:0:0:
44,51,76403,1,8,0:3:0:0:
86,235,76591,5,4,0:3:0:0:
128,143,76778,1,4,0:3:0:0:
185,213,76966,5,4,0:3:0:0:
241,145,77153,1,2,0:2:0:0:
351,273,77341,6,0,B|312:237|268:253|268:253|247:295|202:298,1,167.439994379151,6|0,1:2|0:2,0:2:0:0:
145,362,77903,1,0,1:2:0:0:
370,378,78091,2,0,P|387:296|406:214,1,167.439994379151,14|0,0:2|0:2,0:2:0:0:
351,149,78653,1,2,1:2:0:0:
493,44,78841,5,2,1:2:0:0:
411,15,79028,1,8,0:2:0:0:
280,96,79216,5,2,1:2:0:0:
462,127,79403,1,0,0:2:0:0:
233,11,79591,5,14,0:2:0:0:
132,195,79872,5,0,1:2:0:0:
129,201,79966,2,0,P|157:193|188:184,1,50.9600006220703,8|8,0:2|0:2,0:0:0:0:
280,96,80153,2,0,P|304:101|334:106,1,50.9600006220703,8|8,0:2|0:2,0:0:0:0:
476,328,80341,5,4,1:2:0:0:
396,286,80528,1,2,1:2:0:0:
472,237,80716,1,2,1:2:0:0:
309,356,80903,1,2,1:2:0:0:
174,279,81091,1,10,0:2:0:0:
171,98,81278,1,10,0:2:0:0:
357,20,81466,1,10,0:2:0:0:
221,183,81653,5,2,1:2:0:0:
215,187,81747,1,0,1:2:0:0:
209,191,81841,1,8,0:2:0:0:
473,88,82028,1,10,0:2:0:0:
209,364,82216,1,10,0:2:0:0:
53,193,84091,5,2,0:2:0:0:
112,139,84293,1,0,0:2:0:0:
182,176,84493,1,0,0:2:0:0:
295,266,84693,5,2,0:2:0:0:
268,192,84887,1,0,0:2:0:0:
246,116,85081,1,0,0:2:0:0:
351,80,85305,6,0,L|285:64,2,37.6133318411052,2|0|0,0:2|0:2|0:2,0:2:0:0:
422,29,85986,5,0,0:0:0:0:
