osu file format v14

[General]
AudioFilename: audio.mp3
AudioLeadIn: 0
PreviewTime: 52122
Countdown: 0
SampleSet: Soft
StackLeniency: 0.7
Mode: 2
LetterboxInBreaks: 0
WidescreenStoryboard: 1

[Editor]
DistanceSpacing: 1.1
BeatDivisor: 4
GridSize: 16
TimelineZoom: 1.5

[Metadata]
Title:CANDY MAGIC (TV Size)
TitleUnicode:CANDY MAGIC (TV Size)
Artist:mimimemeMIMI
ArtistUnicode:みみめめMIMI
Creator:Catch The Beat
Version:RAIN
Source:山田くんと7人の魔女
Tags:Yamada-kun to 7-nin no Majo shichi-nin nana-nin ending ed みみめめミミ きみのヒロインになりたくて Takao Yuki タカオ ユキ Yuka ユカ and the Seven Witches japanese pop jpop j-pop anime female vocal Centrak_ jinxhun -_archfiend_-
BeatmapID:4567685
BeatmapSetID:2139461

[Difficulty]
HPDrainRate:5
CircleSize:4
OverallDifficulty:8.8
ApproachRate:8.8
SliderMultiplier:1.9
SliderTickRate:2

[Events]
//Background and Video events
0,0,"bg.jpg",0,0
//Break Periods
//Storyboard Layer 0 (Background)
//Storyboard Layer 1 (Fail)
//Storyboard Layer 2 (Pass)
//Storyboard Layer 3 (Foreground)
//Storyboard Layer 4 (Overlay)
//Storyboard Sound Samples

[TimingPoints]
841,375,4,2,1,20,1,0
8341,-100,4,2,1,30,0,0
9841,-100,4,2,1,60,0,0
20716,-100,4,2,1,30,0,0
20903,-100,4,2,1,32,0,0
21091,-100,4,2,1,34,0,0
21278,-100,4,2,1,36,0,0
21466,-100,4,2,1,38,0,0
21653,-100,4,2,1,40,0,0
21841,-100,4,2,1,60,0,0
23341,-100,4,2,1,30,0,0
34591,-100,4,2,1,50,0,0
35153,-100,4,2,2,50,0,0
35341,-100,4,2,1,50,0,0
47341,-100,4,2,1,40,0,0
48794,-100,4,2,3,40,0,0
48887,-100,4,2,1,40,0,0
49778,-100,4,2,2,40,0,0
49966,-100,4,2,1,40,0,0
50341,-100,4,2,1,60,0,0
52591,-95.2380952380952,4,2,2,60,0,0
52684,-95.2380952380952,4,2,1,60,0,0
53341,-95.2380952380952,4,2,1,70,0,1
64966,-95.2380952380952,4,2,2,70,0,1
65091,-95.2380952380952,4,2,1,70,0,1
65341,-100,4,2,1,60,0,0
76028,-100,4,2,2,60,0,0
76216,-100,4,2,1,60,0,0
76591,-100,4,2,2,60,0,0
76778,-100,4,2,1,60,0,0
77153,-100,4,2,2,60,0,0
77341,-100,4,2,1,60,0,0
82591,-100,4,2,1,50,0,0
84091,-100,4,2,1,50,0,0
85966,-100,4,2,1,30,0,0

[Colours]
Combo1 : 186,117,255
Combo2 : 250,122,154
Combo3 : 250,253,130
Combo4 : 128,255,128

[HitObjects]
222,159,1216,5,2,0:0:0:0:
137,154,1403,1,2,0:0:0:0:
222,159,1591,1,2,0:0:0:0:
307,169,1778,1,2,0:0:0:0:
222,159,1966,2,0,L|123:127,1,95,2|2,0:0|0:0,0:0:0:0:
291,261,2341,6,0,P|391:191|290:123,1,285,2|2,2:0|2:0,0:0:0:0:
132,164,3090,2,0,P|69:99|139:57,1,190,2|2,2:0|2:0,0:0:0:0:
217,53,3653,1,0,0:0:0:0:
303,53,3841,1,0,0:0:0:0:
438,266,4216,6,0,L|438:171,1,95,2|2,0:0|0:0,0:0:0:0:
350,164,4591,2,0,L|257:133,2,95,2|2|2,0:0|0:0|0:0,0:0:0:0:
438,171,5153,1,2,0:0:0:0:
281,236,5341,6,0,L|77:209,1,190,2|2,2:0|2:0,0:0:0:0:
392,298,6091,2,0,L|409:99,1,190,2|2,2:0|2:0,0:0:0:0:
120,270,6841,6,0,P|18:202|126:129,1,285,2|2,0:0|0:0,0:0:0:0:
289,135,7591,1,2,0:0:0:0:
460,273,7966,2,0,P|508:228|456:196,1,142.5,2|0,2:0|0:0,0:0:0:0:
296,207,8341,5,2,0:0:0:0:
175,206,8528,2,0,L|80:206,2,95,2|2|2,0:0|0:0|0:0,0:0:0:0:
336,225,9091,2,0,L|439:225,1,95,2|2,2:0|2:0,0:0:0:0:
270,128,9466,2,0,L|174:127,1,95,2|2,0:0|1:2,0:0:0:0:
446,248,9841,5,8,2:0:0:0:
299,250,10028,1,10,2:0:0:0:
448,249,10216,2,0,L|448:154,1,95,10|2,2:0|0:0,0:0:0:0:
185,133,10591,1,2,2:0:0:0:
315,146,10966,2,0,L|318:42,1,95,10|0,2:0|0:0,0:0:0:0:
59,268,11341,6,0,L|59:164,1,95,4|0,1:2|2:0,0:0:0:0:
221,156,11716,2,0,L|332:156,1,95,10|2,2:0|2:0,0:0:0:0:
158,258,12091,1,0,1:0:0:0:
59,177,12278,1,2,2:0:0:0:
135,116,12466,1,8,2:0:0:0:
59,177,12653,1,0,2:0:0:0:
321,184,12841,6,0,L|329:88,1,95,2|0,1:2|2:0,0:0:0:0:
170,186,13216,2,0,L|162:92,1,95,10|0,0:2|2:0,0:0:0:0:
321,123,13591,1,2,1:2:0:0:
427,124,13778,1,2,2:0:0:0:
321,123,13966,1,10,2:0:0:0:
427,124,14153,1,2,2:0:0:0:
172,226,14340,6,0,P|106:176|172:132,1,190,2|10,1:2|2:0,0:0:0:0:
333,220,14903,2,0,P|341:134|250:130,1,190,2|2,2:0|2:0,0:0:0:0:
419,283,15466,2,0,L|420:172,1,95,10|0,2:0|2:0,0:0:0:0:
257,229,15841,6,0,P|185:188|259:132,1,190,2|10,1:2|2:0,0:0:0:0:
389,94,16403,1,2,2:0:0:0:
129,194,16591,2,0,L|30:192,1,95,14|2,2:0|2:0,0:0:0:0:
86,193,16872,1,8,2:0:0:0:
112,134,16966,1,10,1:2:0:0:
86,193,17060,1,10,1:2:0:0:
34,192,17153,1,6,2:3:0:0:
294,269,17341,5,14,2:0:0:0:
389,269,17528,1,2,1:2:0:0:
441,163,17716,1,2,1:2:0:0:
183,134,17903,2,0,L|85:133,2,95,14|2|2,2:0|1:2|1:2,0:0:0:0:
445,130,18466,6,0,L|337:130,2,95,14|2|2,2:0|1:2|1:2,0:0:0:0:
189,223,19028,1,14,2:0:0:0:
94,222,19215,1,2,1:2:0:0:
42,131,19403,1,2,1:2:0:0:
197,154,19591,6,0,L|197:57,1,95,14|2,2:0|1:2,0:0:0:0:
42,131,19966,2,0,L|42:225,1,95,14|0,2:0|1:0,0:0:0:0:
307,251,20340,6,0,P|375:206|311:156,1,190,14|8,2:0|1:2,0:0:0:0:
219,160,20903,1,8,2:0:0:0:
319,156,21091,1,8,1:2:0:0:
186,76,21278,1,8,2:0:0:0:
328,72,21466,1,8,1:2:0:0:
186,76,21653,1,8,2:0:0:0:
457,268,21841,5,10,1:2:0:0:
317,269,22028,1,8,2:0:0:0:
457,268,22216,1,8,1:2:0:0:
317,269,22403,1,8,2:0:0:0:
457,268,22591,1,8,1:2:0:0:
190,209,22778,1,10,2:0:0:0:
135,209,22872,1,2,2:0:0:0:
108,151,22966,1,10,0:2:0:0:
135,209,23059,1,2,0:0:0:0:
190,209,23153,1,10,0:0:0:0:
445,293,23341,6,0,L|445:95,1,190,2|2,2:0|2:0,0:0:0:0:
278,177,24091,2,0,L|171:157,1,95,2|2,2:0|2:0,0:0:0:0:
278,177,24466,2,0,L|385:157,1,95,2|2,2:0|2:0,0:0:0:0:
214,223,24841,6,0,L|27:185,2,190,2|2|2,2:0|2:0|2:0,0:0:0:0:
63,249,26153,1,2,2:0:0:0:
155,252,26341,6,0,L|161:157,1,95,2|2,2:0|2:0,0:0:0:0:
69,253,26716,2,0,L|61:158,1,95,2|2,2:0|2:0,0:0:0:0:
216,227,27092,2,0,P|282:177|217:125,1,190,2|2,2:0|2:0,0:0:0:0:
128,125,27653,1,2,2:0:0:0:
286,241,27840,6,0,L|468:189,2,190,2|2|2,2:0|2:0|2:0,0:0:0:0:
113,253,29341,6,0,P|48:202|112:150,1,190,2|0,2:0|0:0,0:0:0:0:
205,152,29903,1,2,2:0:0:0:
361,250,30091,2,0,L|155:242,1,190,2|2,2:0|2:0,0:0:0:0:
271,136,30653,1,0,2:0:0:0:
428,145,30841,5,2,2:0:0:0:
172,159,31403,1,2,2:0:0:0:
317,161,31591,2,0,L|319:255,1,95,2|2,2:0|2:0,0:0:0:0:
172,159,31966,2,0,L|171:253,1,95,2|2,2:0|2:0,0:0:0:0:
329,260,32341,6,0,P|432:200|330:137,1,285,2|0,2:0|2:0,0:0:0:0:
177,257,33091,2,0,P|301:207|351:60,1,285,2|2,2:0|2:0,0:0:0:0:
195,116,33841,5,2,2:0:0:0:
105,114,34028,1,0,2:0:0:0:
195,116,34216,1,0,2:0:0:0:
285,119,34403,1,0,2:0:0:0:
123,54,34591,1,8,2:0:0:0:
384,51,34778,1,0,1:0:0:0:
197,183,35153,2,0,L|127:183,1,47.5,6|6,2:3|2:3,0:0:0:0:
306,120,35341,6,0,L|410:119,1,95,6|2,1:2|2:0,0:0:0:0:
91,205,35903,2,0,P|25:150|91:105,1,190,10|0,2:0|1:0,0:0:0:0:
253,114,36466,2,0,L|347:113,1,95,8|2,2:0|2:0,0:0:0:0:
187,221,36841,6,0,L|92:222,1,95,2|2,1:2|1:2,0:0:0:0:
370,231,37404,2,0,P|433:175|366:127,1,190,10|0,2:0|0:0,0:0:0:0:
255,102,37966,1,8,2:0:0:0:
386,98,38153,1,2,2:0:0:0:
108,248,38341,6,0,P|39:202|102:149,1,190,2|2,1:2|2:0,0:0:0:0:
195,150,38903,1,8,2:0:0:0:
359,294,39091,2,0,L|359:199,1,95,2|0,2:0|0:0,0:0:0:0:
195,198,39466,2,0,L|100:198,1,95,10|0,2:0|0:0,0:0:0:0:
368,278,39841,6,0,L|462:277,2,95,2|0|0,1:2|1:0|2:0,0:0:0:0:
275,280,40403,1,10,2:0:0:0:
437,270,40591,2,0,L|437:175,1,95,2|0,2:0|0:0,0:0:0:0:
270,92,40966,2,0,L|175:92,1,95,8|10,2:0|2:0,0:0:0:0:
232,90,41247,1,8,2:0:0:0:
405,286,41341,6,0,P|467:228|404:171,1,190,6|2,1:2|2:0,0:0:0:0:
315,176,41903,1,10,2:0:0:0:
158,267,42091,2,0,L|158:172,1,95,2|0,2:0|1:0,0:0:0:0:
315,271,42466,2,0,L|315:176,1,95,10|0,2:0|0:0,0:0:0:0:
56,254,42841,6,0,L|56:159,1,95,2|0,1:2|1:0,0:0:0:0:
153,157,43216,1,2,2:0:0:0:
56,159,43403,1,10,2:0:0:0:
218,235,43591,2,0,L|312:233,1,95,2|0,2:0|1:0,0:0:0:0:
151,124,43966,2,0,L|56:124,1,95,10|0,2:0|0:0,0:0:0:0:
319,290,44340,6,0,P|383:236|319:183,1,190,2|0,1:2|0:0,0:0:0:0:
159,269,44903,2,0,P|94:217|163:176,1,190,8|0,2:0|1:0,0:0:0:0:
322,147,45466,2,0,L|416:146,1,95,10|10,2:0|2:0,0:0:0:0:
358,148,45747,1,8,2:0:0:0:
177,81,45841,6,0,L|82:83,1,95,6|0,1:2|2:3,0:0:0:0:
339,213,46216,2,0,L|434:213,1,95,8|0,1:2|2:0,0:0:0:0:
384,213,46497,1,8,2:0:0:0:
212,228,46591,6,0,L|117:229,1,95,0|0,1:2|1:0,0:0:0:0:
167,229,46872,1,8,2:0:0:0:
192,168,46966,1,8,1:2:0:0:
167,229,47059,1,8,2:0:0:0:
117,228,47153,1,4,1:3:0:0:
382,263,47341,6,0,L|381:73,1,190,6|0,1:2|0:0,0:0:0:0:
182,79,48091,2,0,P|211:173|310:203,1,190,2|0,2:0|0:0,0:0:0:0:
393,194,48653,2,0,L|396:123,1,47.5,2|0,2:0|0:0,0:0:0:0:
234,271,48841,6,0,L|44:270,2,190,6|2|2,2:0|2:0|2:0,0:0:0:0:
317,269,49778,1,4,2:3:0:0:
157,185,49966,2,0,L|60:185,1,95,4|2,2:3|2:0,0:0:0:0:
329,237,50341,6,0,L|328:128,1,95,14|0,2:0|1:0,0:0:0:0:
168,127,50716,2,0,L|69:126,1,95,14|2,2:0|1:2,0:0:0:0:
335,120,51091,2,0,L|434:119,1,95,14|2,2:0|1:2,0:0:0:0:
168,127,51466,2,0,L|72:128,1,95,14|0,2:0|1:0,0:0:0:0:
338,193,51841,5,8,2:0:0:0:
73,127,52028,1,8,2:0:0:0:
203,227,52591,1,6,2:3:0:0:
357,225,52778,2,0,L|365:160,1,49.8749984779358,10|8,2:0|0:0,0:0:0:0:
284,114,52966,2,0,L|226:113,1,49.8749984779358,10|8,2:0|2:0,0:0:0:0:
399,82,53153,2,0,L|470:81,1,49.8749984779358,10|8,2:0|2:0,0:0:0:0:
229,195,53341,6,0,P|158:150|229:109,1,199.499993911743,6|8,1:2|2:0,0:0:0:0:
325,111,53903,1,2,2:0:0:0:
167,82,54091,2,0,L|166:200,1,99.7499969558717,2|0,1:2|2:0,0:0:0:0:
322,122,54466,2,0,L|426:121,1,99.7499969558717,10|2,2:0|2:0,0:0:0:0:
366,121,54747,1,2,2:0:0:0:
271,122,54841,6,0,L|271:225,1,99.7499969558717,2|0,1:2|0:0,0:0:0:0:
119,121,55216,2,0,L|14:121,1,99.7499969558717,10|2,2:0|2:0,0:0:0:0:
181,239,55591,2,0,L|292:225,2,99.7499969558717,2|2|10,1:2|2:0|2:0,0:0:0:0:
86,238,56153,1,2,2:0:0:0:
354,251,56341,6,0,P|425:204|357:154,1,199.499993911743,2|8,1:2|2:0,0:0:0:0:
260,157,56903,1,2,2:0:0:0:
91,157,57091,2,0,L|91:265,1,99.7499969558717,2|0,1:2|2:0,0:0:0:0:
277,266,57466,2,0,L|388:266,1,99.7499969558717,10|2,2:0|2:0,0:0:0:0:
321,267,57747,1,2,2:0:0:0:
226,173,57841,6,0,L|225:279,1,99.7499969558717,2|0,1:2|2:0,0:0:0:0:
380,272,58216,2,0,L|379:146,1,99.7499969558717,10|0,2:0|0:0,0:0:0:0:
223,165,58591,2,0,L|115:165,1,99.7499969558717,2|2,1:2|2:0,0:0:0:0:
277,91,58966,2,0,L|393:91,1,99.7499969558717,10|2,2:0|2:0,0:0:0:0:
110,266,59341,6,0,P|41:219|117:178,1,199.499993911743,2|8,1:2|2:0,0:0:0:0:
209,181,59903,1,2,2:0:0:0:
380,213,60091,2,0,L|383:106,1,99.7499969558717,2|0,1:2|2:0,0:0:0:0:
228,105,60466,2,0,L|128:105,1,99.7499969558717,10|0,2:0|0:0,0:0:0:0:
402,234,60841,6,0,L|192:233,1,199.499993911743,2|10,1:2|2:0,0:0:0:0:
297,231,61403,1,0,0:0:0:0:
452,242,61591,2,0,L|452:131,1,99.7499969558717,2|0,1:2|2:0,0:0:0:0:
300,135,61966,1,10,2:0:0:0:
452,142,62153,1,2,2:0:0:0:
184,156,62341,6,0,P|133:197|182:241,1,149.624995433808,4|0,1:2|0:0,0:0:0:0:
273,157,62716,2,0,P|324:198|275:242,1,149.624995433808,14|0,2:0|0:0,0:0:0:0:
183,157,63091,2,0,P|132:198|181:242,1,149.624995433808,4|0,1:2|0:0,0:0:0:0:
351,269,63466,2,0,P|418:248|459:155,1,149.624995433808,12|8,2:0|2:0,0:0:0:0:
285,124,63841,6,0,L|113:124,1,149.624995433808,4|0,1:2|2:0,0:0:0:0:
301,200,64216,2,0,L|419:200,1,99.7499969558717,10|10,2:0|3:0,0:0:0:0:
131,284,64591,2,0,L|51:252,2,66.4999979705811,10|8|8,2:0|2:0|2:0,0:0:0:0:
245,291,64966,1,6,2:3:0:0:
306,290,65091,1,8,2:3:0:0:
367,292,65216,1,4,2:3:0:0:
170,301,65341,6,0,P|105:246|182:200,1,190,6|0,1:2|2:0,0:0:0:0:
261,201,65903,1,2,1:2:0:0:
101,136,66091,1,14,2:0:0:0:
196,139,66278,2,0,L|424:250,1,237.5,0|0,1:1|0:0,0:0:0:0:
236,246,66841,6,0,P|187:202|242:160,1,142.5,4|0,1:2|1:0,0:0:0:0:
328,151,67216,2,0,L|422:151,1,95,2|2,2:0|1:2,0:0:0:0:
269,276,67591,2,0,L|170:276,1,95,14|2,2:0|2:0,0:0:0:0:
330,287,67966,2,0,L|332:190,1,95,2|10,2:0|2:0,0:0:0:0:
280,190,68247,1,10,2:0:0:0:
109,249,68341,6,0,P|44:186|121:141,1,190,6|2,1:2|2:0,0:0:0:0:
196,130,68903,1,2,1:2:0:0:
453,222,69091,2,0,L|261:182,1,190,14|2,2:0|2:0,0:0:0:0:
174,176,69653,1,2,1:2:0:0:
429,262,69841,6,0,L|429:162,1,95,10|0,0:0|1:0,0:0:0:0:
277,224,70216,1,12,2:0:0:0:
429,167,70403,1,2,1:2:0:0:
277,224,70591,2,0,L|179:222,1,95,10|0,2:0|1:0,0:0:0:0:
342,123,70966,1,8,0:0:0:0:
392,124,71059,1,8,0:0:0:0:
443,125,71153,1,4,2:3:0:0:
184,236,71341,5,4,1:2:0:0:
278,237,71528,2,0,L|373:237,2,95,2|2|2,0:0|1:2|0:2,0:0:0:0:
123,243,72091,2,0,L|9:243,1,95,2|2,1:2|2:0,0:0:0:0:
184,146,72466,2,0,L|290:145,1,95,2|2,1:2|2:0,0:0:0:0:
124,204,72841,5,0,1:0:0:0:
266,210,73028,2,0,L|363:207,2,95,2|2|2,2:0|1:2|2:0,0:0:0:0:
115,217,73591,2,0,P|52:166|125:123,1,190,2|2,1:2|1:2,0:0:0:0:
281,162,74153,2,0,L|345:163,1,47.5,10|10,2:0|2:0,0:0:0:0:
163,278,74341,6,0,P|97:227|173:186,1,190,6|2,1:2|1:2,0:0:0:0:
313,180,74903,1,2,2:0:0:0:
162,181,75091,1,2,1:2:0:0:
71,138,75278,1,0,2:0:0:0:
61,46,75466,1,2,1:2:0:0:
152,89,75653,1,2,2:0:0:0:
412,244,75841,6,0,L|222:223,1,190,2|6,1:2|1:3,0:0:0:0:
223,223,76403,1,6,2:3:0:0:
77,208,76591,1,6,1:3:0:0:
68,208,76778,1,6,2:3:0:0:
159,138,76965,1,6,2:3:0:0:
67,208,77153,1,6,2:3:0:0:
332,261,77341,5,6,1:2:0:0:
455,265,77528,2,0,L|358:264,2,95,2|0|2,2:0|2:0|1:2,0:0:0:0:
302,184,78091,2,0,L|200:185,1,95,14|2,2:0|2:0,0:0:0:0:
359,119,78466,2,0,L|470:118,1,95,2|2,2:0|1:2,0:0:0:0:
187,265,78841,6,0,L|187:152,1,95,2|8,1:2|2:2,0:0:0:0:
344,110,79216,2,0,L|453:111,1,95,2|0,2:0|1:1,0:0:0:0:
177,270,79591,2,0,L|177:162,1,95,14|8,0:0|2:0,0:0:0:0:
234,175,79872,1,8,2:0:0:0:
320,175,79966,1,8,1:2:0:0:
372,136,80059,1,8,2:0:0:0:
377,136,80153,1,8,2:0:0:0:
325,175,80247,1,8,2:0:0:0:
158,251,80341,5,4,1:2:0:0:
291,251,80528,2,0,L|389:251,2,95,10|10|10,0:0|1:2|2:0,0:0:0:0:
141,149,81091,2,0,L|236:149,2,95,10|10|10,1:2|2:0|1:2,0:0:0:0:
293,101,81653,2,0,L|358:101,1,47.5,2|0,1:2|1:2,0:0:0:0:
172,236,81841,5,8,2:0:0:0:
39,228,82028,1,10,2:0:0:0:
169,268,82216,2,0,L|276:268,1,95,10|2,2:0|2:0,0:0:0:0:
116,206,82591,2,0,P|50:159|125:112,1,190,2|2,0:0|0:0,0:0:0:0:
264,237,83153,6,0,P|406:175|272:81,1,380,2|0,0:0|0:0,0:0:0:0:
256,192,84091,12,2,85966,0:0:0:0:
