osu file format v14

[General]
AudioFilename: audio.mp3
AudioLeadIn: 0
PreviewTime: 52179
Countdown: 0
SampleSet: Soft
StackLeniency: 0.7
Mode: 0
LetterboxInBreaks: 0
WidescreenStoryboard: 1

[Editor]
DistanceSpacing: 1.4
BeatDivisor: 4
GridSize: 4
TimelineZoom: 1.5

[Metadata]
Title:CANDY MAGIC (TV Size)
TitleUnicode:CANDY MAGIC (TV Size)
Artist:mimimemeMIMI
ArtistUnicode:みみめめMIMI
Creator:AsuKow
Version:Hard
Source:山田くんと7人の魔女
Tags:Xahlt Kuon- Gweon Sua Gweon_Sua Centrak Centrak_ GrazuKo yamada-kun yamadakun to 7-nin nananin no majo ending ed outro theme song anime japanese jp jpop pop j-pop きみのヒロインになりたくて takao yuki タカオ ユキ yamada-kun and the seven witches 白石 うらら Shiraishi Urara female vocal vocalist 4th single
BeatmapID:4271480
BeatmapSetID:2046328

[Difficulty]
HPDrainRate:4.5
CircleSize:3.8
OverallDifficulty:6.5
ApproachRate:7.5
SliderMultiplier:1.4
SliderTickRate:1

[Events]
//Background and Video events
Video,900,"video.mp4"
0,0,"bg.jpg",0,0
//Break Periods
//Storyboard Layer 0 (Background)
//Storyboard Layer 1 (Fail)
//Storyboard Layer 2 (Pass)
//Storyboard Layer 3 (Foreground)
//Storyboard Layer 4 (Overlay)
//Storyboard Sound Samples

[TimingPoints]
804,375,4,2,1,40,1,0
804,-125,4,2,1,40,0,0
8304,-111.111111111111,4,2,1,50,0,0
9804,-111.111111111111,4,2,1,60,0,0
11304,-100,4,2,1,60,0,0
11491,-100,4,2,1,60,0,0
11679,-100,4,2,1,60,0,0
11866,-100,4,2,1,60,0,0
12429,-100,4,2,1,60,0,0
12616,-100,4,2,1,60,0,0
12804,-100,4,2,1,60,0,0
12991,-100,4,2,1,60,0,0
13179,-100,4,2,1,60,0,0
13366,-100,4,2,1,60,0,0
13554,-100,4,2,1,60,0,0
13741,-100,4,2,1,60,0,0
13929,-100,4,2,1,60,0,0
14116,-100,4,2,1,60,0,0
14304,-100,4,2,1,60,0,0
14491,-100,4,2,1,60,0,0
14679,-100,4,2,1,60,0,0
14866,-100,4,2,1,60,0,0
15429,-100,4,2,1,60,0,0
15616,-100,4,2,1,60,0,0
15804,-100,4,2,1,60,0,0
15991,-100,4,2,1,60,0,0
16085,-100,4,2,1,60,0,0
16179,-100,4,2,1,60,0,0
16366,-100,4,2,1,60,0,0
16554,-100,4,2,1,60,0,0
20585,-100,4,2,1,60,0,0
20679,-100,4,2,1,60,0,0
23304,-125,4,2,1,50,0,0
30335,-125,4,2,1,50,0,0
30429,-125,4,2,1,50,0,0
34554,-125,4,2,1,60,0,0
35116,-125,4,2,2,60,0,0
35304,-125,4,2,1,60,0,0
35679,-125,4,2,1,60,0,0
35866,-125,4,2,1,60,0,0
36054,-125,4,2,1,60,0,0
36241,-125,4,2,1,60,0,0
36429,-125,4,2,1,60,0,0
36616,-125,4,2,1,60,0,0
36804,-125,4,2,1,60,0,0
36991,-125,4,2,1,60,0,0
37179,-125,4,2,1,60,0,0
37366,-125,4,2,1,60,0,0
37554,-125,4,2,1,60,0,0
37647,-125,4,2,1,60,0,0
37741,-125,4,2,1,60,0,0
37929,-125,4,2,1,60,0,0
38116,-125,4,2,1,60,0,0
38304,-125,4,2,1,60,0,0
38585,-125,4,2,1,60,0,0
38679,-125,4,2,1,60,0,0
38866,-125,4,2,1,60,0,0
39054,-125,4,2,1,60,0,0
39616,-125,4,2,1,60,0,0
39804,-125,4,2,1,60,0,0
40179,-125,4,2,1,60,0,0
40366,-125,4,2,1,60,0,0
40554,-125,4,2,1,60,0,0
40929,-125,4,2,1,60,0,0
41116,-125,4,2,1,60,0,0
41585,-125,4,2,1,60,0,0
41679,-100,4,2,1,60,0,0
41866,-100,4,2,1,60,0,0
42054,-100,4,2,1,60,0,0
42616,-100,4,2,1,60,0,0
42804,-100,4,2,1,60,0,0
43085,-100,4,2,1,60,0,0
43179,-100,4,2,1,60,0,0
43366,-100,4,2,1,60,0,0
43554,-100,4,2,1,60,0,0
44116,-100,4,2,1,60,0,0
44210,-100,4,2,1,5,0,0
44304,-100,4,2,1,60,0,0
44585,-100,4,2,1,60,0,0
44679,-100,4,2,1,60,0,0
45241,-100,4,2,1,60,0,0
45616,-100,4,2,1,60,0,0
46085,-100,4,2,1,60,0,0
46179,-100,4,2,1,60,0,0
47210,-100,4,2,2,60,0,0
47304,-166.666666666667,4,2,1,40,0,0
49553,-166.666666666667,4,2,1,40,0,0
49741,-166.666666666667,4,2,2,40,0,0
49929,-166.666666666667,4,2,1,40,0,0
50304,-100,4,2,1,60,0,0
51710,-100,4,2,1,60,0,0
51804,-100,4,2,1,60,0,0
52554,-100,4,2,2,60,0,0
52741,-100,4,2,1,60,0,0
53304,-90.9090909090909,4,2,1,75,0,0
53866,-90.9090909090909,4,2,1,75,0,0
53960,-90.9090909090909,4,2,1,75,0,0
54241,-90.9090909090909,4,2,1,75,0,0
54429,-90.9090909090909,4,2,1,75,0,0
54616,-90.9090909090909,4,2,1,75,0,0
54804,-90.9090909090909,4,2,1,75,0,0
54991,-90.9090909090909,4,2,1,75,0,0
55085,-90.9090909090909,4,2,1,5,0,0
55179,-90.9090909090909,4,2,1,75,0,0
55366,-90.9090909090909,4,2,1,75,0,0
55554,-90.9090909090909,4,2,1,75,0,0
55741,-90.9090909090909,4,2,1,75,0,0
55929,-90.9090909090909,4,2,1,75,0,0
56116,-90.9090909090909,4,2,1,75,0,0
56304,-90.9090909090909,4,2,1,75,0,0
56491,-90.9090909090909,4,2,1,75,0,0
56679,-90.9090909090909,4,2,1,75,0,0
56866,-90.9090909090909,4,2,1,75,0,0
56960,-90.9090909090909,4,2,1,75,0,0
57241,-90.9090909090909,4,2,1,75,0,0
57429,-90.9090909090909,4,2,1,75,0,0
57616,-90.9090909090909,4,2,1,75,0,0
57710,-90.9090909090909,4,2,1,75,0,0
57991,-90.9090909090909,4,2,1,75,0,0
58085,-90.9090909090909,4,2,1,5,0,0
58179,-90.9090909090909,4,2,1,75,0,0
58366,-90.9090909090909,4,2,1,75,0,0
58554,-90.9090909090909,4,2,1,75,0,0
58741,-90.9090909090909,4,2,1,75,0,0
58929,-90.9090909090909,4,2,1,75,0,0
59116,-90.9090909090909,4,2,1,75,0,0
59210,-90.9090909090909,4,2,1,75,0,0
59491,-90.9090909090909,4,2,1,75,0,0
59679,-90.9090909090909,4,2,1,75,0,0
59866,-90.9090909090909,4,2,1,75,0,0
60054,-90.9090909090909,4,2,1,75,0,0
60241,-90.9090909090909,4,2,1,75,0,0
60429,-90.9090909090909,4,2,1,75,0,0
60616,-90.9090909090909,4,2,1,75,0,0
60804,-90.9090909090909,4,2,1,75,0,0
60991,-90.9090909090909,4,2,1,75,0,0
61085,-90.9090909090909,4,2,1,75,0,0
61179,-90.9090909090909,4,2,1,75,0,0
61366,-90.9090909090909,4,2,1,75,0,0
61554,-90.9090909090909,4,2,1,75,0,0
61741,-90.9090909090909,4,2,1,75,0,0
61835,-90.9090909090909,4,2,1,75,0,0
61929,-90.9090909090909,4,2,1,75,0,0
62116,-90.9090909090909,4,2,1,75,0,0
62304,-90.9090909090909,4,2,1,75,0,0
62585,-90.9090909090909,4,2,1,5,0,0
62679,-90.9090909090909,4,2,1,75,0,0
62960,-90.9090909090909,4,2,1,75,0,0
63054,-90.9090909090909,4,2,1,75,0,0
63335,-90.9090909090909,4,2,1,5,0,0
63429,-90.9090909090909,4,2,1,75,0,0
64179,-100,4,2,1,75,0,0
64554,-100,4,2,1,75,0,0
64929,-100,4,2,2,75,0,0
65054,-100,4,2,1,75,0,0
65304,-100,4,2,1,60,0,0
67179,-100,4,2,1,60,0,0
69804,-100,4,2,1,60,0,0
71679,-100,4,2,1,60,0,0
71866,-100,4,2,1,60,0,0
72054,-100,4,2,1,60,0,0
72241,-100,4,2,1,60,0,0
72429,-100,4,2,1,60,0,0
72616,-100,4,2,1,60,0,0
72804,-100,4,2,1,60,0,0
72991,-100,4,2,1,60,0,0
73179,-100,4,2,1,60,0,0
73366,-100,4,2,1,60,0,0
73554,-100,4,2,1,60,0,0
74116,-100,4,2,1,60,0,0
74679,-100,4,2,1,60,0,0
74866,-100,4,2,1,60,0,0
75054,-100,4,2,1,60,0,0
75616,-100,4,2,1,60,0,0
75991,-100,4,2,2,60,0,0
76085,-100,4,2,2,60,0,0
76179,-100,4,2,1,60,0,0
76554,-100,4,2,2,60,0,0
76741,-100,4,2,1,60,0,0
77116,-100,4,2,2,60,0,0
77304,-111.111111111111,4,2,1,60,0,0
79085,-111.111111111111,4,2,1,60,0,0
79179,-111.111111111111,4,2,1,60,0,0
80304,-100,4,2,1,60,0,0
81897,-100,4,2,1,60,0,0
81991,-100,4,2,1,60,0,0
82085,-100,4,2,1,60,0,0
82179,-100,4,2,1,60,0,0
82272,-100,4,2,1,60,0,0
82366,-100,4,2,1,60,0,0
82835,-100,4,2,1,60,0,0
82929,-100,4,2,1,60,0,0
83866,-100,4,2,1,60,0,0
83929,-100,4,2,1,60,0,0
84054,588.235294117647,4,2,1,50,1,0
84642,612.244897959184,4,2,1,40,1,0
85254,689.655172413793,4,2,1,35,1,0
85771,-100,4,2,1,35,0,0
85943,-100,4,2,1,30,0,0
88012,-100,4,2,1,30,0,0

[Colours]
Combo1 : 141,120,71
Combo2 : 128,64,64
Combo3 : 217,179,179
Combo4 : 197,177,150

[HitObjects]
15,61,1179,6,0,P|6:27|-4:-4,2,56,2|2|2,2:2|2:2|2:2,0:0:0:0:
85,97,1741,1,2,2:2:0:0:
85,97,1929,2,0,P|106:83|158:71,1,56,2|2,2:2|2:2,0:0:0:0:
209,96,2304,6,0,B|292:82|270:27|358:28,1,168,2|2,2:2|2:2,0:0:0:0:
409,87,3054,2,0,P|458:63|518:46,2,112,2|2|2,2:2|2:2|2:2,0:0:0:0:
465,233,4179,6,0,P|473:259|482:286,1,56,2|2,2:2|2:2,0:0:0:0:
470,364,4554,2,0,P|437:356|417:324,1,56,2|2,2:2|2:2,0:0:0:0:
335,334,4929,1,2,2:2:0:0:
335,334,5116,1,2,2:2:0:0:
279,278,5304,6,0,P|291:245|301:217,1,56,2|0,2:2|0:0,0:0:0:0:
360,183,5679,2,0,P|350:156|340:130,1,56,2|2,2:2|2:2,0:0:0:0:
267,100,6054,2,0,P|240:108|219:126,1,56,2|0,2:2|0:0,0:0:0:0:
218,204,6429,2,0,P|191:213|165:223,1,56,2|2,2:2|2:2,0:0:0:0:
91,249,6804,6,0,P|184:257|213:317,1,168,2|2,2:2|2:2,0:0:0:0:
157,372,7554,2,0,P|93:349|39:337,1,112,2|2,2:2|2:2,0:0:0:0:
2,276,8116,1,2,2:2:0:0:
43,198,8304,6,0,L|4:64,1,125.999996154785,2|2,2:2|2:2,0:0:0:0:
69,13,8866,1,2,2:2:0:0:
69,13,9054,2,0,P|94:19|137:35,1,62.9999980773926,2|2,2:2|2:2,0:0:0:0:
200,84,9429,1,2,2:2:0:0:
268,28,9616,5,2,2:2:0:0:
268,28,9710,1,2,2:2:0:0:
268,28,9804,1,8,2:2:0:0:
366,83,9991,1,10,2:2:0:0:
456,11,10179,1,10,2:2:0:0:
505,189,10554,6,0,P|494:217|486:248,1,62.9999980773926,2|2,2:2|2:2,0:0:0:0:
462,336,10929,1,10,2:2:0:0:
462,336,11116,1,2,2:2:0:0:
345,288,11304,6,0,B|271:246|271:246|221:289,1,140,6|10,1:2|2:2,0:0:0:0:
146,333,11866,2,0,P|164:363|196:374,1,70,2|0,2:2|1:1,0:0:0:0:
291,346,12241,1,2,2:2:0:0:
229,281,12429,2,0,P|241:249|262:207,1,70,8|0,2:2|0:0,0:0:0:0:
341,168,12804,6,0,P|319:140|287:128,1,70,2|0,1:2|0:0,0:0:0:0:
281,30,13179,2,0,P|246:34|219:56,1,70,10|0,2:2|0:0,0:0:0:0:
167,139,13554,1,2,1:2:0:0:
90,78,13741,1,2,2:2:0:0:
90,78,13929,1,10,2:2:0:0:
18,144,14116,1,2,2:2:0:0:
78,220,14304,6,0,P|140:197|221:175,1,140,2|10,1:2|2:2,0:0:0:0:
291,119,14866,2,0,P|323:124|356:149,1,70,2|0,2:2|1:1,0:0:0:0:
390,236,15241,1,2,2:2:0:0:
302,280,15429,2,0,P|261:262|238:252,1,70,10|0,2:2|0:0,0:0:0:0:
314,380,15804,6,0,P|355:344|439:356,1,140,2|10,1:2|2:2,0:0:0:0:
510,291,16366,1,2,2:2:0:0:
431,232,16554,2,0,P|446:192|459:161,1,70,14|10,2:2|2:2,0:0:0:0:
500,79,16929,1,10,1:2:0:0:
500,79,17022,1,8,2:2:0:0:
500,79,17116,1,6,2:3:0:0:
420,21,17304,6,0,P|385:32|346:47,1,70,14|2,2:2|1:2,0:0:0:0:
265,86,17679,1,2,1:2:0:0:
175,47,17866,2,0,B|135:92|135:92|188:162,1,140,14|2,2:2|1:2,0:0:0:0:
255,222,18429,1,14,2:2:0:0:
179,284,18616,1,2,1:2:0:0:
179,284,18804,1,2,1:2:0:0:
214,375,18991,6,0,P|163:331|87:350,1,140,14|2,2:2|1:2,0:0:0:0:
12,289,19554,2,0,P|25:249|41:206,1,70,14|2,2:2|1:2,0:0:0:0:
95,145,19929,2,0,P|82:105|66:62,1,70,14|0,2:2|1:1,0:0:0:0:
149,18,20304,1,14,2:2:0:0:
149,18,20491,1,8,2:2:0:0:
225,78,20679,6,0,P|213:107|195:151,1,70,8|8,1:2|2:2,0:0:0:0:
151,228,21054,1,8,1:2:0:0:
151,228,21241,1,8,2:2:0:0:
228,287,21429,2,0,P|257:266|291:260,1,70,8|8,1:2|2:2,0:0:0:0:
362,331,21804,5,8,1:2:0:0:
445,280,21991,1,8,2:2:0:0:
386,200,22179,2,0,P|399:165|422:122,1,70,8|8,1:2|2:2,0:0:0:0:
387,41,22554,1,8,1:2:0:0:
307,98,22741,1,8,2:2:0:0:
243,37,22929,1,8,1:2:0:0:
243,37,23022,1,2,2:2:0:0:
243,37,23116,1,8,2:2:0:0:
159,102,23304,6,0,P|111:73|50:53,1,112,2|2,2:2|2:2,0:0:0:0:
4,202,24054,2,0,P|12:228|21:255,1,56,2|0,2:2|0:0,0:0:0:0:
33,332,24429,2,0,P|56:348|95:348,1,56,2|0,2:2|0:0,0:0:0:0:
144,301,24804,2,0,P|127:232|113:185,2,112,2|2|2,2:2|2:2|2:2,0:0:0:0:
366,376,26116,5,2,2:2:0:0:
366,376,26304,2,0,P|393:364|425:355,1,56,2|2,2:2|2:2,0:0:0:0:
414,274,26679,2,0,P|386:284|355:295,1,56,2|0,2:2|0:0,0:0:0:0:
284,310,27054,2,0,P|250:272|278:210,1,112,2|2,2:2|2:2,0:0:0:0:
334,177,27616,1,0,0:0:0:0:
334,177,27804,6,0,P|364:187|403:203,1,56,2|0,2:2|0:0,0:0:0:0:
448,244,28179,2,0,P|474:233|500:225,1,56,2|0,2:2|0:0,0:0:0:0:
502,146,28554,1,2,2:2:0:0:
295,13,29304,6,0,P|277:88|253:191,1,168,2|2,2:2|2:2,0:0:0:0:
244,254,30054,2,0,P|210:245|191:226,1,56,2|0,2:2|0:0,0:0:0:0:
133,181,30429,2,0,P|104:195|70:210,1,56,2|2,2:2|2:2,0:0:0:0:
14,244,30804,1,2,2:2:0:0:
235,323,31366,6,0,P|240:343|249:383,2,56,2|2|2,2:2|2:2|2:2,0:0:0:0:
168,291,31929,1,2,2:2:0:0:
168,291,32116,1,0,0:0:0:0:
197,210,32304,6,0,B|253:227|253:227|268:256|268:256|340:282,1,168,2|0,2:2|0:0,0:0:0:0:
416,245,33054,2,0,P|437:197|364:120,1,168,2|2,2:2|2:2,0:0:0:0:
292,77,33804,2,0,P|211:104|127:137,1,168,2|0,2:2|0:0,0:0:0:0:
55,129,34554,1,8,2:2:0:0:
108,46,34741,1,0,1:1:0:0:
267,15,35116,5,6,2:3:0:0:
267,15,35210,1,6,2:3:0:0:
267,15,35304,2,0,P|304:54|358:55,1,112,6|0,1:2|0:0,0:0:0:0:
427,17,35866,2,0,P|409:60|386:137,1,112,10|0,2:2|1:1,0:0:0:0:
512,241,36616,5,2,2:2:0:0:
512,241,36804,1,2,1:2:0:0:
472,308,36991,2,0,P|442:294|409:285,1,56,2|0,1:2|0:0,0:0:0:0:
364,343,37366,2,0,P|338:296|353:244,1,112,10|0,2:2|1:1,0:0:0:0:
407,186,37929,1,8,2:2:0:0:
512,18,38304,6,0,P|463:40|394:78,1,112,2|2,1:2|2:2,0:0:0:0:
350,116,38866,1,10,2:2:0:0:
350,116,39054,2,0,P|312:99|293:93,1,56,2|0,2:2|1:1,0:0:0:0:
246,153,39429,2,0,P|219:162|194:174,1,56,10|10,2:2|2:2,0:0:0:0:
186,182,39710,1,8,2:2:0:0:
175,188,39804,6,0,P|138:142|154:88,1,112,2|0,1:2|0:0,0:0:0:0:
214,51,40366,1,10,2:2:0:0:
146,10,40554,2,0,P|95:29|39:52,1,112,2|8,2:2|2:2,0:0:0:0:
0,136,41116,5,10,2:2:0:0:
0,136,41210,1,8,2:2:0:0:
0,136,41304,2,0,P|12:182|27:255,1,112,6|2,1:2|2:2,0:0:0:0:
1,339,41866,1,10,2:2:0:0:
1,339,42054,2,0,P|26:356|74:353,1,70,2|0,2:2|1:1,0:0:0:0:
139,293,42429,2,0,P|126:249|115:217,1,70,10|2,2:2|2:2,0:0:0:0:
201,181,42804,6,0,P|213:215|225:257,1,70,2|0,1:2|1:1,0:0:0:0:
270,333,43179,2,0,P|302:339|343:319,1,70,2|10,2:2|2:2,0:0:0:0:
423,280,43554,2,0,P|452:288|501:301,1,70,2|0,2:2|1:1,0:0:0:0:
431,186,43929,2,0,P|381:205|332:223,1,105,10|0,2:2|0:0,0:0:0:0:
320,226,44304,6,0,P|276:183|309:109,1,140,2|0,1:2|0:0,0:0:0:0:
327,22,44866,2,0,B|401:31|376:61|452:80,1,140,8|0,2:2|1:1,0:0:0:0:
503,163,45429,2,0,P|466:177|414:196,1,70,10|10,2:2|2:2,0:0:0:0:
432,198,45710,1,8,2:2:0:0:
424,206,45804,6,0,P|367:166|299:169,2,140,6|8|8,1:2|1:2|1:2,0:0:0:0:
471,292,46741,1,8,2:2:0:0:
471,292,46835,1,8,2:2:0:0:
471,292,46929,2,0,P|438:308|402:329,1,70,8|4,1:2|2:3,0:0:0:0:
329,378,47304,6,0,B|272:356|225:338|225:338|253:331|278:316,1,167.999994873047,6|2,1:2|2:2,0:0:0:0:
60,223,48804,6,0,P|72:258|87:310,1,83.9999974365235,2|2,2:2|2:2,0:0:0:0:
213,213,49554,2,0,P|201:178|186:126,1,83.9999974365235,2|4,2:2|2:3,0:0:0:0:
314,16,50304,6,0,P|278:6|233:0,1,70,14|0,2:2|1:1,0:0:0:0:
354,93,50679,2,0,P|390:83|435:77,1,70,14|2,2:2|1:2,0:0:0:0:
306,163,51054,2,0,P|270:153|225:147,1,70,14|2,2:2|1:2,0:0:0:0:
140,180,51429,2,0,P|121:210|129:243,1,70,14|0,2:2|1:1,0:0:0:0:
136,254,51710,1,0,1:1:0:0:
145,263,51804,5,8,2:2:0:0:
70,375,51991,1,8,2:2:0:0:
0,49,52741,5,10,2:2:0:0:
0,49,52835,1,8,2:2:0:0:
0,49,52929,2,0,L|17:85,3,35,10|8|10|8,2:2|2:2|2:2|2:2,0:0:0:0:
27,94,53304,6,0,B|107:79|79:34|162:30,1,154.000004699707,6|8,1:2|2:2,0:0:0:0:
255,84,53866,1,2,2:2:0:0:
206,180,54054,2,0,P|177:154|122:144,1,77.0000023498536,2|0,1:2|0:0,0:0:0:0:
57,211,54429,2,0,P|72:240|91:290,1,77.0000023498536,8|0,2:2|0:0,0:0:0:0:
163,358,54804,6,0,P|209:325|263:339,1,115.50000352478,2|0,1:2|0:0,0:0:0:0:
272,347,55179,1,10,2:2:0:0:
347,270,55366,1,2,2:2:0:0:
267,194,55554,2,0,P|250:150|236:116,1,77.0000023498536,2|2,1:2|2:2,0:0:0:0:
298,31,55929,1,10,2:2:0:0:
298,31,56116,1,2,2:2:0:0:
397,111,56304,6,0,P|374:172|346:262,1,154.000004699707,2|8,1:2|2:2,0:0:0:0:
286,345,56866,1,2,2:2:0:0:
387,381,57054,2,0,P|451:334|421:258,1,154.000004699707,2|10,1:2|2:2,0:0:0:0:
346,230,57616,5,2,2:2:0:0:
346,230,57710,1,2,2:2:0:0:
346,230,57804,2,0,P|292:258|230:292,1,115.50000352478,2|0,1:2|0:0,0:0:0:0:
235,296,58179,1,10,2:2:0:0:
166,379,58366,1,2,2:2:0:0:
74,320,58554,2,0,P|89:279|102:236,1,77.0000023498536,2|2,1:2|2:2,0:0:0:0:
186,183,58929,1,10,2:2:0:0:
186,183,59116,1,2,2:2:0:0:
123,94,59304,6,0,B|68:116|68:116|59:144|59:144|-1:169,1,154.000004699707,2|8,1:2|2:2,0:0:0:0:
19,51,59866,1,2,2:2:0:0:
117,6,60054,2,0,P|148:16|190:29,1,77.0000023498536,2|0,1:2|0:0,0:0:0:0:
281,87,60429,2,0,P|317:75|354:63,1,77.0000023498536,10|2,2:2|2:2,0:0:0:0:
443,2,60804,6,0,P|474:47|450:107,1,115.50000352478,2|0,1:2|0:0,0:0:0:0:
452,112,61179,2,0,P|462:145|475:187,1,77.0000023498536,10|2,2:2|2:2,0:0:0:0:
396,260,61554,2,0,P|355:219|257:225,1,154.000004699707,2|10,1:2|2:2,0:0:0:0:
187,297,62116,1,2,2:2:0:0:
262,374,62304,6,0,P|318:358|387:342,1,115.50000352478,4|0,1:2|0:0,0:0:0:0:
396,337,62679,2,0,P|426:345|480:366,1,77.0000023498536,14|0,2:2|0:0,0:0:0:0:
505,258,63054,2,0,P|526:207|502:156,1,115.50000352478,4|0,1:2|0:0,0:0:0:0:
490,152,63429,2,0,P|456:169|413:190,1,77.0000023498536,12|8,2:2|2:2,0:0:0:0:
409,192,63710,1,8,2:2:0:0:
400,194,63804,2,0,P|374:160|378:117,1,77.0000023498536,4|0,1:2|0:0,0:0:0:0:
321,45,64179,6,0,P|348:33|374:0,2,46.6666666666667,10|8|8,2:2|2:2|2:2,0:0:0:0:
245,50,64554,6,0,P|221:31|179:26,2,46.6666666666667,10|8|8,2:2|2:2|2:2,0:0:0:0:
285,111,64929,6,0,P|281:140|297:179,2,46.6666666666667,6|8|4,2:3|2:3|2:3,0:0:0:0:
366,149,65304,6,0,P|344:217|307:362,1,210,6|2,1:2|1:2,0:0:0:0:
213,373,66054,2,0,B|127:342|127:342|118:303|118:303|37:273,1,210,14|0,2:2|0:0,0:0:0:0:
7,366,66804,1,4,1:2:0:0:
143,224,67179,6,0,P|129:184|112:142,2,70,2|2|14,2:2|1:2|2:2,0:0:0:0:
204,300,67741,1,2,2:2:0:0:
204,300,67929,1,2,2:2:0:0:
281,240,68116,5,10,2:2:0:0:
281,240,68210,1,10,2:2:0:0:
281,240,68304,2,0,P|297:201|355:103,1,140,6|2,1:2|2:2,0:0:0:0:
185,2,69054,2,0,P|146:18|48:76,1,140,14|2,2:2|2:2,0:0:0:0:
28,163,69616,5,2,1:2:0:0:
28,163,69710,1,0,1:1:0:0:
28,163,69804,2,0,P|53:188|102:183,1,70,14|0,2:2|1:1,0:0:0:0:
179,135,70179,2,0,P|167:94|156:64,1,70,12|2,2:2|1:2,0:0:0:0:
277,142,70554,2,0,P|265:174|255:208,1,70,10|0,2:2|1:1,0:0:0:0:
217,299,70929,1,8,2:2:0:0:
217,299,71022,1,8,2:2:0:0:
217,299,71116,1,4,2:3:0:0:
290,360,71304,6,0,P|335:341|433:323,1,140,4|2,1:2|1:2,0:0:0:0:
508,273,71866,1,2,2:2:0:0:
508,273,72054,2,0,P|492:226|484:201,1,70,2|2,1:2|2:2,0:0:0:0:
432,123,72429,1,2,1:2:0:0:
364,193,72616,6,0,P|325:177|289:163,1,70,2|0,2:2|1:1,0:0:0:0:
212,119,72991,2,0,P|198:82|186:55,2,70,2|2|2,2:2|1:2|2:2,0:0:0:0:
281,49,73554,2,0,P|334:14|416:46,1,140,2|2,1:2|1:2,0:0:0:0:
481,91,74116,5,10,2:2:0:0:
481,91,74210,1,10,2:2:0:0:
481,91,74304,2,0,P|456:141|427:227,2,140,6|2|2,1:2|1:2|1:2,0:0:0:0:
308,185,75429,1,2,1:2:0:0:
439,330,75804,6,0,P|469:332|508:352,1,70,2|4,1:2|2:3,0:0:0:0:
370,384,76179,2,0,P|356:315|335:248,2,140,6|6|6,1:3|1:3|2:3,0:0:0:0:
174,368,77304,6,0,P|140:319|176:250,1,125.999996154785,6|2,1:2|2:2,0:0:0:0:
229,206,77866,1,2,1:2:0:0:
168,141,78054,2,0,P|136:154|99:171,1,62.9999980773926,14|2,2:2|2:2,0:0:0:0:
34,119,78429,1,2,2:2:0:0:
34,119,78616,1,2,1:2:0:0:
75,41,78804,6,0,P|104:51|154:71,1,62.9999980773926,2|8,1:2|2:2,0:0:0:0:
229,86,79179,2,0,P|258:74|292:63,1,62.9999980773926,2|0,2:2|1:1,0:0:0:0:
323,145,79554,2,0,P|293:156|260:168,1,62.9999980773926,14|8,2:2|2:2,0:0:0:0:
196,223,79929,2,0,L|161:205,3,31.4999990386963,8|8|8|8,1:2|2:2|2:2|2:2,0:0:0:0:
145,214,80304,6,0,P|123:243|135:291,1,70,4|10,1:2|2:2,0:0:0:0:
178,357,80679,1,10,1:2:0:0:
254,295,80866,1,10,2:2:0:0:
335,349,81054,2,0,P|366:351|408:366,1,70,10|10,1:2|2:2,0:0:0:0:
489,316,81429,1,10,1:2:0:0:
509,226,81616,5,2,1:2:0:0:
509,226,81710,1,0,1:1:0:0:
509,226,81804,1,8,2:2:0:0:
424,177,81991,1,10,2:2:0:0:
359,250,82179,1,10,2:2:0:0:
