osu file format v14

[General]
AudioFilename: audio.mp3
AudioLeadIn: 0
PreviewTime: 74127
Countdown: 0
SampleSet: Normal
StackLeniency: 0.7
Mode: 1
LetterboxInBreaks: 0
WidescreenStoryboard: 1

[Editor]
DistanceSpacing: 1.3
BeatDivisor: 4
GridSize: 32
TimelineZoom: 1.900001

[Metadata]
Title:Aoi Tori
TitleUnicode:青い鳥
Artist:mimimemeMIMI
ArtistUnicode:みみめめMIMI
Creator:iloveyou4ever
Version:Everlasting Blue
Source:
Tags:blue bird japanese jpop shiroi white fhána fhana BEST ALBUM ~Bon! Voyage!~ female vocal vocalist j-pop pop rock j-rock jrock タカオユキ Takao Yuki
BeatmapID:2964465
BeatmapSetID:1440943

[Difficulty]
HPDrainRate:5
CircleSize:2
OverallDifficulty:6
ApproachRate:0
SliderMultiplier:1.4
SliderTickRate:1

[Events]
//Background and Video events
0,0,"BG.jpg",0,-140
//Break Periods
//Storyboard Layer 0 (Background)
//Storyboard Layer 1 (Fail)
//Storyboard Layer 2 (Pass)
//Storyboard Layer 3 (Foreground)
//Storyboard Layer 4 (Overlay)
//Storyboard Sound Samples

[TimingPoints]
589,368.098159509202,4,1,0,40,1,8
589,-113.636363636364,4,1,0,40,0,8
957,368.098159509202,4,1,0,40,1,0
957,-113.636363636364,4,1,0,40,0,0
2429,368.098159509202,4,1,0,40,1,0
2429,-113.636363636364,4,1,0,40,0,0
9790,384.615384615385,4,1,0,40,1,0
9790,-108.459869848156,4,1,0,40,0,0
11322,359.281437125748,4,1,0,40,1,0
11322,-116.279069767442,4,1,0,40,0,0
12743,368.098159509202,4,1,0,40,1,0
12743,-113.636363636364,4,1,0,40,0,0
14120,-106.382978723404,4,1,0,50,0,0
14213,368.098159509202,4,1,0,50,1,0
14213,-106.382978723404,4,1,0,50,0,0
25532,-104.166666666667,4,1,0,90,0,0
25716,-103.092783505155,4,1,0,90,0,0
25808,-102.040816326531,4,1,0,90,0,0
25992,-100,4,1,0,90,0,0
37495,-106.382978723404,4,1,0,90,0,0
47986,-100,4,1,0,90,0,0
60409,-100.806451612903,4,1,0,90,0,0
60501,-101.626016260163,4,1,0,90,0,0
60593,-102.459016393443,4,1,0,90,0,0
60777,-103.305785123967,4,1,0,90,0,0
60961,-104.166666666667,4,1,0,90,0,0
61145,-105.042016806723,4,1,0,90,0,0
61329,-105.932203389831,4,1,0,90,0,0
66851,-105.042016806723,4,1,0,90,0,0
66943,-103.734439834025,4,1,0,90,0,0
67035,-102.459016393443,4,1,0,90,0,0
67127,-101.214574898785,4,1,0,90,0,0
67219,-100,4,1,0,90,0,0
75317,-100.806451612903,4,1,0,90,0,0
75409,-101.626016260163,4,1,0,90,0,0
75501,-102.459016393443,4,1,0,90,0,0
75593,-103.305785123967,4,1,0,90,0,0
75685,-104.166666666667,4,1,0,90,0,0
75777,-105.042016806723,4,1,0,90,0,0
75869,-105.932203389831,4,1,0,90,0,0
75961,-106.837606837607,4,1,0,90,0,0
76053,368.098159509202,4,1,0,90,1,1
76053,-107.52688172043,4,1,0,90,0,1
87464,-105.263157894737,4,1,0,90,0,1
87648,-103.092783505155,4,1,0,90,0,1
87740,-101.522842639594,4,1,0,90,0,1
87832,-100,4,1,0,90,0,1
99059,-99.2063492063492,4,1,0,90,0,1
99151,-98.4251968503937,4,1,0,90,0,1
99243,-97.65625,4,1,0,90,0,1
99335,-96.8992248062015,4,1,0,90,0,1
99427,-96.1538461538461,4,1,0,90,0,1
99519,-95.2380952380952,4,1,0,90,0,1
99611,-94.3396226415094,4,1,0,90,0,1
120132,-90.0900900900901,4,1,0,90,0,1
122065,-91.9117647058823,4,1,0,90,0,1
122249,-93.8086303939962,4,1,0,90,0,1
122617,-95.7854406130268,4,1,0,90,0,1
122801,-97.8473581213307,4,1,0,90,0,1
123169,-100,4,1,0,90,0,0
145623,-100.806451612903,4,1,0,90,0,0
145807,-101.626016260163,4,1,0,90,0,0
145899,-102.249488752556,4,1,0,90,0,0
145991,-102.880658436214,4,1,0,90,0,0
146083,-103.51966873706,4,1,0,90,0,0
146175,-104.166666666667,4,1,0,90,0,0
146359,-104.89877268436,4,1,0,90,0,0
146543,-105.64124234101,4,1,0,90,0,0
146727,-106.837606837607,4,1,0,90,0,0
152249,-105.042016806723,4,1,0,90,0,0
152341,-103.734439834025,4,1,0,90,0,0
152433,-102.459016393443,4,1,0,90,0,0
152525,-101.214574898785,4,1,0,90,0,0
152617,-100,4,1,0,90,0,0
160807,-99.2063492063492,4,1,0,90,0,0
160899,-98.4251968503937,4,1,0,90,0,0
160991,-97.65625,4,1,0,90,0,0
161083,-96.8992248062015,4,1,0,90,0,0
161175,-96.1538461538461,4,1,0,90,0,0
161267,-95.4198473282443,4,1,0,90,0,0
161359,-94.6969696969697,4,1,0,90,0,0
161451,368.098159509202,4,1,0,90,1,1
161451,-93.984962406015,4,1,0,90,0,1
182064,-90.0900900900901,4,1,0,90,0,1
185009,-100,4,1,0,90,0,0
208567,-95.2380952380952,4,1,0,90,0,1
217401,-92.1658986175115,4,1,0,90,0,0
218874,-90.0900900900901,4,1,0,90,0,0
220162,-89.0234131576605,4,1,0,90,0,0
220254,-87.9816998064402,4,1,0,90,0,0
220300,-87.9816998064402,4,1,0,95,0,0
220346,-86.9565217391304,4,1,0,95,0,1
222371,-86.9565217391304,4,1,0,95,0,0
223199,-86.9565217391304,4,1,0,75,0,0
224670,-105.263157894737,4,1,0,60,0,0
224763,368.098159509202,4,1,0,60,1,0
224763,-105.263157894737,4,1,0,60,0,0
236450,-100,4,1,0,90,0,0
245376,-96.1538461538461,4,1,0,90,0,0
246480,-94.3396226415094,4,1,0,90,0,0
246664,-93.0232558139535,4,1,0,90,0,0
246848,-90.9090909090909,4,1,0,90,0,0
247032,-92.5925925925926,4,1,0,90,0,0
247216,-94.2507068803016,4,1,0,90,0,0
247309,-95.0570342205323,4,1,0,90,0,0
247401,-95.8772770853308,4,1,0,90,0,0
247493,-96.7117988394584,4,1,0,90,0,0
247585,-97.5609756097561,4,1,0,90,0,0
247677,-98.4251968503937,4,1,0,90,0,0
247769,-99.304865938431,4,1,0,90,0,0
247861,-100.200400801603,4,1,0,90,0,0
247953,-101.112234580384,4,1,0,90,0,0
248045,-102.040816326531,4,1,0,90,0,0
248137,-102.880658436214,4,1,0,90,0,0
248321,-104.602510460251,4,1,0,90,0,1
259732,-103.092783505155,4,1,0,90,0,1
259916,-102.040816326531,4,1,0,90,0,1
260008,-101.010101010101,4,1,0,90,0,1
260100,-100,4,1,0,90,0,1
271879,-94.3396226415094,4,1,0,90,0,1
292401,-89.6860986547085,4,1,0,90,0,1
294333,-91.1577028258888,4,1,0,90,0,1
294517,-92.678405931418,4,1,0,90,0,1
294793,-94.2507068803016,4,1,0,90,0,1
294885,-95.0570342205323,4,1,0,90,0,1
294977,-96.7117988394584,4,1,0,90,0,1
295161,-98.3284169124877,4,1,0,90,0,1
295437,-100,4,1,0,90,0,0
307216,-95.6937799043062,4,1,0,90,0,1
310161,-91.743119266055,4,1,0,90,0,1
311818,-90.2527075812274,4,1,0,90,0,1
312002,-88.809946714032,4,1,0,90,0,1
312186,-87.4125874125874,4,1,0,90,0,1
312370,-86.0585197934596,4,1,0,90,0,1
312554,-84.7457627118644,4,1,0,90,0,1
312738,-83.3333333333333,4,1,0,90,0,1
313106,-80,4,1,0,40,0,0
314374,372.670807453416,4,1,0,40,1,8
314374,-109.051254089422,4,1,0,40,0,0
314560,372.670807453416,4,1,0,40,1,0
314560,-111.111111111111,4,1,0,40,0,0
314932,-113.636363636364,4,1,0,40,0,0
315367,372.670807453416,4,1,0,40,1,8
315367,-116.279069767442,4,1,0,40,0,0
316485,372.670807453416,4,1,0,40,1,0
316485,-117.647058823529,4,1,0,40,0,8
319093,-127.388535031847,4,1,0,40,0,8

[HitObjects]
442,212,773,5,8,0:0:0:0:
383,194,957,1,0,0:0:0:0:
362,152,1325,1,0,0:0:0:0:
472,175,1693,1,8,0:0:0:0:
453,166,2245,1,0,0:0:0:0:
394,174,2429,1,8,0:0:0:0:
325,153,2797,1,0,0:0:0:0:
447,174,2981,1,8,0:0:0:0:
332,171,3717,1,0,0:0:0:0:
332,171,3901,1,0,0:0:0:0:
343,166,4269,1,0,0:0:0:0:
442,176,4637,1,8,0:0:0:0:
369,161,5373,1,0,0:0:0:0:
422,151,5741,1,0,0:0:0:0:
448,175,5925,1,8,0:0:0:0:
350,144,6662,1,8,0:0:0:0:
350,144,6846,1,8,0:0:0:0:
451,166,7214,1,0,0:0:0:0:
400,177,7582,1,8,0:0:0:0:
452,152,7950,1,8,0:0:0:0:
400,181,8318,1,0,0:0:0:0:
466,166,8686,1,8,0:0:0:0:
365,155,9422,1,8,0:0:0:0:
365,155,9790,1,0,0:0:0:0:
450,153,10174,1,0,0:0:0:0:
426,171,10559,1,8,0:0:0:0:
376,163,11322,1,8,0:0:0:0:
332,155,11681,1,0,0:0:0:0:
417,176,11860,1,8,0:0:0:0:
401,217,12743,1,0,0:0:0:0:
430,171,13111,1,8,0:0:0:0:
430,171,13847,1,8,0:0:0:0:
447,228,14213,1,0,0:0:0:0:
391,188,14581,1,0,0:0:0:0:
454,177,14765,1,8,0:0:0:0:
446,171,15317,1,0,0:0:0:0:
418,235,15501,1,8,0:0:0:0:
382,212,15685,1,0,0:0:0:0:
430,166,16053,1,8,0:0:0:0:
458,181,16421,1,0,0:0:0:0:
458,180,16789,1,0,0:0:0:0:
399,175,17157,1,8,0:0:0:0:
479,180,17525,1,8,0:0:0:0:
479,179,17709,1,8,0:0:0:0:
469,172,18262,1,0,0:0:0:0:
470,168,18446,1,8,0:0:0:0:
464,169,18630,1,0,0:0:0:0:
452,192,18998,1,0,0:0:0:0:
463,172,19366,1,8,0:0:0:0:
454,166,19918,1,8,0:0:0:0:
463,172,20102,1,0,0:0:0:0:
434,190,20470,1,0,0:0:0:0:
397,169,20838,1,8,0:0:0:0:
393,175,21574,1,8,0:0:0:0:
428,211,21943,1,0,0:0:0:0:
382,176,22127,1,0,0:0:0:0:
445,181,22311,1,8,0:0:0:0:
353,163,22679,1,0,0:0:0:0:
445,181,23047,1,8,0:0:0:0:
440,232,23415,1,0,0:0:0:0:
431,233,23783,1,0,0:0:0:0:
414,182,23967,1,8,0:0:0:0:
434,164,24151,1,0,0:0:0:0:
410,181,24335,1,0,0:0:0:0:
401,174,24519,1,8,0:0:0:0:
366,187,25624,1,0,0:0:0:0:
366,187,25716,1,0,0:0:0:0:
465,194,25808,1,8,0:0:0:0:
395,176,25992,1,4,0:0:0:0:
462,383,26360,1,8,0:0:0:0:
452,210,26544,1,8,0:0:0:0:
437,166,26636,1,0,0:0:0:0:
406,164,26728,1,0,0:0:0:0:
424,172,26912,1,8,0:0:0:0:
429,178,27096,1,0,0:0:0:0:
445,230,27280,1,8,0:0:0:0:
480,205,27372,1,8,0:0:0:0:
398,178,27464,1,0,0:0:0:0:
407,226,27648,1,0,0:0:0:0:
421,166,27832,1,8,0:0:0:0:
446,176,28016,1,0,0:0:0:0:
446,176,28108,1,0,0:0:0:0:
446,176,28200,1,8,0:0:0:0:
446,176,28292,1,8,0:0:0:0:
407,178,28384,1,0,0:0:0:0:
405,178,28568,1,8,0:0:0:0:
388,169,28752,1,8,0:0:0:0:
429,178,28936,1,4,0:0:0:0:
452,181,29305,1,8,0:0:0:0:
447,176,29489,1,0,0:0:0:0:
447,176,29581,1,0,0:0:0:0:
447,176,29673,1,0,0:0:0:0:
439,184,29857,1,8,0:0:0:0:
414,183,30041,1,0,0:0:0:0:
419,188,30225,1,8,0:0:0:0:
437,178,30317,1,0,0:0:0:0:
419,188,30409,1,8,0:0:0:0:
458,209,30593,1,0,0:0:0:0:
471,189,30777,1,8,0:0:0:0:
470,189,30869,1,8,0:0:0:0:
437,176,30961,1,0,0:0:0:0:
437,176,31053,1,0,0:0:0:0:
427,174,31145,1,8,0:0:0:0:
413,176,31329,1,0,0:0:0:0:
412,177,31513,1,0,0:0:0:0:
412,176,31605,1,0,0:0:0:0:
429,178,31697,1,8,0:0:0:0:
406,176,31881,1,4,0:0:0:0:
439,194,32249,1,8,0:0:0:0:
457,190,32433,1,8,0:0:0:0:
452,182,32525,1,0,0:0:0:0:
452,182,32617,1,0,0:0:0:0:
419,183,32801,1,0,0:0:0:0:
458,178,32986,1,8,0:0:0:0:
442,181,33170,1,8,0:0:0:0:
442,181,33262,1,8,0:0:0:0:
424,182,33354,1,0,0:0:0:0:
447,192,33538,1,0,0:0:0:0:
419,183,33722,1,8,0:0:0:0:
424,183,33906,1,8,0:0:0:0:
394,183,33998,1,0,0:0:0:0:
424,181,34090,1,8,0:0:0:0:
424,181,34182,1,8,0:0:0:0:
419,183,34274,1,0,0:0:0:0:
424,182,34366,1,0,0:0:0:0:
417,180,34458,1,8,0:0:0:0:
419,183,34642,1,0,0:0:0:0:
417,172,34826,1,12,0:0:0:0:
406,259,35010,1,0,0:0:0:0:
443,182,35194,1,0,0:0:0:0:
464,162,35378,1,12,0:0:0:0:
449,182,35562,1,0,0:0:0:0:
448,182,35746,1,0,0:0:0:0:
424,166,35930,1,12,0:0:0:0:
443,182,36114,1,0,0:0:0:0:
351,184,36298,1,8,0:0:0:0:
439,184,36482,1,0,0:0:0:0:
439,184,36574,1,0,0:0:0:0:
384,186,36666,1,8,0:0:0:0:
384,186,36851,1,8,0:0:0:0:
427,153,37035,1,4,0:0:0:0:
416,174,37587,1,0,0:0:0:0:
375,178,37771,1,8,0:0:0:0:
398,240,38139,1,0,0:0:0:0:
404,182,38323,1,8,0:0:0:0:
416,174,38507,1,8,0:0:0:0:
370,205,38691,1,0,0:0:0:0:
412,194,39059,1,8,0:0:0:0:
425,172,39243,1,0,0:0:0:0:
457,176,39611,1,0,0:0:0:0:
422,178,39795,1,0,0:0:0:0:
434,175,39979,1,8,0:0:0:0:
434,175,40163,1,8,0:0:0:0:
438,223,40347,1,0,0:0:0:0:
388,178,40716,1,8,0:0:0:0:
452,204,41084,1,0,0:0:0:0:
401,179,41268,1,0,0:0:0:0:
429,191,41452,1,8,0:0:0:0:
394,187,41636,1,8,0:0:0:0:
380,152,42004,1,8,0:0:0:0:
389,174,42188,1,0,0:0:0:0:
390,168,42556,1,0,0:0:0:0:
422,182,42740,1,8,0:0:0:0:
422,182,42832,1,8,0:0:0:0:
474,177,42924,1,8,0:0:0:0:
474,177,43108,1,8,0:0:0:0:
422,176,43292,1,0,0:0:0:0:
389,187,43476,1,8,0:0:0:0:
451,155,43660,1,4,0:0:0:0:
441,172,44028,1,8,0:0:0:0:
464,172,44212,1,0,0:0:0:0:
453,167,44397,1,8,0:0:0:0:
451,167,44581,1,8,0:0:0:0:
489,191,44949,1,8,0:0:0:0:
446,175,45133,1,0,0:0:0:0:
453,177,45501,1,0,0:0:0:0:
403,205,45685,1,8,0:0:0:0:
443,192,45777,1,8,0:0:0:0:
449,169,45869,1,0,0:0:0:0:
442,182,46053,1,8,0:0:0:0:
416,179,46237,1,0,0:0:0:0:
494,220,46421,1,0,0:0:0:0:
453,194,46605,1,8,0:0:0:0:
489,190,46973,1,0,0:0:0:0:
483,176,47157,1,8,0:0:0:0:
463,181,47341,1,0,0:0:0:0:
431,192,47709,1,12,0:0:0:0:
476,165,48078,1,0,0:0:0:0:
469,180,48262,1,0,0:0:0:0:
469,180,48446,1,0,0:0:0:0:
431,170,48630,1,0,0:0:0:0:
431,170,48722,1,0,0:0:0:0:
431,170,48814,1,8,0:0:0:0:
462,183,48998,1,0,0:0:0:0:
466,162,49182,1,8,0:0:0:0:
372,189,49274,1,8,0:0:0:0:
466,162,49366,1,8,0:0:0:0:
388,187,49550,1,4,0:0:0:0:
430,178,49918,1,8,0:0:0:0:
476,212,50102,1,8,0:0:0:0:
419,262,50194,1,8,0:0:0:0:
382,174,50286,1,0,0:0:0:0:
421,172,50470,1,0,0:0:0:0:
470,172,50654,1,8,0:0:0:0:
420,189,50838,1,8,0:0:0:0:
445,164,51022,1,0,0:0:0:0:
428,208,51298,1,0,0:0:0:0:
389,182,51390,1,8,0:0:0:0:
437,174,51574,1,0,0:0:0:0:
405,176,51759,1,8,0:0:0:0:
414,166,51851,1,8,0:0:0:0:
446,177,51943,1,0,0:0:0:0:
417,171,52127,1,8,0:0:0:0:
463,174,52311,1,0,0:0:0:0:
431,215,52403,1,8,0:0:0:0:
413,154,52495,1,0,0:0:0:0:
454,198,52771,1,8,0:0:0:0:
332,179,52863,1,0,0:0:0:0:
367,181,53047,1,8,0:0:0:0:
451,237,53231,1,0,0:0:0:0:
451,237,53323,1,0,0:0:0:0:
431,198,53415,1,8,0:0:0:0:
437,174,53599,1,0,0:0:0:0:
450,186,53783,1,8,0:0:0:0:
414,212,53967,1,0,0:0:0:0:
440,170,54059,1,8,0:0:0:0:
440,170,54151,1,8,0:0:0:0:
409,170,54335,1,0,0:0:0:0:
480,195,54519,1,8,0:0:0:0:
480,195,54611,1,8,0:0:0:0:
429,187,54703,1,0,0:0:0:0:
412,183,54887,1,8,0:0:0:0:
445,178,54979,1,0,0:0:0:0:
460,180,55071,1,8,0:0:0:0:
458,180,55163,1,8,0:0:0:0:
431,171,55255,1,0,0:0:0:0:
466,167,55439,1,12,0:0:0:0:
427,176,55808,1,0,0:0:0:0:
451,183,55992,1,0,0:0:0:0:
475,180,56084,1,0,0:0:0:0:
462,166,56176,1,8,0:0:0:0:
458,166,56360,1,8,0:0:0:0:
454,166,56544,1,0,0:0:0:0:
462,220,56728,1,8,0:0:0:0:
440,177,56912,1,0,0:0:0:0:
430,235,57004,1,0,0:0:0:0:
470,219,57096,1,0,0:0:0:0:
481,176,57280,1,8,0:0:0:0:
430,175,57464,1,8,0:0:0:0:
430,174,57556,1,8,0:0:0:0:
420,183,57648,1,0,0:0:0:0:
384,179,57740,1,8,0:0:0:0:
407,164,57832,1,0,0:0:0:0:
447,225,58016,1,0,0:0:0:0:
466,174,58200,1,8,0:0:0:0:
423,188,58384,1,4,0:0:0:0:
419,189,58752,1,0,0:0:0:0:
396,174,58936,1,8,0:0:0:0:
333,180,59120,1,8,0:0:0:0:
417,174,59305,1,0,0:0:0:0:
434,175,59489,1,0,0:0:0:0:
458,189,59673,1,12,0:0:0:0:
477,155,59857,1,0,0:0:0:0:
443,175,60041,1,8,0:0:0:0:
443,175,60225,1,8,0:0:0:0:
420,171,60409,1,0,0:0:0:0:
419,171,60501,1,0,0:0:0:0:
434,170,60593,1,8,0:0:0:0:
434,170,60777,1,8,0:0:0:0:
431,169,60961,1,0,0:0:0:0:
430,171,61145,1,8,0:0:0:0:
429,179,61329,1,4,0:0:0:0:
436,191,61697,1,0,0:0:0:0:
436,191,61881,1,0,0:0:0:0:
449,182,62065,1,8,0:0:0:0:
435,175,62433,1,0,0:0:0:0:
434,176,62617,1,0,0:0:0:0:
463,179,62986,1,8,0:0:0:0:
460,181,63170,1,0,0:0:0:0:
470,147,63354,1,0,0:0:0:0:
467,169,63538,1,8,0:0:0:0:
482,163,63906,1,0,0:0:0:0:
475,163,64090,1,8,0:0:0:0:
465,178,64274,1,0,0:0:0:0:
475,204,64458,1,0,0:0:0:0:
457,158,64826,1,8,0:0:0:0:
475,163,65010,1,0,0:0:0:0:
457,158,65378,1,0,0:0:0:0:
457,158,65562,1,12,0:0:0:0:
451,202,65746,1,0,0:0:0:0:
482,181,65930,1,0,0:0:0:0:
469,171,66114,1,8,0:0:0:0:
495,169,66298,1,0,0:0:0:0:
493,170,66482,1,0,0:0:0:0:
493,170,66666,1,0,0:0:0:0:
493,170,66851,1,0,0:0:0:0:
475,178,66943,1,0,0:0:0:0:
493,170,67035,1,0,0:0:0:0:
475,178,67127,1,0,0:0:0:0:
438,187,67219,1,12,0:0:0:0:
472,175,67403,1,8,0:0:0:0:
472,174,67495,1,8,0:0:0:0:
437,165,67587,1,0,0:0:0:0:
448,244,67771,1,4,0:0:0:0:
464,204,67955,1,0,0:0:0:0:
464,203,68047,1,0,0:0:0:0:
450,201,68139,1,8,0:0:0:0:
451,211,68231,1,8,0:0:0:0:
464,203,68323,1,0,0:0:0:0:
438,187,68507,1,12,0:0:0:0:
486,183,68691,1,0,0:0:0:0:
486,183,68875,1,0,0:0:0:0:
486,183,69059,1,0,0:0:0:0:
383,174,69151,1,0,0:0:0:0:
420,222,69243,1,12,0:0:0:0:
481,170,69427,5,8,0:0:0:0:
426,174,69519,1,0,0:0:0:0:
426,174,69611,1,8,0:0:0:0:
446,197,69703,1,0,0:0:0:0:
428,180,69795,1,0,0:0:0:0:
426,174,69887,1,0,0:0:0:0:
411,180,69979,1,8,0:0:0:0:
359,171,70071,1,8,0:0:0:0:
391,229,70163,1,0,0:0:0:0:
487,177,70347,1,0,0:0:0:0:
487,177,70439,1,0,0:0:0:0:
441,166,70532,1,8,0:0:0:0:
349,217,70624,1,0,0:0:0:0:
443,177,70716,1,0,0:0:0:0:
443,177,70808,1,0,0:0:0:0:
408,175,70900,1,8,0:0:0:0:
390,259,70992,1,8,0:0:0:0:
379,181,71084,1,0,0:0:0:0:
379,180,71176,1,0,0:0:0:0:
408,175,71268,1,8,0:0:0:0:
456,177,71360,1,0,0:0:0:0:
408,175,71452,1,8,0:0:0:0:
339,215,71636,1,4,0:0:0:0:
402,181,71820,1,0,0:0:0:0:
434,165,71912,1,0,0:0:0:0:
384,171,72004,1,8,0:0:0:0:
384,171,72188,1,8,0:0:0:0:
365,165,72280,1,0,0:0:0:0:
456,177,72372,1,8,0:0:0:0:
359,207,72464,1,8,0:0:0:0:
372,172,72556,1,0,0:0:0:0:
402,181,72740,1,12,0:0:0:0:
374,187,73108,1,4,0:0:0:0:
416,180,73476,1,8,0:0:0:0:
472,170,73660,1,0,0:0:0:0:
392,192,73844,1,0,0:0:0:0:
429,180,74028,1,0,0:0:0:0:
412,192,74212,1,8,0:0:0:0:
449,160,74397,1,0,0:0:0:0:
449,160,74489,1,0,0:0:0:0:
422,176,74581,1,8,0:0:0:0:
427,169,74765,1,0,0:0:0:0:
441,160,74949,1,8,0:0:0:0:
415,165,75133,1,4,0:0:0:0:
470,180,75317,1,8,0:0:0:0:
470,180,75409,1,8,0:0:0:0:
470,180,75501,1,8,0:0:0:0:
470,180,75593,1,8,0:0:0:0:
440,171,75685,1,0,0:0:0:0:
440,171,75777,1,0,0:0:0:0:
426,175,75869,1,8,0:0:0:0:
389,193,75961,1,8,0:0:0:0:
344,177,76053,1,4,0:0:0:0:
434,211,76237,1,0,0:0:0:0:
470,180,76605,1,0,0:0:0:0:
454,199,76789,1,8,0:0:0:0:
371,209,77157,1,0,0:0:0:0:
418,174,77341,1,8,0:0:0:0:
447,175,77525,1,0,0:0:0:0:
479,171,77709,1,8,0:0:0:0:
479,171,77801,1,8,0:0:0:0:
453,171,77893,1,0,0:0:0:0:
459,184,78077,1,0,0:0:0:0:
474,163,78261,1,8,0:0:0:0:
446,172,78445,1,0,0:0:0:0:
447,182,78629,1,12,0:0:0:0:
453,173,78997,1,4,0:0:0:0:
450,177,79181,1,0,0:0:0:0:
458,181,79549,1,0,0:0:0:0:
494,183,79733,1,8,0:0:0:0:
470,165,80102,1,0,0:0:0:0:
438,169,80286,1,8,0:0:0:0:
456,223,80470,1,8,0:0:0:0:
426,165,80654,1,0,0:0:0:0:
459,168,80838,1,8,0:0:0:0:
454,172,81022,1,0,0:0:0:0:
454,172,81114,1,0,0:0:0:0:
416,192,81206,1,8,0:0:0:0:
468,182,81298,1,8,0:0:0:0:
403,169,81390,1,0,0:0:0:0:
434,186,81574,1,12,0:0:0:0:
471,148,81758,1,8,0:0:0:0:
443,170,81942,1,4,0:0:0:0:
447,155,82126,1,0,0:0:0:0:
456,170,82494,1,0,0:0:0:0:
435,165,82678,1,8,0:0:0:0:
435,164,83046,1,8,0:0:0:0:
467,184,83230,1,8,0:0:0:0:
486,163,83414,1,0,0:0:0:0:
486,162,83599,1,0,0:0:0:0:
486,162,83691,1,0,0:0:0:0:
476,159,83783,1,8,0:0:0:0:
458,164,83967,1,0,0:0:0:0:
448,160,84151,1,4,0:0:0:0:
480,192,84335,1,8,0:0:0:0:
459,164,84427,1,0,0:0:0:0:
441,164,84519,1,8,0:0:0:0:
440,164,84703,1,8,0:0:0:0:
476,164,84887,1,4,0:0:0:0:
399,210,85071,1,0,0:0:0:0:
459,164,85439,1,0,0:0:0:0:
440,164,85623,1,8,0:0:0:0:
438,187,85991,1,0,0:0:0:0:
458,170,86175,1,8,0:0:0:0:
458,169,86267,1,8,0:0:0:0:
437,175,86359,1,0,0:0:0:0:
437,175,86543,1,0,0:0:0:0:
416,192,86727,1,8,0:0:0:0:
423,166,86911,1,0,0:0:0:0:
448,192,87095,1,12,0:0:0:0:
344,183,87464,1,0,0:0:0:0:
416,160,87648,1,8,0:0:0:0:
480,160,87740,1,8,0:0:0:0:
448,160,87832,1,4,0:0:0:0:
384,160,88200,1,8,0:0:0:0:
480,160,88384,1,0,0:0:0:0:
480,160,88476,1,0,0:0:0:0:
480,160,88568,1,0,0:0:0:0:
480,160,88752,1,0,0:0:0:0:
448,160,88936,1,8,0:0:0:0:
448,192,89120,1,8,0:0:0:0:
448,160,89304,1,0,0:0:0:0:
448,160,89488,1,8,0:0:0:0:
416,160,89672,1,0,0:0:0:0:
416,160,89856,1,0,0:0:0:0:
416,160,89948,1,0,0:0:0:0:
416,160,90040,1,8,0:0:0:0:
416,160,90132,1,8,0:0:0:0:
416,192,90224,1,0,0:0:0:0:
416,160,90408,1,8,0:0:0:0:
416,160,90592,1,8,0:0:0:0:
448,160,90776,1,4,0:0:0:0:
448,160,91145,1,8,0:0:0:0:
448,160,91329,1,0,0:0:0:0:
448,160,91513,1,0,0:0:0:0:
448,160,91605,1,0,0:0:0:0:
448,160,91697,1,0,0:0:0:0:
480,160,91881,1,8,0:0:0:0:
480,160,92065,1,8,0:0:0:0:
480,160,92157,1,8,0:0:0:0:
448,160,92249,1,0,0:0:0:0:
448,160,92433,1,0,0:0:0:0:
448,160,92617,1,8,0:0:0:0:
416,192,92709,1,8,0:0:0:0:
416,192,92801,1,8,0:0:0:0:
416,192,92893,1,8,0:0:0:0:
448,192,92985,1,0,0:0:0:0:
448,160,93169,1,0,0:0:0:0:
416,160,93353,1,8,0:0:0:0:
416,160,93537,1,8,0:0:0:0:
448,160,93721,1,4,0:0:0:0:
416,192,94089,1,8,0:0:0:0:
416,160,94273,1,0,0:0:0:0:
416,160,94365,1,0,0:0:0:0:
384,192,94457,1,8,0:0:0:0:
448,192,94641,1,0,0:0:0:0:
416,192,94826,1,8,0:0:0:0:
416,160,95010,1,0,0:0:0:0:
416,192,95194,1,8,0:0:0:0:
416,192,95286,1,8,0:0:0:0:
416,160,95378,1,0,0:0:0:0:
416,160,95562,1,8,0:0:0:0:
448,160,95746,1,0,0:0:0:0:
448,160,95838,1,0,0:0:0:0:
416,160,95930,1,8,0:0:0:0:
416,160,96022,1,8,0:0:0:0:
416,160,96114,1,8,0:0:0:0:
416,160,96206,1,8,0:0:0:0:
416,160,96298,1,0,0:0:0:0:
416,160,96390,1,0,0:0:0:0:
416,160,96482,1,0,0:0:0:0:
416,160,96666,1,12,0:0:0:0:
448,160,96850,1,0,0:0:0:0:
448,160,97034,1,12,0:0:0:0:
448,192,97218,1,0,0:0:0:0:
448,192,97310,1,0,0:0:0:0:
416,160,97402,1,8,0:0:0:0:
480,160,97586,1,0,0:0:0:0:
480,160,97770,1,0,0:0:0:0:
448,160,97954,1,12,0:0:0:0:
448,192,98138,1,0,0:0:0:0:
448,192,98322,1,0,0:0:0:0:
448,192,98414,1,0,0:0:0:0:
480,160,98506,1,8,0:0:0:0:
480,192,98599,1,0,0:0:0:0:
448,192,98691,1,8,0:0:0:0:
448,160,98783,1,8,0:0:0:0:
416,192,98875,1,0,0:0:0:0:
480,160,99059,1,0,0:0:0:0:
398,191,99151,1,0,0:0:0:0:
354,197,99243,1,0,0:0:0:0:
354,197,99335,1,0,0:0:0:0:
420,173,99427,1,8,0:0:0:0:
416,160,99519,1,8,0:0:0:0:
416,160,99611,1,4,0:0:0:0:
385,151,99979,1,8,0:0:0:0:
327,172,100163,1,0,0:0:0:0:
327,172,100255,1,0,0:0:0:0:
416,178,100347,1,8,0:0:0:0:
357,187,100531,1,0,0:0:0:0:
400,189,100715,1,8,0:0:0:0:
400,189,100899,1,8,0:0:0:0:
422,184,100991,1,0,0:0:0:0:
384,171,101083,1,8,0:0:0:0:
384,171,101175,1,8,0:0:0:0:
385,180,101267,1,0,0:0:0:0:
400,189,101451,1,8,0:0:0:0:
457,154,101635,1,0,0:0:0:0:
457,154,101727,1,0,0:0:0:0:
328,167,101819,1,8,0:0:0:0:
405,172,102003,1,0,0:0:0:0:
459,180,102187,1,8,0:0:0:0:
457,154,102279,1,8,0:0:0:0:
472,175,102372,1,0,0:0:0:0:
395,162,102556,1,12,0:0:0:0:
429,177,102924,1,8,0:0:0:0:
462,186,103016,1,8,0:0:0:0:
466,171,103108,1,0,0:0:0:0:
466,170,103200,1,0,0:0:0:0:
365,165,103292,1,8,0:0:0:0:
390,170,103476,1,0,0:0:0:0:
403,164,103660,1,8,0:0:0:0:
403,163,103844,1,8,0:0:0:0:
403,164,103936,1,8,0:0:0:0:
419,167,104028,1,0,0:0:0:0:
466,159,104212,1,0,0:0:0:0:
466,159,104304,1,0,0:0:0:0:
453,159,104396,1,8,0:0:0:0:
429,160,104580,1,0,0:0:0:0:
372,158,104764,1,8,0:0:0:0:
403,163,104856,1,0,0:0:0:0:
403,164,104948,1,0,0:0:0:0:
407,167,105040,1,0,0:0:0:0:
418,173,105132,1,8,0:0:0:0:
416,172,105316,1,8,0:0:0:0:
450,216,105408,1,8,0:0:0:0:
400,169,105500,1,4,0:0:0:0:
463,181,105868,1,8,0:0:0:0:
443,175,106052,1,0,0:0:0:0:
443,174,106145,1,0,0:0:0:0:
361,175,106237,1,8,0:0:0:0:
361,175,106421,1,0,0:0:0:0:
418,173,106605,1,8,0:0:0:0:
414,173,106697,1,8,0:0:0:0:
414,172,106789,1,8,0:0:0:0:
429,178,106973,1,4,0:0:0:0:
408,169,107157,1,0,0:0:0:0:
464,189,107341,1,8,0:0:0:0:
408,168,107433,1,0,0:0:0:0:
463,175,107525,1,8,0:0:0:0:
463,175,107617,1,8,0:0:0:0:
390,174,107709,1,0,0:0:0:0:
384,174,107893,1,0,0:0:0:0:
428,174,108077,1,8,0:0:0:0:
465,226,108169,1,8,0:0:0:0:
425,177,108261,1,8,0:0:0:0:
423,177,108353,1,8,0:0:0:0:
385,179,108445,1,4,0:0:0:0:
463,175,108629,1,0,0:0:0:0:
460,175,108813,1,8,0:0:0:0:
445,173,108997,1,0,0:0:0:0:
445,172,109089,1,0,0:0:0:0:
390,187,109181,1,8,0:0:0:0:
433,173,109365,1,0,0:0:0:0:
392,176,109549,1,8,0:0:0:0:
500,183,109641,1,8,0:0:0:0:
475,170,109733,1,0,0:0:0:0:
422,171,109826,1,0,0:0:0:0:
475,165,109918,1,8,0:0:0:0:
445,172,110102,1,8,0:0:0:0:
392,176,110286,1,0,0:0:0:0:
392,176,110470,1,0,0:0:0:0:
352,192,110562,1,8,0:0:0:0:
384,192,110654,1,8,0:0:0:0:
359,170,110746,1,0,0:0:0:0:
445,172,110838,1,8,0:0:0:0:
445,173,111022,1,0,0:0:0:0:
416,256,111114,1,0,0:0:0:0:
452,171,111206,1,8,0:0:0:0:
479,159,111390,1,4,0:0:0:0:
457,150,111758,1,8,0:0:0:0:
466,155,111942,1,0,0:0:0:0:
369,159,112126,1,0,0:0:0:0:
380,205,112218,1,0,0:0:0:0:
378,162,112310,1,0,0:0:0:0:
378,162,112402,1,0,0:0:0:0:
411,169,112494,1,8,0:0:0:0:
451,264,112678,1,8,0:0:0:0:
442,168,112862,1,8,0:0:0:0:
424,173,112954,1,0,0:0:0:0:
424,173,113046,1,0,0:0:0:0:
424,172,113138,1,0,0:0:0:0:
398,163,113230,1,8,0:0:0:0:
432,164,113414,1,0,0:0:0:0:
439,180,113506,1,0,0:0:0:0:
409,174,113599,1,8,0:0:0:0:
406,178,113783,1,8,0:0:0:0:
416,192,113875,1,8,0:0:0:0:
412,178,113967,1,0,0:0:0:0:
440,165,114151,1,0,0:0:0:0:
421,180,114243,1,0,0:0:0:0:
409,164,114335,1,12,0:0:0:0:
482,209,114703,1,0,0:0:0:0:
482,209,114887,1,0,0:0:0:0:
451,182,115071,1,8,0:0:0:0:
461,180,115255,1,8,0:0:0:0:
461,180,115347,1,8,0:0:0:0:
459,175,115439,1,0,0:0:0:0:
397,167,115623,1,8,0:0:0:0:
437,184,115807,1,0,0:0:0:0:
435,179,115899,1,8,0:0:0:0:
435,178,115991,1,8,0:0:0:0:
435,178,116175,1,8,0:0:0:0:
420,176,116267,1,0,0:0:0:0:
452,177,116359,1,8,0:0:0:0:
418,176,116543,1,0,0:0:0:0:
418,176,116635,1,0,0:0:0:0:
437,184,116727,1,8,0:0:0:0:
457,173,116819,1,8,0:0:0:0:
441,166,116911,1,0,0:0:0:0:
444,172,117095,1,8,0:0:0:0:
449,186,117279,1,4,0:0:0:0:
353,160,117648,1,8,0:0:0:0:
452,166,117740,1,0,0:0:0:0:
382,170,117832,1,8,0:0:0:0:
417,166,117924,1,8,0:0:0:0:
429,162,118016,1,0,0:0:0:0:
426,162,118200,1,0,0:0:0:0:
405,164,118384,1,8,0:0:0:0:
412,167,118568,1,0,0:0:0:0:
424,170,118660,1,0,0:0:0:0:
400,171,118752,1,8,0:0:0:0:
451,168,118936,1,0,0:0:0:0:
464,180,119120,1,8,0:0:0:0:
476,163,119304,1,0,0:0:0:0:
447,216,119396,1,0,0:0:0:0:
465,169,119488,1,8,0:0:0:0:
434,169,119580,1,0,0:0:0:0:
446,170,119672,1,8,0:0:0:0:
451,168,119764,1,8,0:0:0:0:
461,166,119856,1,0,0:0:0:0:
426,180,119948,1,0,0:0:0:0:
462,149,120040,1,8,0:0:0:0:
436,164,120224,1,4,0:0:0:0:
463,169,120592,1,8,0:0:0:0:
463,169,120776,1,8,0:0:0:0:
463,169,120960,1,8,0:0:0:0:
463,169,121145,1,8,0:0:0:0:
463,169,121329,1,8,0:0:0:0:
463,169,121513,1,8,0:0:0:0:
456,183,121697,1,12,0:0:0:0:
444,169,122065,1,0,0:0:0:0:
424,195,122249,1,8,0:0:0:0:
423,195,122617,1,8,0:0:0:0:
420,184,122801,1,0,0:0:0:0:
416,192,123169,1,4,0:0:0:0:
388,160,123537,1,8,0:0:0:0:
388,160,123721,1,8,0:0:0:0:
454,156,123813,1,0,0:0:0:0:
454,156,123905,1,0,0:0:0:0:
449,155,124089,1,0,0:0:0:0:
429,142,124273,1,8,0:0:0:0:
429,144,124457,1,8,0:0:0:0:
429,143,124549,1,8,0:0:0:0:
419,172,124641,1,0,0:0:0:0:
469,177,124826,1,8,0:0:0:0:
445,159,124918,1,0,0:0:0:0:
469,176,125010,1,8,0:0:0:0:
445,159,125194,1,0,0:0:0:0:
440,170,125286,1,0,0:0:0:0:
413,172,125378,1,8,0:0:0:0:
411,171,125470,1,8,0:0:0:0:
396,171,125562,1,0,0:0:0:0:
416,149,125746,1,8,0:0:0:0:
397,166,126114,1,4,0:0:0:0:
455,180,126482,1,8,0:0:0:0:
470,182,126666,1,0,0:0:0:0:
470,183,126758,1,0,0:0:0:0:
468,181,126850,1,0,0:0:0:0:
418,177,127034,1,8,0:0:0:0:
437,178,127218,1,0,0:0:0:0:
419,175,127402,1,8,0:0:0:0:
363,172,127494,1,0,0:0:0:0:
418,177,127586,1,8,0:0:0:0:
470,183,127770,1,0,0:0:0:0:
460,174,127954,1,8,0:0:0:0:
460,173,128046,1,8,0:0:0:0:
437,178,128138,1,0,0:0:0:0:
432,163,128230,1,0,0:0:0:0:
411,161,128322,1,8,0:0:0:0:
454,162,128506,1,0,0:0:0:0:
454,162,128691,1,0,0:0:0:0:
454,161,128783,1,0,0:0:0:0:
420,161,128875,1,8,0:0:0:0:
427,158,129059,1,4,0:0:0:0:
407,165,129427,1,8,0:0:0:0:
407,165,129611,1,8,0:0:0:0:
416,177,129703,1,0,0:0:0:0:
416,177,129795,1,0,0:0:0:0:
383,175,129979,1,8,0:0:0:0:
411,175,130163,1,0,0:0:0:0:
390,165,130347,1,8,0:0:0:0:
390,165,130439,1,8,0:0:0:0:
368,161,130531,1,0,0:0:0:0:
368,161,130715,1,0,0:0:0:0:
360,181,130899,1,8,0:0:0:0:
360,181,130991,1,8,0:0:0:0:
360,181,131083,1,8,0:0:0:0:
429,173,131175,1,8,0:0:0:0:
390,165,131267,1,0,0:0:0:0:
390,165,131451,1,0,0:0:0:0:
384,166,131543,1,0,0:0:0:0:
389,176,131635,1,8,0:0:0:0:
436,197,131819,1,0,0:0:0:0:
429,173,132003,1,12,0:0:0:0:
414,170,132187,1,0,0:0:0:0:
414,170,132372,1,0,0:0:0:0:
452,160,132556,1,12,0:0:0:0:
445,179,132740,1,0,0:0:0:0:
445,179,132924,1,0,0:0:0:0:
448,192,133108,1,12,0:0:0:0:
416,192,133292,1,0,0:0:0:0:
448,192,133476,1,8,0:0:0:0:
445,179,133660,1,0,0:0:0:0:
445,179,133752,1,0,0:0:0:0:
416,192,133844,1,8,0:0:0:0:
448,192,134028,1,8,0:0:0:0:
416,192,134212,1,4,0:0:0:0:
406,169,134580,1,8,0:0:0:0:
428,172,134672,1,8,0:0:0:0:
432,175,134764,1,0,0:0:0:0:
331,207,134948,1,12,0:0:0:0:
434,184,135316,1,0,0:0:0:0:
416,192,135500,1,0,0:0:0:0:
416,192,135592,1,0,0:0:0:0:
480,192,135684,1,8,0:0:0:0:
448,192,135868,1,0,0:0:0:0:
448,160,136052,1,8,0:0:0:0:
448,160,136237,1,8,0:0:0:0:
384,192,136329,1,8,0:0:0:0:
416,192,136421,1,0,0:0:0:0:
416,160,136697,1,0,0:0:0:0:
448,128,136789,1,8,0:0:0:0:
416,192,136973,1,0,0:0:0:0:
480,160,137157,1,8,0:0:0:0:
480,160,137249,1,8,0:0:0:0:
448,160,137341,1,0,0:0:0:0:
416,160,137525,1,8,0:0:0:0:
416,160,137709,1,0,0:0:0:0:
416,160,137801,1,0,0:0:0:0:
416,160,137893,1,8,0:0:0:0:
512,192,138169,1,8,0:0:0:0:
448,160,138261,1,0,0:0:0:0:
480,160,138445,1,8,0:0:0:0:
480,160,138629,1,0,0:0:0:0:
480,160,138721,1,0,0:0:0:0:
416,160,138813,1,8,0:0:0:0:
480,192,138905,1,0,0:0:0:0:
416,160,138997,1,8,0:0:0:0:
448,160,139181,1,8,0:0:0:0:
320,160,139365,1,0,0:0:0:0:
416,160,139457,1,8,0:0:0:0:
416,160,139549,1,8,0:0:0:0:
448,160,139733,1,0,0:0:0:0:
448,160,139918,1,8,0:0:0:0:
448,192,140010,1,0,0:0:0:0:
448,160,140102,1,8,0:0:0:0:
448,160,140286,1,0,0:0:0:0:
448,160,140378,1,0,0:0:0:0:
480,160,140470,1,8,0:0:0:0:
384,160,140562,1,8,0:0:0:0:
448,160,140654,1,0,0:0:0:0:
448,160,140838,1,4,0:0:0:0:
512,160,141206,1,8,0:0:0:0:
384,160,141390,1,0,0:0:0:0:
480,160,141574,1,0,0:0:0:0:
480,160,141666,1,0,0:0:0:0:
416,160,141758,1,8,0:0:0:0:
416,160,141942,1,0,0:0:0:0:
448,160,142126,1,8,0:0:0:0:
448,160,142218,1,0,0:0:0:0:
416,160,142310,1,8,0:0:0:0:
416,160,142402,1,8,0:0:0:0:
448,160,142494,1,0,0:0:0:0:
448,160,142678,1,8,0:0:0:0:
448,160,142862,1,0,0:0:0:0:
448,160,142954,1,0,0:0:0:0:
416,160,143046,1,8,0:0:0:0:
416,160,143138,1,8,0:0:0:0:
416,160,143230,1,0,0:0:0:0:
416,160,143414,1,0,0:0:0:0:
448,160,143599,1,8,0:0:0:0:
448,160,143783,1,4,0:0:0:0:
448,192,144151,1,8,0:0:0:0:
480,160,144335,1,0,0:0:0:0:
480,160,144427,1,0,0:0:0:0:
448,160,144519,1,8,0:0:0:0:
448,192,144703,1,0,0:0:0:0:
480,192,144887,1,0,0:0:0:0:
448,192,145071,1,12,0:0:0:0:
448,192,145255,1,0,0:0:0:0:
480,160,145347,1,8,0:0:0:0:
480,160,145439,1,8,0:0:0:0:
448,192,145623,1,0,0:0:0:0:
448,160,145807,1,8,0:0:0:0:
448,160,145899,1,0,0:0:0:0:
448,160,145991,1,8,0:0:0:0:
392,179,146083,1,8,0:0:0:0:
448,192,146175,1,8,0:0:0:0:
448,160,146359,1,0,0:0:0:0:
416,188,146543,1,8,0:0:0:0:
448,160,146727,1,4,0:0:0:0:
372,195,147095,1,0,0:0:0:0:
436,191,147279,1,0,0:0:0:0:
449,182,147464,1,8,0:0:0:0:
435,175,147832,1,0,0:0:0:0:
434,176,148016,1,0,0:0:0:0:
463,179,148384,1,8,0:0:0:0:
460,181,148568,1,0,0:0:0:0:
470,147,148752,1,0,0:0:0:0:
467,169,148936,1,8,0:0:0:0:
482,163,149304,1,0,0:0:0:0:
475,163,149488,1,8,0:0:0:0:
448,160,149672,1,8,0:0:0:0:
417,265,149856,1,0,0:0:0:0:
416,160,150040,1,0,0:0:0:0:
457,158,150224,1,8,0:0:0:0:
434,286,150592,1,0,0:0:0:0:
384,256,150776,1,0,0:0:0:0:
457,158,150960,1,12,0:0:0:0:
451,202,151145,1,0,0:0:0:0:
482,181,151329,1,0,0:0:0:0:
469,171,151513,1,8,0:0:0:0:
495,169,151697,1,0,0:0:0:0:
493,170,151881,1,0,0:0:0:0:
493,170,152065,1,0,0:0:0:0:
493,170,152249,1,0,0:0:0:0:
475,178,152341,1,0,0:0:0:0:
493,170,152433,1,0,0:0:0:0:
475,178,152525,1,0,0:0:0:0:
348,168,152617,1,12,0:0:0:0:
448,192,152801,1,0,0:0:0:0:
448,192,152893,1,0,0:0:0:0:
448,160,152985,1,8,0:0:0:0:
480,192,153169,1,8,0:0:0:0:
448,160,153261,1,0,0:0:0:0:
416,160,153353,1,8,0:0:0:0:
429,177,153445,1,8,0:0:0:0:
416,192,153537,1,0,0:0:0:0:
480,160,153629,1,8,0:0:0:0:
448,160,153721,1,0,0:0:0:0:
480,160,153905,1,4,0:0:0:0:
443,245,154273,1,0,0:0:0:0:
480,192,154365,1,0,0:0:0:0:
448,160,154457,1,8,0:0:0:0:
448,160,154641,1,8,0:0:0:0:
448,160,154733,1,0,0:0:0:0:
448,160,154826,1,8,0:0:0:0:
448,160,154918,1,8,0:0:0:0:
416,160,155010,1,0,0:0:0:0:
416,160,155102,1,0,0:0:0:0:
480,192,155194,1,8,0:0:0:0:
480,192,155378,1,8,0:0:0:0:
448,160,155470,1,8,0:0:0:0:
480,160,155562,1,0,0:0:0:0:
480,160,155654,1,0,0:0:0:0:
480,160,155746,1,0,0:0:0:0:
480,160,155838,1,0,0:0:0:0:
416,160,155930,1,8,0:0:0:0:
480,160,156022,1,0,0:0:0:0:
448,192,156114,1,0,0:0:0:0:
448,192,156206,1,0,0:0:0:0:
448,160,156298,1,8,0:0:0:0:
448,160,156390,1,0,0:0:0:0:
384,160,156482,1,8,0:0:0:0:
448,160,156574,1,8,0:0:0:0:
416,160,156666,1,0,0:0:0:0:
416,160,156758,1,0,0:0:0:0:
448,160,156850,1,8,0:0:0:0:
416,160,157034,1,4,0:0:0:0:
448,192,157218,1,8,0:0:0:0:
448,192,157402,1,8,0:0:0:0:
416,160,157586,1,0,0:0:0:0:
416,160,157678,1,0,0:0:0:0:
384,160,157770,1,8,0:0:0:0:
416,160,157862,1,8,0:0:0:0:
384,160,157954,1,0,0:0:0:0:
416,160,158138,1,12,0:0:0:0:
448,160,158506,1,4,0:0:0:0:
416,192,158875,1,8,0:0:0:0:
448,192,159059,1,0,0:0:0:0:
448,192,159151,1,0,0:0:0:0:
416,160,159243,1,8,0:0:0:0:
430,237,159427,1,0,0:0:0:0:
448,160,159611,1,8,0:0:0:0:
480,224,159795,1,8,0:0:0:0:
480,224,159887,1,8,0:0:0:0:
416,160,159979,1,0,0:0:0:0:
416,160,160163,1,0,0:0:0:0:
512,192,160347,1,8,0:0:0:0:
416,160,160531,1,4,0:0:0:0:
448,160,160715,1,8,0:0:0:0:
448,192,160807,1,0,0:0:0:0:
448,192,160899,1,8,0:0:0:0:
448,192,160991,1,8,0:0:0:0:
480,192,161083,1,0,0:0:0:0:
480,160,161175,1,0,0:0:0:0:
448,192,161267,1,8,0:0:0:0:
448,160,161359,1,8,0:0:0:0:
448,192,161451,1,4,0:0:0:0:
480,192,161819,1,8,0:0:0:0:
448,192,161911,1,0,0:0:0:0:
448,192,162003,1,0,0:0:0:0:
448,192,162095,1,0,0:0:0:0:
416,192,162187,1,8,0:0:0:0:
418,271,162371,1,0,0:0:0:0:
416,192,162555,1,8,0:0:0:0:
416,192,162739,1,8,0:0:0:0:
416,192,162831,1,8,0:0:0:0:
384,160,162923,1,0,0:0:0:0:
384,160,163107,1,0,0:0:0:0:
384,192,163199,1,0,0:0:0:0:
384,192,163291,1,8,0:0:0:0:
352,192,163475,1,0,0:0:0:0:
384,192,163659,1,8,0:0:0:0:
448,160,163751,1,0,0:0:0:0:
416,160,163843,1,8,0:0:0:0:
416,160,163935,1,8,0:0:0:0:
448,192,164027,1,0,0:0:0:0:
416,192,164211,1,8,0:0:0:0:
384,192,164395,1,4,0:0:0:0:
384,192,164763,1,8,0:0:0:0:
448,160,164947,1,8,0:0:0:0:
448,160,165039,1,8,0:0:0:0:
448,160,165131,1,0,0:0:0:0:
448,160,165316,1,0,0:0:0:0:
416,192,165500,1,8,0:0:0:0:
448,160,165684,1,0,0:0:0:0:
416,192,165776,1,0,0:0:0:0:
448,160,165868,1,8,0:0:0:0:
448,160,165960,1,0,0:0:0:0:
448,160,166052,1,8,0:0:0:0:
448,160,166144,1,8,0:0:0:0:
480,160,166236,1,0,0:0:0:0:
448,192,166420,1,0,0:0:0:0:
448,192,166512,1,0,0:0:0:0:
448,160,166604,1,8,0:0:0:0:
416,160,166788,1,0,0:0:0:0:
416,160,166972,1,8,0:0:0:0:
416,192,167064,1,0,0:0:0:0:
416,160,167156,1,8,0:0:0:0:
416,160,167340,1,4,0:0:0:0:
403,223,167524,1,0,0:0:0:0:
416,160,167708,1,8,0:0:0:0:
448,256,167800,1,0,0:0:0:0:
448,160,167892,1,0,0:0:0:0:
448,160,167984,1,0,0:0:0:0:
480,192,168076,1,8,0:0:0:0:
448,160,168260,1,0,0:0:0:0:
448,160,168444,1,8,0:0:0:0:
448,160,168536,1,0,0:0:0:0:
480,160,168628,1,8,0:0:0:0:
384,192,168812,1,4,0:0:0:0:
448,160,168997,1,0,0:0:0:0:
448,160,169089,1,0,0:0:0:0:
448,160,169181,1,8,0:0:0:0:
480,160,169365,1,0,0:0:0:0:
480,160,169549,1,0,0:0:0:0:
480,160,169641,1,0,0:0:0:0:
480,160,169733,1,0,0:0:0:0:
475,165,169825,1,0,0:0:0:0:
448,160,169917,1,8,0:0:0:0:
448,160,170101,1,8,0:0:0:0:
418,160,170285,1,4,0:0:0:0:
492,172,170653,1,8,0:0:0:0:
492,172,170837,1,8,0:0:0:0:
492,171,170929,1,8,0:0:0:0:
463,165,171021,1,0,0:0:0:0:
463,165,171205,1,0,0:0:0:0:
446,170,171389,1,8,0:0:0:0:
441,172,171573,1,0,0:0:0:0:
439,172,171665,1,0,0:0:0:0:
429,174,171757,1,8,0:0:0:0:
451,177,171849,1,8,0:0:0:0:
449,165,171941,1,0,0:0:0:0:
424,169,172125,1,8,0:0:0:0:
469,169,172309,1,0,0:0:0:0:
482,165,172401,1,8,0:0:0:0:
481,165,172493,1,8,0:0:0:0:
474,166,172677,1,0,0:0:0:0:
452,210,172770,1,0,0:0:0:0:
446,171,172862,1,8,0:0:0:0:
402,181,172954,1,0,0:0:0:0:
441,160,173046,1,8,0:0:0:0:
441,160,173138,1,8,0:0:0:0:
428,171,173230,1,4,0:0:0:0:
449,186,173598,1,8,0:0:0:0:
449,186,173782,1,8,0:0:0:0:
438,183,173874,1,8,0:0:0:0:
460,177,173966,1,0,0:0:0:0:
467,172,174150,1,0,0:0:0:0:
466,171,174242,1,0,0:0:0:0:
423,175,174334,1,8,0:0:0:0:
462,221,174518,1,8,0:0:0:0:
462,171,174702,1,0,0:0:0:0:
461,172,174794,1,0,0:0:0:0:
469,175,174886,1,0,0:0:0:0:
469,175,174978,1,0,0:0:0:0:
456,169,175070,1,8,0:0:0:0:
441,177,175254,1,8,0:0:0:0:
477,186,175346,1,0,0:0:0:0:
441,177,175438,1,8,0:0:0:0:
452,175,175622,1,0,0:0:0:0:
452,229,175714,1,0,0:0:0:0:
405,166,175806,1,8,0:0:0:0:
405,166,175898,1,8,0:0:0:0:
443,174,175990,1,0,0:0:0:0:
463,266,176174,1,4,0:0:0:0:
437,181,176543,1,8,0:0:0:0:
441,174,176635,1,0,0:0:0:0:
400,178,176727,1,8,0:0:0:0:
400,178,176819,1,8,0:0:0:0:
433,183,176911,1,0,0:0:0:0:
430,184,177095,1,0,0:0:0:0:
437,181,177279,1,8,0:0:0:0:
437,181,177463,1,0,0:0:0:0:
437,181,177555,1,0,0:0:0:0:
421,176,177647,1,8,0:0:0:0:
436,174,177831,1,0,0:0:0:0:
430,184,178015,1,8,0:0:0:0:
430,184,178107,1,8,0:0:0:0:
428,183,178199,1,8,0:0:0:0:
437,181,178291,1,8,0:0:0:0:
437,181,178383,1,0,0:0:0:0:
437,181,178567,1,0,0:0:0:0:
441,248,178659,1,0,0:0:0:0:
362,197,178751,1,8,0:0:0:0:
362,197,178935,1,8,0:0:0:0:
430,191,179119,1,4,0:0:0:0:
463,202,179487,1,8,0:0:0:0:
446,177,179671,1,0,0:0:0:0:
446,178,179763,1,0,0:0:0:0:
414,172,179855,1,8,0:0:0:0:
417,172,180039,1,0,0:0:0:0:
413,173,180224,1,0,0:0:0:0:
430,167,180408,1,8,0:0:0:0:
436,172,180500,1,0,0:0:0:0:
459,183,180592,1,8,0:0:0:0:
459,183,180684,1,8,0:0:0:0:
438,176,180776,1,0,0:0:0:0:
451,184,180960,1,8,0:0:0:0:
470,156,181144,1,0,0:0:0:0:
470,155,181236,1,0,0:0:0:0:
449,162,181328,1,8,0:0:0:0:
486,174,181420,1,0,0:0:0:0:
485,174,181512,1,0,0:0:0:0:
485,174,181604,1,0,0:0:0:0:
465,163,181696,1,8,0:0:0:0:
474,175,181788,1,8,0:0:0:0:
443,177,181880,1,0,0:0:0:0:
443,177,181972,1,0,0:0:0:0:
407,171,182064,1,8,0:0:0:0:
449,179,182248,1,8,0:0:0:0:
449,178,182432,1,8,0:0:0:0:
449,178,182616,1,8,0:0:0:0:
449,178,182800,1,8,0:0:0:0:
449,178,182984,1,8,0:0:0:0:
449,179,183168,1,8,0:0:0:0:
449,178,183352,1,8,0:0:0:0:
456,157,183536,1,4,0:0:0:0:
462,195,183720,1,0,0:0:0:0:
462,194,183812,1,0,0:0:0:0:
462,194,183904,1,0,0:0:0:0:
481,191,184089,1,0,0:0:0:0:
481,191,184181,1,0,0:0:0:0:
486,169,184273,1,8,0:0:0:0:
466,174,184457,1,8,0:0:0:0:
477,175,184641,1,8,0:0:0:0:
459,195,185009,1,4,0:0:0:0:
469,186,185377,1,0,0:0:0:0:
469,186,185561,1,0,0:0:0:0:
437,184,185745,1,8,0:0:0:0:
470,160,186113,1,0,0:0:0:0:
416,161,186297,1,8,0:0:0:0:
416,161,186389,1,8,0:0:0:0:
416,161,186481,1,8,0:0:0:0:
412,141,186665,1,8,0:0:0:0:
422,150,186849,1,0,0:0:0:0:
422,150,187033,1,0,0:0:0:0:
397,158,187217,1,8,0:0:0:0:
402,186,187401,1,0,0:0:0:0:
435,168,187585,1,12,0:0:0:0:
402,185,187954,1,4,0:0:0:0:
407,178,188322,1,8,0:0:0:0:
385,175,188506,1,0,0:0:0:0:
407,178,188690,1,8,0:0:0:0:
384,175,189058,1,0,0:0:0:0:
432,171,189242,1,8,0:0:0:0:
406,172,189426,1,0,0:0:0:0:
407,178,189610,1,0,0:0:0:0:
418,179,189794,1,8,0:0:0:0:
422,170,189978,1,4,0:0:0:0:
432,171,190254,1,0,0:0:0:0:
378,175,190346,1,0,0:0:0:0:
378,175,190438,1,0,0:0:0:0:
463,187,190530,1,8,0:0:0:0:
411,200,190622,1,8,0:0:0:0:
424,174,190714,1,0,0:0:0:0:
374,155,190898,1,4,0:0:0:0:
443,183,191266,1,0,0:0:0:0:
453,174,191450,1,0,0:0:0:0:
431,166,191635,1,8,0:0:0:0:
459,170,192003,1,0,0:0:0:0:
420,194,192187,1,8,0:0:0:0:
440,174,192371,1,0,0:0:0:0:
440,174,192555,1,0,0:0:0:0:
440,174,192647,1,0,0:0:0:0:
400,168,192739,1,8,0:0:0:0:
431,167,192923,1,0,0:0:0:0:
392,173,193107,1,12,0:0:0:0:
428,177,193475,1,8,0:0:0:0:
428,177,193567,1,8,0:0:0:0:
429,174,193659,1,0,0:0:0:0:
458,183,193843,1,4,0:0:0:0:
459,186,194027,1,0,0:0:0:0:
459,186,194119,1,0,0:0:0:0:
395,186,194211,1,8,0:0:0:0:
391,176,194395,1,0,0:0:0:0:
428,177,194579,1,8,0:0:0:0:
435,179,194671,1,0,0:0:0:0:
432,179,194763,1,0,0:0:0:0:
432,180,194855,1,0,0:0:0:0:
419,186,194947,1,8,0:0:0:0:
432,187,195131,1,0,0:0:0:0:
432,187,195224,1,0,0:0:0:0:
416,176,195316,1,8,0:0:0:0:
465,229,195408,1,8,0:0:0:0:
435,189,195500,1,0,0:0:0:0:
437,163,195592,1,0,0:0:0:0:
425,166,195684,1,8,0:0:0:0:
413,181,195868,1,8,0:0:0:0:
425,163,195960,1,0,0:0:0:0:
425,164,196052,1,8,0:0:0:0:
468,203,196144,1,8,0:0:0:0:
422,174,196236,1,0,0:0:0:0:
416,176,196328,1,0,0:0:0:0:
430,171,196420,1,8,0:0:0:0:
414,170,196512,1,0,0:0:0:0:
402,172,196604,1,8,0:0:0:0:
446,157,196788,1,4,0:0:0:0:
450,174,196972,1,0,0:0:0:0:
450,174,197064,1,0,0:0:0:0:
469,171,197156,1,8,0:0:0:0:
459,189,197340,1,0,0:0:0:0:
459,188,197432,1,0,0:0:0:0:
446,157,197524,1,8,0:0:0:0:
417,172,197616,1,0,0:0:0:0:
404,176,197708,1,8,0:0:0:0:
404,176,197800,1,8,0:0:0:0:
414,170,197892,1,0,0:0:0:0:
383,174,198076,1,8,0:0:0:0:
443,176,198260,1,0,0:0:0:0:
390,161,198444,1,0,0:0:0:0:
426,173,198628,1,12,0:0:0:0:
463,174,198812,1,0,0:0:0:0:
461,174,198904,1,0,0:0:0:0:
371,184,198997,1,8,0:0:0:0:
443,176,199181,1,8,0:0:0:0:
443,176,199273,1,8,0:0:0:0:
419,176,199365,1,0,0:0:0:0:
419,176,199457,1,0,0:0:0:0:
419,176,199549,1,0,0:0:0:0:
419,176,199641,1,0,0:0:0:0:
387,174,199733,1,8,0:0:0:0:
410,170,199917,1,0,0:0:0:0:
420,176,200101,1,8,0:0:0:0:
443,189,200285,1,0,0:0:0:0:
443,189,200377,1,0,0:0:0:0:
439,169,200469,1,8,0:0:0:0:
453,174,200561,1,8,0:0:0:0:
440,176,200653,1,0,0:0:0:0:
396,175,200745,1,0,0:0:0:0:
458,200,200837,1,8,0:0:0:0:
420,176,201021,1,4,0:0:0:0:
415,226,201389,1,0,0:0:0:0:
387,183,201573,1,12,0:0:0:0:
403,155,201757,1,8,0:0:0:0:
436,179,201941,1,4,0:0:0:0:
430,170,202125,1,0,0:0:0:0:
398,173,202309,1,8,0:0:0:0:
398,173,202401,1,8,0:0:0:0:
398,173,202493,1,8,0:0:0:0:
436,179,202677,1,4,0:0:0:0:
430,170,203046,1,8,0:0:0:0:
412,174,203230,1,8,0:0:0:0:
434,167,203322,1,0,0:0:0:0:
434,168,203414,1,0,0:0:0:0:
373,165,203598,1,8,0:0:0:0:
398,172,203782,1,0,0:0:0:0:
392,169,203966,1,8,0:0:0:0:
447,271,204058,1,0,0:0:0:0:
456,256,204150,1,8,0:0:0:0:
456,256,204242,1,8,0:0:0:0:
388,165,204334,1,0,0:0:0:0:
401,168,204518,1,8,0:0:0:0:
398,172,204702,1,0,0:0:0:0:
398,172,204794,1,0,0:0:0:0:
360,170,204886,1,8,0:0:0:0:
359,170,204978,1,8,0:0:0:0:
385,171,205070,1,0,0:0:0:0:
391,171,205254,1,8,0:0:0:0:
391,171,205438,1,8,0:0:0:0:
363,194,205622,1,4,0:0:0:0:
420,170,205990,1,8,0:0:0:0:
430,169,206174,1,0,0:0:0:0:
429,169,206266,1,0,0:0:0:0:
429,168,206358,1,0,0:0:0:0:
420,170,206543,1,8,0:0:0:0:
417,181,206727,1,0,0:0:0:0:
417,183,206911,1,0,0:0:0:0:
397,171,207003,1,8,0:0:0:0:
386,172,207095,1,0,0:0:0:0:
361,186,207187,1,0,0:0:0:0:
417,180,207279,1,8,0:0:0:0:
420,170,207463,1,8,0:0:0:0:
398,170,207555,1,0,0:0:0:0:
386,180,207647,1,8,0:0:0:0:
422,173,207831,1,0,0:0:0:0:
397,171,208015,1,0,0:0:0:0:
400,173,208107,1,0,0:0:0:0:
403,173,208199,1,8,0:0:0:0:
403,173,208291,1,8,0:0:0:0:
420,170,208383,1,0,0:0:0:0:
407,177,208567,1,12,0:0:0:0:
435,199,208751,1,0,0:0:0:0:
437,211,208843,1,0,0:0:0:0:
406,199,208935,1,8,0:0:0:0:
400,173,209119,1,0,0:0:0:0:
403,173,209303,1,8,0:0:0:0:
467,171,209487,1,8,0:0:0:0:
467,171,209579,1,8,0:0:0:0:
419,170,209671,1,0,0:0:0:0:
405,199,209855,1,8,0:0:0:0:
359,143,210224,1,8,0:0:0:0:
359,143,210285,1,8,0:0:0:0:
359,143,210346,1,8,0:0:0:0:
402,177,210408,1,0,0:0:0:0:
388,174,210592,1,8,0:0:0:0:
472,207,210776,1,0,0:0:0:0:
472,206,210868,1,0,0:0:0:0:
445,158,210960,1,8,0:0:0:0:
419,169,211052,1,0,0:0:0:0:
445,158,211144,1,8,0:0:0:0:
455,168,211328,1,8,0:0:0:0:
437,182,211512,1,4,0:0:0:0:
445,165,211696,1,0,0:0:0:0:
434,171,211880,1,8,0:0:0:0:
482,166,212064,1,8,0:0:0:0:
482,166,212156,1,8,0:0:0:0:
418,172,212248,1,0,0:0:0:0:
418,172,212432,1,0,0:0:0:0:
418,172,212524,1,0,0:0:0:0:
434,178,212616,1,8,0:0:0:0:
468,186,212800,1,8,0:0:0:0:
434,171,212892,1,0,0:0:0:0:
403,178,212984,1,8,0:0:0:0:
403,177,213076,1,8,0:0:0:0:
453,166,213168,1,0,0:0:0:0:
451,166,213260,1,0,0:0:0:0:
418,172,213352,1,8,0:0:0:0:
418,172,213536,1,8,0:0:0:0:
424,168,213628,1,0,0:0:0:0:
441,167,213720,1,8,0:0:0:0:
468,226,213812,1,0,0:0:0:0:
454,191,213904,1,0,0:0:0:0:
454,191,213997,1,0,0:0:0:0:
453,166,214089,1,8,0:0:0:0:
453,166,214181,1,8,0:0:0:0:
392,159,214273,1,0,0:0:0:0:
379,149,214457,1,12,0:0:0:0:
492,166,214641,1,0,0:0:0:0:
413,176,214825,1,8,0:0:0:0:
477,166,215009,1,0,0:0:0:0:
476,166,215101,1,0,0:0:0:0:
429,163,215193,1,8,0:0:0:0:
435,169,215377,1,8,0:0:0:0:
369,168,215469,1,0,0:0:0:0:
388,173,215561,1,8,0:0:0:0:
484,163,215745,1,8,0:0:0:0:
484,163,215837,1,8,0:0:0:0:
412,166,215929,1,0,0:0:0:0:
379,174,216113,1,8,0:0:0:0:
379,174,216174,1,8,0:0:0:0:
379,174,216236,1,8,0:0:0:0:
445,171,216297,1,0,0:0:0:0:
429,168,216481,1,8,0:0:0:0:
466,154,216665,1,0,0:0:0:0:
466,154,216757,1,0,0:0:0:0:
437,166,216849,1,8,0:0:0:0:
408,176,216941,1,0,0:0:0:0:
437,165,217033,1,8,0:0:0:0:
456,187,217217,1,0,0:0:0:0:
394,173,217401,1,12,0:0:0:0:
451,187,217585,1,0,0:0:0:0:
451,187,217770,1,0,0:0:0:0:
431,245,217954,1,12,0:0:0:0:
466,181,218138,1,0,0:0:0:0:
384,251,218230,1,0,0:0:0:0:
466,180,218322,1,0,0:0:0:0:
425,179,218506,1,8,0:0:0:0:
475,172,218690,1,0,0:0:0:0:
439,168,218874,1,12,0:0:0:0:
447,177,219058,1,0,0:0:0:0:
447,177,219242,1,0,0:0:0:0:
447,180,219426,1,0,0:0:0:0:
451,171,219610,1,8,0:0:0:0:
450,171,219702,1,8,0:0:0:0:
439,168,219794,1,0,0:0:0:0:
451,238,219978,1,12,0:0:0:0:
430,184,220162,1,0,0:0:0:0:
419,179,220254,1,0,0:0:0:0:
440,171,220346,1,8,0:0:0:0:
437,170,220530,1,0,0:0:0:0:
437,170,220622,1,0,0:0:0:0:
437,170,220714,1,0,0:0:0:0:
439,168,220806,1,0,0:0:0:0:
389,172,220898,1,8,0:0:0:0:
440,160,221082,1,0,0:0:0:0:
440,161,221174,1,0,0:0:0:0:
440,161,221266,1,0,0:0:0:0:
440,161,221358,1,0,0:0:0:0:
430,172,221450,1,8,0:0:0:0:
451,176,221543,1,0,0:0:0:0:
451,176,221635,1,0,0:0:0:0:
451,176,221727,1,0,0:0:0:0:
450,170,221819,1,8,0:0:0:0:
437,178,221911,1,0,0:0:0:0:
439,176,222003,1,8,0:0:0:0:
440,160,222095,1,8,0:0:0:0:
440,161,222187,1,0,0:0:0:0:
440,161,222279,1,0,0:0:0:0:
391,170,222371,1,8,0:0:0:0:
368,161,224763,1,8,0:0:0:0:
420,188,225131,1,0,0:0:0:0:
416,180,225315,1,8,0:0:0:0:
449,176,226051,1,0,0:0:0:0:
372,182,226235,1,0,0:0:0:0:
322,182,226603,1,0,0:0:0:0:
387,159,226971,1,8,0:0:0:0:
430,161,227523,1,0,0:0:0:0:
366,157,227707,1,8,0:0:0:0:
448,187,228075,1,0,0:0:0:0:
482,222,228259,1,8,0:0:0:0:
442,219,228443,1,0,0:0:0:0:
505,206,228996,1,0,0:0:0:0:
505,206,229180,1,0,0:0:0:0:
445,184,229548,1,8,0:0:0:0:
425,165,229916,1,8,0:0:0:0:
435,171,230284,1,0,0:0:0:0:
397,147,230652,1,0,0:0:0:0:
443,177,231020,1,8,0:0:0:0:
461,214,231204,1,0,0:0:0:0:
430,183,231756,1,0,0:0:0:0:
430,183,231940,1,0,0:0:0:0:
395,182,232124,1,8,0:0:0:0:
453,162,232493,1,0,0:0:0:0:
430,183,232861,1,8,0:0:0:0:
464,150,233229,1,8,0:0:0:0:
427,167,233597,1,0,0:0:0:0:
464,183,233965,1,0,0:0:0:0:
440,174,234149,1,8,0:0:0:0:
399,165,234885,1,8,0:0:0:0:
442,150,235069,1,0,0:0:0:0:
458,197,235437,1,0,0:0:0:0:
440,162,235805,1,8,0:0:0:0:
399,171,236542,1,0,0:0:0:0:
448,192,236910,1,0,0:0:0:0:
416,192,237278,1,8,0:0:0:0:
416,224,237646,1,0,0:0:0:0:
384,192,237830,1,8,0:0:0:0:
416,160,238014,1,0,0:0:0:0:
416,160,238382,1,0,0:0:0:0:
384,192,238750,1,8,0:0:0:0:
384,192,238934,1,0,0:0:0:0:
416,160,239118,1,8,0:0:0:0:
480,192,239486,1,0,0:0:0:0:
512,192,239855,1,0,0:0:0:0:
480,160,240223,1,8,0:0:0:0:
480,160,240591,1,8,0:0:0:0:
405,197,240775,1,8,0:0:0:0:
384,192,240959,1,0,0:0:0:0:
428,192,241143,1,8,0:0:0:0:
448,160,241327,1,0,0:0:0:0:
448,256,241695,1,8,0:0:0:0:
448,192,242247,1,8,0:0:0:0:
384,192,242431,1,0,0:0:0:0:
448,192,242799,1,0,0:0:0:0:
448,192,242983,1,0,0:0:0:0:
384,160,243167,1,8,0:0:0:0:
416,160,243536,1,8,0:0:0:0:
416,160,243720,1,0,0:0:0:0:
416,160,243904,1,8,0:0:0:0:
416,160,244088,1,8,0:0:0:0:
384,160,244272,1,0,0:0:0:0:
384,160,244456,1,0,0:0:0:0:
416,160,244640,1,8,0:0:0:0:
413,216,245008,1,8,0:0:0:0:
384,160,245376,1,4,0:0:0:0:
408,287,245744,1,0,0:0:0:0:
480,192,245928,1,0,0:0:0:0:
448,192,246112,1,8,0:0:0:0:
408,287,246480,1,0,0:0:0:0:
416,160,246664,1,8,0:0:0:0:
416,192,246848,1,0,0:0:0:0:
416,192,247032,1,0,0:0:0:0:
416,192,247216,1,0,0:0:0:0:
416,192,247309,1,0,0:0:0:0:
416,192,247401,1,0,0:0:0:0:
416,192,247493,1,0,0:0:0:0:
416,192,247585,1,8,0:0:0:0:
416,192,247677,1,0,0:0:0:0:
416,192,247769,1,8,0:0:0:0:
416,192,247861,1,8,0:0:0:0:
416,160,247953,1,0,0:0:0:0:
416,160,248045,1,0,0:0:0:0:
384,192,248137,1,8,0:0:0:0:
416,160,248321,1,4,0:0:0:0:
434,211,248505,1,0,0:0:0:0:
470,180,248873,1,0,0:0:0:0:
454,199,249057,1,8,0:0:0:0:
371,209,249425,1,0,0:0:0:0:
455,180,249609,1,8,0:0:0:0:
432,185,249793,1,0,0:0:0:0:
479,171,249977,1,8,0:0:0:0:
479,171,250069,1,8,0:0:0:0:
453,171,250161,1,0,0:0:0:0:
459,184,250345,1,0,0:0:0:0:
474,163,250529,1,8,0:0:0:0:
446,172,250713,1,0,0:0:0:0:
447,182,250897,1,12,0:0:0:0:
453,173,251266,1,4,0:0:0:0:
432,229,251450,1,0,0:0:0:0:
458,181,251818,1,0,0:0:0:0:
494,183,252002,1,8,0:0:0:0:
444,266,252370,1,0,0:0:0:0:
438,169,252554,1,8,0:0:0:0:
456,223,252738,1,8,0:0:0:0:
426,165,252922,1,0,0:0:0:0:
459,168,253106,1,8,0:0:0:0:
454,172,253290,1,0,0:0:0:0:
454,172,253382,1,0,0:0:0:0:
416,192,253474,1,8,0:0:0:0:
468,182,253566,1,8,0:0:0:0:
403,169,253658,1,0,0:0:0:0:
434,186,253842,1,12,0:0:0:0:
471,148,254026,1,8,0:0:0:0:
443,170,254210,1,4,0:0:0:0:
447,155,254394,1,0,0:0:0:0:
456,170,254762,1,0,0:0:0:0:
435,165,254947,1,8,0:0:0:0:
435,164,255315,1,8,0:0:0:0:
467,184,255499,1,8,0:0:0:0:
486,163,255683,1,0,0:0:0:0:
486,162,255867,1,0,0:0:0:0:
486,162,255959,1,0,0:0:0:0:
476,159,256051,1,8,0:0:0:0:
458,164,256235,1,0,0:0:0:0:
448,160,256419,1,4,0:0:0:0:
480,192,256603,1,8,0:0:0:0:
459,164,256695,1,0,0:0:0:0:
441,164,256787,1,8,0:0:0:0:
448,192,256971,1,8,0:0:0:0:
476,164,257155,1,4,0:0:0:0:
398,161,257339,1,0,0:0:0:0:
459,164,257707,1,0,0:0:0:0:
440,164,257891,1,8,0:0:0:0:
438,187,258259,1,0,0:0:0:0:
458,170,258443,1,8,0:0:0:0:
458,169,258536,1,8,0:0:0:0:
437,175,258628,1,0,0:0:0:0:
437,175,258812,1,0,0:0:0:0:
416,192,258996,1,8,0:0:0:0:
423,166,259180,1,0,0:0:0:0:
448,192,259364,1,12,0:0:0:0:
416,160,259732,1,0,0:0:0:0:
384,192,259916,1,8,0:0:0:0:
384,192,260008,1,8,0:0:0:0:
448,160,260100,1,4,0:0:0:0:
384,160,260468,1,8,0:0:0:0:
480,160,260652,1,0,0:0:0:0:
480,160,260744,1,0,0:0:0:0:
416,192,260836,1,8,0:0:0:0:
476,174,260928,1,0,0:0:0:0:
409,197,261020,1,8,0:0:0:0:
465,214,261204,1,0,0:0:0:0:
448,192,261388,1,0,0:0:0:0:
480,224,261480,1,8,0:0:0:0:
448,160,261572,1,0,0:0:0:0:
448,160,261756,1,8,0:0:0:0:
416,160,261940,1,0,0:0:0:0:
416,160,262124,1,0,0:0:0:0:
416,160,262216,1,0,0:0:0:0:
416,160,262309,1,8,0:0:0:0:
416,160,262401,1,8,0:0:0:0:
416,192,262493,1,0,0:0:0:0:
416,160,262677,1,8,0:0:0:0:
416,160,262861,1,8,0:0:0:0:
448,160,263045,1,4,0:0:0:0:
448,160,263413,1,8,0:0:0:0:
448,160,263597,1,8,0:0:0:0:
448,192,263689,1,0,0:0:0:0:
416,224,263781,1,8,0:0:0:0:
416,224,263873,1,8,0:0:0:0:
448,160,263965,1,0,0:0:0:0:
399,234,264149,1,0,0:0:0:0:
480,160,264333,1,8,0:0:0:0:
480,160,264425,1,8,0:0:0:0:
448,160,264517,1,0,0:0:0:0:
448,160,264701,1,0,0:0:0:0:
448,160,264885,1,8,0:0:0:0:
416,192,264977,1,8,0:0:0:0:
416,192,265069,1,8,0:0:0:0:
416,192,265161,1,8,0:0:0:0:
448,192,265253,1,0,0:0:0:0:
448,160,265437,1,0,0:0:0:0:
416,192,265621,1,0,0:0:0:0:
416,192,265713,1,0,0:0:0:0:
416,160,265805,1,8,0:0:0:0:
448,160,265989,1,4,0:0:0:0:
416,192,266358,1,8,0:0:0:0:
416,160,266542,1,0,0:0:0:0:
416,160,266634,1,0,0:0:0:0:
384,192,266726,1,8,0:0:0:0:
448,192,266910,1,0,0:0:0:0:
416,192,267094,1,0,0:0:0:0:
352,160,267278,1,8,0:0:0:0:
416,192,267370,1,0,0:0:0:0:
416,192,267462,1,8,0:0:0:0:
416,192,267554,1,8,0:0:0:0:
416,160,267646,1,0,0:0:0:0:
416,160,267830,1,8,0:0:0:0:
448,160,268014,1,0,0:0:0:0:
448,160,268106,1,0,0:0:0:0:
416,160,268198,1,8,0:0:0:0:
352,128,268290,1,0,0:0:0:0:
416,192,268382,1,0,0:0:0:0:
416,192,268474,1,0,0:0:0:0:
448,160,268566,1,8,0:0:0:0:
416,160,268658,1,0,0:0:0:0:
448,160,268750,1,8,0:0:0:0:
416,160,268934,1,12,0:0:0:0:
403,170,269118,1,0,0:0:0:0:
448,160,269302,1,12,0:0:0:0:
448,192,269486,1,0,0:0:0:0:
448,192,269578,1,0,0:0:0:0:
416,160,269670,1,8,0:0:0:0:
480,160,269855,1,0,0:0:0:0:
480,160,270039,1,0,0:0:0:0:
448,160,270223,1,12,0:0:0:0:
448,192,270407,1,0,0:0:0:0:
448,192,270591,1,0,0:0:0:0:
448,192,270683,1,0,0:0:0:0:
480,160,270775,1,8,0:0:0:0:
480,192,270867,1,0,0:0:0:0:
448,192,270959,1,8,0:0:0:0:
448,160,271051,1,8,0:0:0:0:
416,192,271143,1,0,0:0:0:0:
416,128,271235,1,0,0:0:0:0:
480,160,271327,1,0,0:0:0:0:
401,178,271419,1,0,0:0:0:0:
384,192,271511,1,8,0:0:0:0:
448,160,271603,1,0,0:0:0:0:
416,160,271695,1,8,0:0:0:0:
416,160,271879,1,4,0:0:0:0:
385,151,272247,1,8,0:0:0:0:
288,224,272339,1,0,0:0:0:0:
327,172,272431,1,0,0:0:0:0:
327,172,272523,1,0,0:0:0:0:
416,178,272615,1,8,0:0:0:0:
357,187,272799,1,0,0:0:0:0:
400,189,272983,1,8,0:0:0:0:
400,189,273167,1,8,0:0:0:0:
422,184,273259,1,0,0:0:0:0:
384,171,273351,1,8,0:0:0:0:
384,171,273443,1,8,0:0:0:0:
385,180,273536,1,0,0:0:0:0:
384,224,273628,1,0,0:0:0:0:
400,189,273720,1,8,0:0:0:0:
448,160,273904,1,8,0:0:0:0:
384,192,273996,1,0,0:0:0:0:
328,167,274088,1,8,0:0:0:0:
405,172,274272,1,0,0:0:0:0:
459,180,274456,1,8,0:0:0:0:
457,154,274548,1,8,0:0:0:0:
472,175,274640,1,0,0:0:0:0:
395,162,274824,1,12,0:0:0:0:
416,192,275192,1,0,0:0:0:0:
462,186,275284,1,8,0:0:0:0:
466,171,275376,1,0,0:0:0:0:
466,170,275468,1,0,0:0:0:0:
365,165,275560,1,8,0:0:0:0:
390,170,275744,1,0,0:0:0:0:
384,160,275928,1,0,0:0:0:0:
384,160,276020,1,0,0:0:0:0:
403,163,276112,1,8,0:0:0:0:
403,164,276204,1,8,0:0:0:0:
419,167,276296,1,0,0:0:0:0:
466,159,276480,1,0,0:0:0:0:
466,159,276572,1,0,0:0:0:0:
453,159,276664,1,8,0:0:0:0:
429,160,276848,1,0,0:0:0:0:
372,158,277032,1,8,0:0:0:0:
403,163,277124,1,0,0:0:0:0:
403,164,277216,1,0,0:0:0:0:
407,167,277309,1,0,0:0:0:0:
418,173,277401,1,8,0:0:0:0:
416,172,277585,1,8,0:0:0:0:
450,216,277677,1,8,0:0:0:0:
400,169,277769,1,4,0:0:0:0:
463,181,278137,1,8,0:0:0:0:
407,170,278229,1,8,0:0:0:0:
443,175,278321,1,0,0:0:0:0:
443,174,278413,1,0,0:0:0:0:
361,175,278505,1,8,0:0:0:0:
361,175,278689,1,0,0:0:0:0:
418,173,278873,1,8,0:0:0:0:
414,173,278965,1,8,0:0:0:0:
414,172,279057,1,8,0:0:0:0:
429,178,279241,1,4,0:0:0:0:
408,169,279425,1,0,0:0:0:0:
464,189,279609,1,8,0:0:0:0:
408,168,279701,1,0,0:0:0:0:
463,175,279793,1,8,0:0:0:0:
463,175,279885,1,8,0:0:0:0:
390,174,279977,1,0,0:0:0:0:
384,174,280161,1,0,0:0:0:0:
428,174,280345,1,8,0:0:0:0:
465,226,280437,1,8,0:0:0:0:
425,177,280529,1,8,0:0:0:0:
423,177,280621,1,8,0:0:0:0:
385,179,280713,1,4,0:0:0:0:
463,175,280897,1,0,0:0:0:0:
460,175,281082,1,8,0:0:0:0:
445,173,281266,1,0,0:0:0:0:
445,172,281358,1,0,0:0:0:0:
390,187,281450,1,8,0:0:0:0:
433,173,281634,1,0,0:0:0:0:
392,176,281818,1,8,0:0:0:0:
475,170,282002,1,0,0:0:0:0:
422,171,282094,1,0,0:0:0:0:
475,165,282186,1,8,0:0:0:0:
445,173,282278,1,0,0:0:0:0:
445,172,282370,1,8,0:0:0:0:
433,173,282462,1,8,0:0:0:0:
392,176,282554,1,0,0:0:0:0:
392,176,282738,1,0,0:0:0:0:
392,176,282830,1,0,0:0:0:0:
359,170,282922,1,8,0:0:0:0:
445,172,283106,1,8,0:0:0:0:
444,172,283198,1,8,0:0:0:0:
445,173,283290,1,0,0:0:0:0:
420,169,283382,1,0,0:0:0:0:
452,171,283474,1,8,0:0:0:0:
479,159,283658,1,4,0:0:0:0:
457,150,284026,1,8,0:0:0:0:
466,155,284210,1,0,0:0:0:0:
369,159,284394,1,0,0:0:0:0:
380,205,284486,1,0,0:0:0:0:
378,162,284578,1,0,0:0:0:0:
378,162,284670,1,0,0:0:0:0:
411,169,284762,1,8,0:0:0:0:
451,264,284947,1,8,0:0:0:0:
442,168,285131,1,8,0:0:0:0:
424,173,285223,1,0,0:0:0:0:
424,173,285315,1,0,0:0:0:0:
424,172,285407,1,0,0:0:0:0:
398,163,285499,1,8,0:0:0:0:
432,164,285683,1,0,0:0:0:0:
439,180,285775,1,0,0:0:0:0:
409,174,285867,1,8,0:0:0:0:
468,382,285959,1,0,0:0:0:0:
406,178,286051,1,8,0:0:0:0:
406,179,286143,1,8,0:0:0:0:
412,178,286235,1,0,0:0:0:0:
440,165,286419,1,0,0:0:0:0:
421,180,286511,1,0,0:0:0:0:
409,164,286603,1,12,0:0:0:0:
482,209,286971,1,0,0:0:0:0:
482,209,287155,1,0,0:0:0:0:
451,182,287339,1,8,0:0:0:0:
416,256,287431,1,0,0:0:0:0:
461,180,287523,1,8,0:0:0:0:
461,180,287615,1,8,0:0:0:0:
459,175,287707,1,0,0:0:0:0:
397,167,287891,1,8,0:0:0:0:
437,184,288075,1,0,0:0:0:0:
435,179,288167,1,8,0:0:0:0:
435,178,288259,1,8,0:0:0:0:
435,178,288443,1,8,0:0:0:0:
420,176,288536,1,0,0:0:0:0:
452,177,288628,1,8,0:0:0:0:
418,176,288812,1,0,0:0:0:0:
418,176,288904,1,0,0:0:0:0:
437,184,288996,1,8,0:0:0:0:
457,173,289088,1,8,0:0:0:0:
441,166,289180,1,0,0:0:0:0:
444,172,289364,1,8,0:0:0:0:
449,186,289548,1,4,0:0:0:0:
353,160,289916,1,8,0:0:0:0:
384,160,290008,1,8,0:0:0:0:
382,170,290100,1,8,0:0:0:0:
417,166,290192,1,8,0:0:0:0:
429,162,290284,1,0,0:0:0:0:
426,162,290468,1,0,0:0:0:0:
405,164,290652,1,8,0:0:0:0:
412,167,290836,1,0,0:0:0:0:
424,170,290928,1,0,0:0:0:0:
400,171,291020,1,8,0:0:0:0:
451,168,291204,1,0,0:0:0:0:
464,180,291388,1,8,0:0:0:0:
476,163,291572,1,0,0:0:0:0:
476,163,291664,1,0,0:0:0:0:
465,169,291756,1,8,0:0:0:0:
434,169,291848,1,0,0:0:0:0:
446,170,291940,1,8,0:0:0:0:
451,168,292032,1,8,0:0:0:0:
461,166,292124,1,0,0:0:0:0:
426,180,292216,1,0,0:0:0:0:
462,149,292309,1,8,0:0:0:0:
436,164,292493,1,4,0:0:0:0:
463,169,292861,1,8,0:0:0:0:
463,169,293045,1,8,0:0:0:0:
463,169,293229,1,8,0:0:0:0:
463,169,293413,1,8,0:0:0:0:
463,169,293597,1,8,0:0:0:0:
463,169,293781,1,8,0:0:0:0:
456,183,293965,1,12,0:0:0:0:
448,192,294333,1,0,0:0:0:0:
416,160,294517,1,8,0:0:0:0:
416,192,294793,1,8,0:0:0:0:
448,160,294885,1,8,0:0:0:0:
448,192,295069,1,0,0:0:0:0:
448,192,295253,1,0,0:0:0:0:
480,192,295437,1,12,0:0:0:0:
416,160,295805,1,0,0:0:0:0:
416,192,295989,1,0,0:0:0:0:
448,192,296174,1,8,0:0:0:0:
448,192,296542,1,0,0:0:0:0:
448,192,296726,1,8,0:0:0:0:
448,192,296818,1,8,0:0:0:0:
448,192,296910,1,0,0:0:0:0:
416,192,297094,1,8,0:0:0:0:
384,160,297278,1,0,0:0:0:0:
384,160,297462,1,0,0:0:0:0:
416,160,297646,1,12,0:0:0:0:
480,160,297830,1,0,0:0:0:0:
448,160,298014,1,12,0:0:0:0:
448,160,298198,1,8,0:0:0:0:
480,192,298382,1,4,0:0:0:0:
448,160,298566,1,0,0:0:0:0:
448,160,298934,1,0,0:0:0:0:
480,192,299118,1,8,0:0:0:0:
448,160,299486,1,0,0:0:0:0:
448,160,299670,1,8,0:0:0:0:
448,160,299762,1,8,0:0:0:0:
480,192,299855,1,8,0:0:0:0:
416,192,300039,1,0,0:0:0:0:
448,160,300223,1,8,0:0:0:0:
448,192,300407,1,8,0:0:0:0:
448,160,300591,1,4,0:0:0:0:
480,192,300775,1,0,0:0:0:0:
448,160,300959,1,12,0:0:0:0:
448,160,301143,1,8,0:0:0:0:
448,224,301327,1,0,0:0:0:0:
416,160,301695,1,0,0:0:0:0:
448,192,301879,1,0,0:0:0:0:
448,192,301971,1,0,0:0:0:0:
416,192,302063,1,8,0:0:0:0:
448,160,302247,1,0,0:0:0:0:
448,192,302431,1,0,0:0:0:0:
425,168,302615,1,8,0:0:0:0:
416,192,302799,1,0,0:0:0:0:
448,160,302983,1,0,0:0:0:0:
448,160,303167,1,8,0:0:0:0:
448,160,303351,1,0,0:0:0:0:
448,160,303536,1,12,0:0:0:0:
480,160,303720,1,0,0:0:0:0:
480,160,303812,1,0,0:0:0:0:
448,192,303904,1,8,0:0:0:0:
448,192,303996,1,8,0:0:0:0:
480,160,304088,1,0,0:0:0:0:
448,160,304272,1,4,0:0:0:0:
416,160,304640,1,0,0:0:0:0:
416,160,304824,1,0,0:0:0:0:
448,160,305008,1,8,0:0:0:0:
443,174,305376,1,4,0:0:0:0:
416,192,305560,1,8,0:0:0:0:
416,160,305744,1,0,0:0:0:0:
448,160,305928,1,0,0:0:0:0:
384,160,306112,1,8,0:0:0:0:
352,160,306296,1,0,0:0:0:0:
352,160,306388,1,0,0:0:0:0:
384,160,306480,1,8,0:0:0:0:
384,160,306664,1,8,0:0:0:0:
448,160,306756,1,8,0:0:0:0:
384,160,306848,1,0,0:0:0:0:
384,160,306940,1,0,0:0:0:0:
416,192,307032,1,8,0:0:0:0:
384,160,307216,1,4,0:0:0:0:
416,160,307585,1,0,0:0:0:0:
448,224,307769,1,8,0:0:0:0:
416,160,307953,1,0,0:0:0:0:
448,224,308137,1,8,0:0:0:0:
416,160,308321,1,0,0:0:0:0:
416,192,308505,1,8,0:0:0:0:
416,192,308597,1,8,0:0:0:0:
416,160,308689,1,0,0:0:0:0:
448,192,308873,1,8,0:0:0:0:
384,160,309057,1,0,0:0:0:0:
416,160,309241,1,0,0:0:0:0:
384,160,309425,1,8,0:0:0:0:
448,160,309609,1,8,0:0:0:0:
384,192,309793,1,4,0:0:0:0:
416,192,309977,1,0,0:0:0:0:
448,192,310161,1,12,0:0:0:0:
448,160,310345,1,0,0:0:0:0:
448,160,310437,1,0,0:0:0:0:
448,160,310529,1,0,0:0:0:0:
416,160,310713,1,12,0:0:0:0:
416,192,310897,1,0,0:0:0:0:
416,192,310989,1,0,0:0:0:0:
416,192,311082,1,0,0:0:0:0:
352,160,311266,1,12,0:0:0:0:
448,160,311450,1,0,0:0:0:0:
448,160,311542,1,0,0:0:0:0:
448,160,311634,1,0,0:0:0:0:
416,192,311818,1,8,0:0:0:0:
416,192,312002,1,8,0:0:0:0:
416,192,312186,1,8,0:0:0:0:
416,192,312370,1,8,0:0:0:0:
416,192,312554,1,8,0:0:0:0:
411,166,312738,1,8,0:0:0:0:
352,140,314374,1,0,0:0:0:0:
373,169,314560,1,0,0:0:0:0:
366,175,314932,1,0,0:0:0:0:
408,178,315367,1,8,0:0:0:0:
421,194,316485,1,0,0:0:0:0:
388,187,316609,1,0,0:0:0:0:
388,187,316671,1,0,0:0:0:0:
436,168,316795,1,8,0:0:0:0:
451,161,319163,1,0,0:0:0:0:
390,157,319256,1,8,0:0:0:0:
