osu file format v14

[General]
AudioFilename: audio.mp3
AudioLeadIn: 0
PreviewTime: 606
Countdown: 1
SampleSet: Soft
StackLeniency: 0.5
Mode: 0
LetterboxInBreaks: 0
WidescreenStoryboard: 1

[Editor]
Bookmarks: 88332,99559,123118,146676
DistanceSpacing: 1.6
BeatDivisor: 4
GridSize: 8
TimelineZoom: 2.5

[Metadata]
Title:Aoi Tori
TitleUnicode:青い鳥
Artist:mimimemeMIMI
ArtistUnicode:みみめめMIMI
Creator:Uta
Version:Sky
Source:
Tags:
BeatmapID:1872756
BeatmapSetID:896369

[Difficulty]
HPDrainRate:6
CircleSize:4
OverallDifficulty:8
ApproachRate:8.9
SliderMultiplier:1.6
SliderTickRate:1

[Events]
//Background and Video events
0,0,"NotABlueBirdButBlueGirlWithBirds.jpg",0,0
//Break Periods
//Storyboard Layer 0 (Background)
//Storyboard Layer 1 (Fail)
//Storyboard Layer 2 (Pass)
//Storyboard Layer 3 (Foreground)
//Storyboard Sound Samples

[TimingPoints]
716,437.956204379562,4,2,1,40,1,0
934,359.281437125748,4,2,1,40,1,0
934,-166.666666666667,4,2,1,40,0,0
1652,392.156862745098,4,2,1,40,1,0
1652,-142.857142857143,4,2,1,40,0,0
2398,368.098159509202,4,2,1,40,1,0
2398,-142.857142857143,4,2,1,40,0,0
3722,355.029585798817,4,2,1,40,1,0
3722,-142.857142857143,4,2,1,40,0,0
5185,355.029585798817,4,2,1,40,1,0
5362,-142.857142857143,4,2,1,40,0,0
6604,389.61038961039,4,2,1,40,1,0
6604,-166.666666666667,4,2,1,40,0,0
7943,375,4,2,1,40,1,0
7943,-142.857142857143,4,2,1,40,0,0
8271,375,4,2,1,40,1,0
8693,355.029585798817,4,2,1,40,1,0
8693,-142.857142857143,4,2,1,40,0,0
9758,355.029585798817,4,2,1,40,1,0
10113,-142.857142857143,4,2,1,40,0,0
10867,400,4,2,1,40,1,0
11267,400,4,2,1,40,1,0
11267,-125,4,2,1,40,0,0
11617,389.61038961039,4,2,1,40,1,0
12493,389.61038961039,4,2,1,40,1,0
13077,-142.857142857143,4,2,1,40,0,0
13807,389.61038961039,4,2,1,40,1,0
14161,368.098159509202,4,2,1,40,1,0
14161,-125,4,2,1,40,0,0
17105,-142.857142857143,4,2,1,40,0,0
18210,-125,4,2,1,40,0,0
25940,-100,4,2,1,40,0,0
36983,-142.857142857143,4,2,1,40,0,0
37719,-111.111111111111,4,2,1,40,0,0
47657,-83.3333333333333,4,2,1,40,0,0
48026,-111.111111111111,4,2,1,40,0,0
61277,-125,4,2,1,40,0,0
65694,-100,4,2,1,40,0,0
67167,-83.3333333333333,4,2,1,40,0,0
70111,-100,4,2,1,40,0,0
76001,-90.9090909090909,4,2,1,40,0,0
87044,-83.3333333333333,4,2,1,40,0,0
87780,-90.9090909090909,4,2,1,40,0,0
99559,-90.9090909090909,4,2,1,40,0,0
121645,-111.111111111111,4,2,1,40,0,0
123118,-100,4,2,1,40,0,0
134897,-111.111111111111,4,2,1,40,0,0
146676,-125,4,2,1,40,0,0
153854,-83.3333333333333,4,2,1,40,0,0
155510,-100,4,2,1,40,0,0
158455,-100,4,2,1,40,0,0

[Colours]
Combo1 : 255,130,130
Combo2 : 155,155,255
Combo3 : 140,255,140
Combo4 : 100,100,255

[HitObjects]
31,125,716,5,0,0:0:0:0:
31,125,934,2,0,P|98:108|126:116,1,95.9999970703126
131,120,1652,2,0,L|137:241,1,111.999996582031
176,320,2398,6,0,P|133:296|57:308,1,111.999996582031
185,329,2950,2,0,P|240:337|267:229,1,167.999994873047
231,172,3722,1,0,0:0:0:0:
231,172,3899,6,0,P|180:181|111:163,1,111.999996582031
121,168,4609,2,0,B|110:135|121:108|121:108|121:86|93:45,1,111.999996582031
39,111,5185,1,0,0:0:0:0:
103,60,5362,6,0,P|154:44|222:57,1,111.999996582031
278,92,5895,1,0,0:0:0:0:
465,14,6605,5,0,0:0:0:0:
465,14,6798,2,0,L|468:117,2,95.9999970703126
373,95,7943,2,0,B|342:115|341:149|341:149|352:187,1,97.9999970092774
283,248,8693,6,0,P|322:275|385:271,1,111.999996582031
136,357,9403,2,0,P|175:330|238:334,1,111.999996582031
38,214,10113,2,0,P|77:241|140:237,1,111.999996582031
243,153,10867,1,0,0:0:0:0:
310,276,11267,6,0,P|366:235|472:242,1,176
468,240,12494,1,0,0:0:0:0:
468,240,12687,1,0,0:0:0:0:
338,336,13077,2,0,B|360:300|365:272|358:228|337:197|337:197|334:235|315:262,1,209.999993591309
164,381,14161,6,0,P|139:328|174:245,1,128
242,318,14713,1,0,0:0:0:0:
242,318,14897,2,0,L|318:309,1,64
156,263,15265,2,0,L|80:254,1,64
244,145,15633,2,0,P|254:196|251:234,1,64
242,318,16001,2,0,L|377:301,1,128
505,348,16737,1,0,0:0:0:0:
402,214,17105,6,0,B|378:186|370:151|373:113|398:75|398:75|448:93|455:147,1,223.999993164063
461,281,18210,2,0,P|434:296|394:302,1,64
311,254,18578,6,0,P|248:216|174:234,1,128
94,160,19314,2,0,P|144:213|220:216,1,128
194,118,19866,1,0,0:0:0:0:
194,118,20050,6,0,L|339:97,1,128
290,250,20786,2,0,L|435:271,1,128
386,90,21522,2,0,L|531:69,2,128
305,156,22627,1,0,0:0:0:0:
206,134,22995,6,0,P|219:59|184:11,1,128
126,89,23547,1,0,0:0:0:0:
126,89,23731,2,0,L|57:83,1,64
3,164,24099,2,0,P|1:208|9:233,1,64
103,343,24467,5,0,0:0:0:0:
117,357,25572,5,0,0:0:0:0:
117,357,25664,1,0,0:0:0:0:
117,357,25756,1,0,0:0:0:0:
117,357,25848,1,0,0:0:0:0:
117,357,25940,6,0,B|182:368|188:303|285:319,1,160
348,272,26492,2,0,L|340:182,1,80
268,316,26860,1,0,0:0:0:0:
433,270,27044,2,0,L|425:180,1,80
492,71,27412,6,0,B|427:60|421:125|324:109,1,160
259,51,27964,1,0,0:0:0:0:
259,51,28148,2,0,L|256:132,1,80
168,111,28516,1,0,0:0:0:0:
356,191,28700,1,0,0:0:0:0:
239,327,28884,6,0,P|231:253|223:203,1,120
214,200,29253,1,0,0:0:0:0:
132,258,29437,2,0,P|74:261|37:247,1,80
18,151,29805,2,0,P|76:148|113:162,1,80
181,88,30173,6,0,P|279:103|348:79,1,160
481,13,30725,1,0,0:0:0:0:
307,0,30909,1,0,0:0:0:0:
432,119,31093,1,0,0:0:0:0:
432,119,31185,1,0,0:0:0:0:
432,119,31277,1,0,0:0:0:0:
322,194,31461,1,0,0:0:0:0:
322,203,31553,1,0,0:0:0:0:
322,212,31645,1,0,0:0:0:0:
322,221,31737,1,0,0:0:0:0:
322,230,31829,6,0,P|412:273|478:237,1,160
414,101,32381,2,0,P|405:164|404:188,1,80
290,298,32749,2,0,P|286:258|280:218,1,80
177,116,33118,2,0,B|254:136|254:136|337:98,1,160
487,20,33670,1,0,0:0:0:0:
468,195,33854,1,0,0:0:0:0:
404,58,34038,1,0,0:0:0:0:
330,205,34222,5,0,0:0:0:0:
359,279,34406,1,0,0:0:0:0:
437,263,34590,1,0,0:0:0:0:
276,344,34774,5,0,0:0:0:0:
451,257,34958,1,0,0:0:0:0:
259,165,35142,1,0,0:0:0:0:
373,362,35326,5,0,0:0:0:0:
198,275,35510,1,0,0:0:0:0:
390,183,35694,1,0,0:0:0:0:
254,366,35878,5,0,0:0:0:0:
152,169,36062,1,0,0:0:0:0:
312,274,36246,5,0,0:0:0:0:
93,248,36430,1,0,0:0:0:0:
268,200,36614,1,0,0:0:0:0:
123,339,36799,1,0,0:0:0:0:
228,130,36983,6,0,B|287:146|287:146|340:122|340:122|395:119,1,167.999994873047
491,57,37719,6,0,P|475:116|475:157,1,71.9999978027344
408,204,38087,2,0,P|424:263|424:304,1,71.9999978027344
488,367,38455,2,0,P|375:348|332:352,1,143.999995605469
247,300,39007,1,0,0:0:0:0:
247,300,39191,6,0,L|252:382,1,71.9999978027344
337,264,39559,2,0,L|341:192,1,71.9999978027344
307,105,39927,2,0,P|269:101|230:103,1,71.9999978027344
170,167,40295,1,0,0:0:0:0:
205,27,40480,1,0,0:0:0:0:
93,118,40664,6,0,P|79:187|142:251,1,143.999995605469
213,247,41216,1,0,0:0:0:0:
213,247,41400,2,0,P|259:227|292:213,1,71.9999978027344
285,338,41768,2,0,P|252:352|219:366,1,71.9999978027344
106,363,42136,6,0,P|70:301|95:204,1,143.999995605469
120,145,42688,2,0,B|192:133|185:183|261:169,1,143.999995605469
374,85,43240,1,0,0:0:0:0:
243,76,43424,1,0,0:0:0:0:
322,241,43608,6,0,P|358:183|334:107,1,143.999995605469
232,242,44160,1,0,0:0:0:0:
232,242,44345,2,0,P|247:289|274:318,1,71.9999978027344
308,380,44713,2,0,P|341:342|352:305,1,71.9999978027344
392,248,45081,6,0,P|343:237|304:246,1,71.9999978027344
267,165,45449,2,0,P|231:167|196:157,1,71.9999978027344
188,152,45725,1,0,0:0:0:0:
181,145,45817,2,0,P|195:71|165:8,1,143.999995605469
101,85,46369,1,0,0:0:0:0:
285,152,46553,6,0,P|271:226|301:289,1,143.999995605469
384,338,47105,1,0,0:0:0:0:
384,338,47289,2,0,P|437:342|464:345,1,71.9999978027344
507,202,47657,6,0,L|345:215,1,143.999995605469
288,231,48026,6,0,P|282:165|272:126,1,71.9999978027344
240,89,48394,1,0,0:0:0:0:
186,169,48578,1,0,0:0:0:0:
304,29,48762,5,0,0:0:0:0:
364,185,48946,1,0,0:0:0:0:
240,89,49130,1,0,0:0:0:0:
428,129,49314,1,0,0:0:0:0:
448,278,49498,6,0,P|339:298|302:267,1,143.999995605469
240,228,50050,2,0,P|197:247|170:257,1,71.9999978027344
81,224,50418,2,0,P|75:270|71:299,1,71.9999978027344
8,369,50786,1,0,0:0:0:0:
8,369,50970,6,0,P|63:338|168:354,1,143.999995605469
225,368,51522,1,0,0:0:0:0:
71,295,51707,2,0,P|77:259|81:224,1,71.9999978027344
25,123,52075,2,0,P|19:87|15:51,1,71.9999978027344
19,41,52351,1,0,0:0:0:0:
23,32,52443,6,0,B|94:20|94:20|118:52|163:61,1,143.999995605469
260,127,52995,2,0,P|272:79|269:47,1,71.9999978027344
158,77,53363,2,0,P|148:112|148:148,1,71.9999978027344
205,312,53731,1,0,0:0:0:0:
277,240,53915,6,0,B|209:217|209:217|130:236,1,143.999995605469
53,295,54467,1,0,0:0:0:0:
36,292,54559,1,0,0:0:0:0:
19,289,54651,1,0,0:0:0:0:
132,368,54835,5,0,0:0:0:0:
144,347,54927,1,0,0:0:0:0:
153,325,55019,1,0,0:0:0:0:
156,301,55111,1,0,0:0:0:0:
155,277,55203,1,0,0:0:0:0:
149,254,55295,1,0,0:0:0:0:
137,233,55387,6,0,P|221:273|288:260,1,143.999995605469
366,211,55940,1,0,0:0:0:0:
366,211,56124,2,0,P|419:220|460:222,1,71.9999978027344
366,102,56492,2,0,P|313:111|272:113,1,71.9999978027344
220,55,56860,6,0,P|188:35|78:63,1,143.999995605469
26,125,57412,1,0,0:0:0:0:
26,125,57504,1,0,0:0:0:0:
26,125,57596,2,0,P|35:189|35:201,1,71.9999978027344
139,252,57964,2,0,P|141:216|148:180,1,71.9999978027344
220,55,58332,6,0,P|234:111|251:219,1,143.999995605469
248,196,58884,1,0,0:0:0:0:
327,258,59068,1,0,0:0:0:0:
364,138,59253,1,0,0:0:0:0:
209,290,59437,1,0,0:0:0:0:
413,233,59621,1,0,0:0:0:0:
291,334,59805,6,0,L|220:325,2,71.9999978027344
443,349,60357,1,0,0:0:0:0:
282,253,60541,5,0,0:0:0:0:
277,252,60633,1,0,0:0:0:0:
272,251,60725,1,0,0:0:0:0:
267,250,60817,1,0,0:0:0:0:
262,249,60909,1,0,0:0:0:0:
257,248,61001,1,0,0:0:0:0:
252,247,61093,1,0,0:0:0:0:
247,246,61185,1,0,0:0:0:0:
242,245,61277,6,0,P|246:300|245:317,1,64
184,373,61645,2,0,P|135:362|94:362,1,64
238,181,62013,2,0,P|246:291|244:326,1,128
150,250,62565,6,0,P|118:253|87:261,2,64
140,156,63118,1,0,0:0:0:0:
238,181,63302,1,0,0:0:0:0:
300,99,63486,2,0,P|333:99|368:103,2,64
224,155,64038,1,0,0:0:0:0:
139,102,64222,6,0,P|98:73|12:81,1,128
188,27,64774,1,0,0:0:0:0:
67,155,64958,2,0,B|53:204|53:204|66:238|63:301,1,128
171,322,65510,2,0,L|130:316,1,32
166,207,65694,6,0,P|220:191|315:230,1,160
432,338,66246,1,0,0:0:0:0:
502,154,66430,1,0,0:0:0:0:
413,226,66614,1,0,0:0:0:0:
360,60,66799,5,0,0:0:0:0:
359,74,66891,1,0,0:0:0:0:
358,89,66983,1,0,0:0:0:0:
358,104,67075,1,0,0:0:0:0:
357,119,67167,5,0,0:0:0:0:
287,20,67351,1,0,0:0:0:0:
454,97,67535,1,0,0:0:0:0:
267,164,67719,5,0,0:0:0:0:
473,91,67903,1,0,0:0:0:0:
361,204,68087,5,0,0:0:0:0:
360,60,68271,1,0,0:0:0:0:
469,248,68455,2,0,P|412:286|347:289,1,95.9999970703126
213,202,68823,1,0,0:0:0:0:
361,204,69007,1,0,0:0:0:0:
205,306,69191,6,0,B|155:300|155:300|113:320|113:320|77:302|43:306|43:306|1:295,1,191.999994140625
0,229,69651,1,0,0:0:0:0:
15,184,69743,1,0,0:0:0:0:
53,156,69835,1,0,0:0:0:0:
100,154,69927,1,0,0:0:0:0:
140,179,70019,1,0,0:0:0:0:
157,214,70111,6,0,P|251:220|306:168,1,160
206,67,70664,1,0,0:0:0:0:
394,56,70848,5,0,0:0:0:0:
371,34,70940,1,0,0:0:0:0:
344,24,71032,1,0,0:0:0:0:
313,24,71124,1,0,0:0:0:0:
287,37,71216,1,0,0:0:0:0:
298,59,71308,1,0,0:0:0:0:
342,89,71400,1,0,0:0:0:0:
394,97,71492,1,0,0:0:0:0:
446,84,71584,6,0,P|419:152|406:264,1,160
405,237,72136,1,0,0:0:0:0:
512,185,72320,1,0,0:0:0:0:
317,165,72504,1,0,0:0:0:0:
496,301,72688,1,0,0:0:0:0:
282,276,72872,1,0,0:0:0:0:
390,80,73056,6,0,B|370:177|422:146|401:263,1,160
377,339,73608,1,0,0:0:0:0:
181,200,73792,2,0,P|215:183|280:183,1,80
440,128,74160,2,0,P|419:171|418:212,1,80
439,377,74529,2,0,P|383:358|336:365,1,80
172,347,74897,2,0,P|163:271|158:235,1,80
179,106,75265,5,0,0:0:0:0:
159,134,75357,1,0,0:0:0:0:
148,166,75449,1,0,0:0:0:0:
146,201,75541,1,0,0:0:0:0:
151,233,75633,1,0,0:0:0:0:
193,204,75725,1,0,0:0:0:0:
241,190,75817,1,0,0:0:0:0:
292,190,75909,1,0,0:0:0:0:
341,204,76001,6,0,B|396:187|396:187|448:200|448:200|473:184|533:180,1,176.000005371094
445,90,76553,1,0,0:0:0:0:
386,276,76737,2,0,P|375:334|370:368,1,88.000002685547
474,320,77105,1,0,0:0:0:0:
343,185,77289,2,0,P|304:229|283:256,1,88.000002685547
211,347,77657,1,0,0:0:0:0:
195,216,77841,1,0,0:0:0:0:
335,348,78026,1,0,0:0:0:0:
467,182,78210,5,0,0:0:0:0:
280,167,78394,1,0,0:0:0:0:
474,198,78578,5,0,0:0:0:0:
273,181,78762,1,0,0:0:0:0:
391,93,78946,6,0,B|289:95|322:146|218:154,1,176.000005371094
228,40,79498,1,0,0:0:0:0:
375,182,79682,2,0,P|383:241|384:286,1,88.000002685547
477,309,80050,1,0,0:0:0:0:
282,250,80234,2,0,P|229:243|185:243,1,88.000002685547
87,280,80602,6,0,P|178:352|255:316,1,176.000005371094
376,198,81154,1,0,0:0:0:0:
194,242,81338,1,0,0:0:0:0:
285,100,81522,1,0,0:0:0:0:
296,306,81707,1,0,0:0:0:0:
182,136,81891,6,0,P|168:199|168:251,1,88.000002685547
265,73,82259,1,0,0:0:0:0:
90,98,82443,1,0,0:0:0:0:
266,198,82627,2,0,P|362:191|377:190,1,88.000002685547
181,271,82995,2,0,P|85:264|70:263,1,88.000002685547
122,171,83363,5,0,0:0:0:0:
19,321,83547,1,0,0:0:0:0:
185,286,83731,1,0,0:0:0:0:
27,189,83915,1,0,0:0:0:0:
237,214,84099,2,0,P|272:274|230:365,1,176.000005371094
214,372,84559,1,0,0:0:0:0:
214,372,84651,1,0,0:0:0:0:
97,292,84835,6,0,P|140:288|184:285,1,88.000002685547
338,208,85203,2,0,P|294:211|250:214,1,88.000002685547
403,374,85572,2,0,P|452:323|422:223,1,176.000005371094
324,151,86124,1,0,0:0:0:0:
371,293,86308,1,0,0:0:0:0:
330,127,86492,1,0,0:0:0:0:
285,328,86676,1,0,0:0:0:0:
466,208,86860,1,0,0:0:0:0:
237,188,87044,6,0,B|138:207|138:207|112:202|75:172,1,143.999995605469
84,177,87412,2,0,L|90:121,1,47.9999985351563
143,35,87596,1,0,0:0:0:0:
151,55,87688,1,0,0:0:0:0:
160,73,87780,2,0,B|219:99|219:99|273:50|347:73,1,176.000005371094
467,208,88332,5,0,0:0:0:0:
408,27,88516,1,0,0:0:0:0:
373,188,88700,5,0,0:0:0:0:
501,46,88884,1,0,0:0:0:0:
279,168,89068,5,0,0:0:0:0:
408,27,89253,1,0,0:0:0:0:
402,279,89437,5,0,0:0:0:0:
260,151,89621,1,0,0:0:0:0:
486,122,89805,5,0,0:0:0:0:
286,259,89989,1,0,0:0:0:0:
329,48,90173,1,0,0:0:0:0:
481,231,90357,2,0,P|485:188|493:145,1,88.000002685547
259,81,90725,5,4,0:0:0:0:
286,259,90909,1,0,0:0:0:0:
186,106,91093,5,0,0:0:0:0:
159,284,91277,1,0,0:0:0:0:
113,81,91461,5,0,0:0:0:0:
140,259,91645,1,0,0:0:0:0:
40,106,91829,5,0,0:0:0:0:
13,284,92013,1,0,0:0:0:0:
211,96,92197,5,0,0:0:0:0:
178,309,92381,1,0,0:0:0:0:
93,182,92565,5,0,0:0:0:0:
306,149,92749,1,0,0:0:0:0:
197,334,92934,5,0,0:0:0:0:
211,96,93118,1,0,0:0:0:0:
55,167,93302,5,0,0:0:0:0:
286,259,93486,1,0,0:0:0:0:
92,332,93670,6,0,B|47:320|47:320|23:266|28:194,1,176.000005371094,4|0,0:0|0:0,0:0:0:0:
192,71,94222,1,0,0:0:0:0:
43,30,94406,2,0,L|132:22,1,88.000002685547
341,112,94774,2,0,L|251:119,1,88.000002685547
28,193,95142,5,0,0:0:0:0:
246,251,95326,1,0,0:0:0:0:
188,73,95510,2,0,P|177:92|174:114,1,44.0000013427735
99,161,95694,2,0,P|87:142|69:128,1,44.0000013427735
58,279,95878,1,0,0:0:0:0:
98,295,95970,1,0,0:0:0:0:
140,285,96062,1,0,0:0:0:0:
169,253,96154,1,0,0:0:0:0:
175,210,96246,5,0,0:0:0:0:
147,242,96338,1,0,0:0:0:0:
140,285,96430,1,0,0:0:0:0:
155,325,96522,1,0,0:0:0:0:
190,351,96614,5,4,0:0:0:0:
377,292,96799,1,0,0:0:0:0:
175,210,96983,1,0,0:0:0:0:
283,361,97167,2,0,P|291:317|295:273,1,88.000002685547
61,294,97535,1,0,0:0:0:0:
261,193,97719,1,0,0:0:0:0:
190,351,97903,1,0,0:0:0:0:
87,197,98087,6,0,P|130:205|174:209,1,88.000002685547
265,108,98455,1,0,0:0:0:0:
306,121,98547,1,0,0:0:0:0:
335,153,98639,1,0,0:0:0:0:
345,195,98731,1,0,0:0:0:0:
332,237,98823,1,0,0:0:0:0:
206,202,99007,6,0,P|227:199|249:195,1,44.0000013427735
410,115,99191,1,0,0:0:0:0:
377,144,99283,1,0,0:0:0:0:
335,153,99375,1,0,0:0:0:0:
293,140,99467,1,0,0:0:0:0:
264,108,99559,6,0,P|197:69|94:102,1,176.000005371094
250,207,100111,1,0,0:0:0:0:
159,280,100295,2,0,P|112:258|63:261,1,88.000002685547
256,359,100664,2,0,P|303:337|352:340,1,88.000002685547
446,191,101032,6,0,B|403:264|403:264|446:363,1,176.000005371094
506,267,101584,1,0,0:0:0:0:
338,336,101768,1,0,0:0:0:0:
511,246,101952,1,0,0:0:0:0:
313,175,102136,1,0,0:0:0:0:
419,309,102320,1,0,0:0:0:0:
246,271,102504,6,0,B|155:266|179:331|65:325,1,176.000005371094
227,362,103056,1,0,0:0:0:0:
78,153,103240,2,0,P|96:209|93:246,1,88.000002685547
238,95,103608,2,0,P|220:151|223:188,1,88.000002685547
254,307,103976,6,0,P|358:333|413:258,1,176.000005371094
439,129,104529,1,0,0:0:0:0:
328,246,104713,1,0,0:0:0:0:
290,87,104897,1,0,0:0:0:0:
195,248,105081,1,0,0:0:0:0:
317,71,105265,1,0,0:0:0:0:
317,71,105357,1,0,0:0:0:0:
317,71,105449,6,0,B|265:76|235:48|235:48|185:35|130:71,1,176.000005371094
208,141,106001,1,0,0:0:0:0:
41,25,106185,2,0,P|56:99|59:142,1,88.000002685547
97,280,106553,2,0,P|103:236|113:193,1,88.000002685547
344,170,106921,6,0,P|275:226|185:169,1,176.000005371094
135,50,107473,1,0,0:0:0:0:
264,111,107657,1,0,0:0:0:0:
90,195,107841,1,0,0:0:0:0:
188,252,108026,1,0,0:0:0:0:
107,335,108210,1,0,0:0:0:0:
107,335,108302,1,0,0:0:0:0:
107,335,108394,6,0,P|154:293|274:322,1,176.000005371094
377,179,108946,2,0,P|363:245|367:293,1,88.000002685547
468,366,109314,2,0,P|482:300|478:252,1,88.000002685547
440,103,109682,1,0,0:0:0:0:
363,265,109866,1,0,0:0:0:0:
254,121,110050,1,0,0:0:0:0:
421,182,110234,1,0,0:0:0:0:
201,262,110418,1,0,0:0:0:0:
201,262,110510,1,0,0:0:0:0:
201,262,110602,1,0,0:0:0:0:
294,346,110786,5,0,0:0:0:0:
263,365,110878,1,0,0:0:0:0:
228,376,110970,1,0,0:0:0:0:
191,378,111062,1,0,0:0:0:0:
156,370,111154,1,0,0:0:0:0:
123,354,111246,1,0,0:0:0:0:
96,329,111338,6,0,P|86:226|74:162,1,132.00000402832
71,178,111707,1,0,0:0:0:0:
194,248,111891,2,0,P|276:237|314:239,1,88.000002685547
315,97,112259,2,0,P|233:108|195:106,1,88.000002685547
381,21,112627,5,0,0:0:0:0:
399,179,112811,1,0,0:0:0:0:
489,23,112995,1,0,0:0:0:0:
315,97,113179,1,0,0:0:0:0:
466,199,113363,5,0,0:0:0:0:
489,195,113455,1,0,0:0:0:0:
512,191,113547,1,0,0:0:0:0:
367,252,113731,5,0,0:0:0:0:
344,248,113823,1,0,0:0:0:0:
321,244,113915,2,0,L|267:251,1,44.0000013427735
162,374,114099,2,0,L|205:368,1,44.0000013427735
167,208,114283,6,0,P|104:202|31:220,1,132.00000402832
20,229,114651,1,0,0:0:0:0:
111,377,114835,2,0,P|108:318|113:286,1,88.000002685547
170,122,115203,1,0,0:0:0:0:
258,256,115387,1,0,0:0:0:0:
325,176,115572,1,0,0:0:0:0:
325,176,115664,1,0,0:0:0:0:
325,176,115756,6,0,P|360:229|330:345,1,176.000005371094
258,256,116308,1,0,0:0:0:0:
450,309,116492,1,0,0:0:0:0:
450,309,116676,5,0,0:0:0:0:
485,171,116860,1,0,0:0:0:0:
339,334,117044,1,0,0:0:0:0:
339,334,117136,1,0,0:0:0:0:
339,334,117228,6,0,B|261:300|261:300|169:324,1,176.000005371094
259,210,117780,1,0,0:0:0:0:
69,365,117964,2,0,P|79:305|91:270,1,88.000002685547
143,109,118332,2,0,P|155:151|161:194,1,88.000002685547
59,171,118700,1,0,0:0:0:0:
245,142,118884,1,0,0:0:0:0:
56,79,119068,1,0,0:0:0:0:
220,55,119253,5,0,0:0:0:0:
252,56,119345,1,0,0:0:0:0:
285,57,119437,2,0,P|317:99|323:116,1,44.0000013427735
372,169,119621,2,0,P|384:150|399:135,1,44.0000013427735
491,237,119805,5,0,0:0:0:0:
475,277,119897,1,0,0:0:0:0:
442,305,119989,1,0,0:0:0:0:
399,312,120081,1,0,0:0:0:0:
359,297,120173,2,0,P|287:277|240:280,1,88.000002685547
150,204,120541,5,0,0:0:0:0:
201,362,120725,1,0,0:0:0:0:
87,135,120909,1,0,0:0:0:0:
36,371,121093,1,0,0:0:0:0:
267,225,121277,1,0,0:0:0:0:
4,195,121461,1,0,0:0:0:0:
260,320,121645,6,0,B|338:329|322:273|419:286,1,143.999995605469
497,264,122197,2,0,P|477:199|485:172,1,71.9999978027344
498,109,122565,1,0,0:0:0:0:
364,204,122749,2,0,P|319:200|288:186,1,71.9999978027344
237,246,123026,5,0,0:0:0:0:
237,246,123118,2,0,P|165:276|94:245,1,160
174,100,123670,2,0,P|167:139|165:179,1,80
39,134,124038,2,0,P|37:95|30:55,1,80
176,16,124406,6,0,B|255:23|228:77|319:88,1,160
423,25,124958,1,0,0:0:0:0:
294,98,125142,1,0,0:0:0:0:
465,159,125326,2,0,P|425:152|385:150,1,80
224,229,125694,2,0,P|263:222|303:220,1,80
385,372,126062,6,0,P|394:312|400:253,1,120,4|0,0:0|0:0,0:0:0:0:
392,245,126431,1,0,0:0:0:0:
280,330,126614,2,0,P|240:336|200:338,1,80
40,284,126983,1,0,0:0:0:0:
177,223,127167,1,0,0:0:0:0:
83,351,127351,6,0,P|64:273|52:194,1,160
110,58,127903,1,0,0:0:0:0:
177,223,128087,1,0,0:0:0:0:
269,95,128271,1,0,0:0:0:0:
267,102,128363,1,0,0:0:0:0:
267,111,128455,1,0,0:0:0:0:
369,226,128639,1,0,0:0:0:0:
367,219,128731,1,0,0:0:0:0:
367,210,128823,1,0,0:0:0:0:
365,203,128915,1,0,0:0:0:0:
364,192,129007,6,0,P|369:113|391:36,1,160,4|0,0:0|0:0,0:0:0:0:
296,285,129559,2,0,P|314:320|337:353,1,80
208,251,129927,2,0,P|192:288|182:326,1,80
63,362,130295,6,0,P|59:282|37:206,1,160
157,332,130848,1,0,0:0:0:0:
215,143,131032,1,0,0:0:0:0:
295,285,131216,1,0,0:0:0:0:
329,185,131400,5,0,0:0:0:0:
255,214,131584,1,0,0:0:0:0:
271,292,131768,1,0,0:0:0:0:
471,246,131952,5,4,0:0:0:0:
246,298,132136,1,0,0:0:0:0:
456,354,132320,1,0,0:0:0:0:
358,110,132504,5,4,0:0:0:0:
221,304,132688,1,0,0:0:0:0:
471,246,132872,1,0,0:0:0:0:
215,143,133056,5,4,0:0:0:0:
343,363,133240,1,0,0:0:0:0:
461,132,133424,6,0,L|381:125,1,80
358,110,133700,1,0,0:0:0:0:
358,110,133792,1,0,0:0:0:0:
215,143,133976,1,0,0:0:0:0:
310,266,134160,2,0,L|303:186,1,80,4|0,0:0|0:0,0:0:0:0:
191,53,134529,1,0,0:0:0:0:
175,75,134621,1,0,0:0:0:0:
153,93,134713,1,0,0:0:0:0:
127,104,134805,1,0,0:0:0:0:
88,104,134897,6,0,P|52:98|18:87,1,71.9999978027344,4|0,0:0|0:0,0:0:0:0:
215,143,135265,1,0,0:0:0:0:
77,222,135449,1,0,0:0:0:0:
77,222,135541,1,0,0:0:0:0:
77,222,135633,2,0,P|111:210|146:205,1,71.9999978027344
251,346,136001,1,0,0:0:0:0:
155,303,136185,1,0,0:0:0:0:
257,212,136369,6,0,P|276:242|286:276,1,71.9999978027344
349,338,136645,1,0,0:0:0:0:
349,338,136737,2,0,P|359:303|378:273,1,71.9999978027344
470,201,137105,1,0,0:0:0:0:
430,341,137289,1,0,0:0:0:0:
357,189,137473,2,0,P|337:158|328:124,1,71.9999978027344
332,113,137749,1,0,0:0:0:0:
336,104,137841,6,0,B|301:121|301:121|196:111,1,143.999995605469
95,82,138394,2,0,P|90:117|99:152,1,71.9999978027344
190,226,138762,2,0,L|261:219,1,71.9999978027344
419,123,139130,5,0,0:0:0:0:
252,84,139314,2,0,P|234:81|215:74,2,35.9999989013672
336,104,139682,1,0,0:0:0:0:
261,218,139866,1,0,0:0:0:0:
242,219,139958,1,0,0:0:0:0:
225,222,140050,1,0,0:0:0:0:
97,289,140234,5,0,0:0:0:0:
113,275,140326,1,0,0:0:0:0:
124,256,140418,1,0,0:0:0:0:
131,236,140510,1,0,0:0:0:0:
131,214,140602,1,0,0:0:0:0:
126,193,140694,1,0,0:0:0:0:
115,173,140786,6,0,P|103:105|148:48,1,143.999995605469,4|0,0:0|0:0,0:0:0:0:
283,104,141338,1,0,0:0:0:0:
283,104,141522,2,0,P|317:116|352:121,1,71.9999978027344
477,42,141891,2,0,P|441:47|407:59,1,71.9999978027344
486,266,142259,6,0,P|472:196|432:137,1,143.999995605469
350,219,142811,1,0,0:0:0:0:
350,219,142903,1,0,0:0:0:0:
350,219,142995,2,0,P|316:231|281:236,1,71.9999978027344
287,337,143363,2,0,P|253:325|217:319,1,71.9999978027344
39,229,143731,6,0,P|112:234|180:212,1,143.999995605469,4|0,0:0|0:0,0:0:0:0:
217,319,144283,1,0,0:0:0:0:
280,236,144467,2,0,P|286:200|299:167,1,71.9999978027344
150,57,144835,2,0,P|163:90|169:125,1,71.9999978027344,0|4,0:0|0:0,0:0:0:0:
39,229,145203,5,0,0:0:0:0:
217,319,145387,1,0,0:0:0:0:
100,164,145572,1,0,0:0:0:0:
65,315,145756,1,0,0:0:0:0:
280,236,145940,5,0,0:0:0:0:
349,247,146124,1,0,0:0:0:0:
392,303,146308,1,0,0:0:0:0:
395,339,146492,1,0,0:0:0:0:
386,373,146676,6,0,P|343:364|308:357,1,64
194,310,147044,2,0,P|225:303|256:297,1,64
408,258,147412,2,0,P|395:198|397:111,1,128
439,39,147964,2,0,L|511:49,2,64
344,0,148516,1,0,0:0:0:0:
304,94,148700,1,0,0:0:0:0:
211,49,148884,2,0,L|147:56,2,64
304,94,149437,1,0,0:0:0:0:
215,217,149621,5,0,0:0:0:0:
215,217,149805,2,0,P|159:180|101:185,1,128
234,304,150357,2,0,P|337:286|368:284,1,128
308,186,150909,1,0,0:0:0:0:
218,327,151093,2,0,P|115:309|84:307,1,128
15,366,151645,1,0,0:0:0:0:
31,177,151829,1,0,0:0:0:0:
120,298,152013,1,0,0:0:0:0:
161,149,152197,5,0,0:0:0:0:
160,163,152289,1,0,0:0:0:0:
159,178,152381,1,0,0:0:0:0:
159,193,152473,1,0,0:0:0:0:
158,208,152565,5,0,0:0:0:0:
253,117,152749,1,0,0:0:0:0:
65,184,152934,1,0,0:0:0:0:
220,283,153118,1,0,0:0:0:0:
122,77,153302,1,0,0:0:0:0:
15,289,153486,1,0,0:0:0:0:
223,188,153670,1,0,0:0:0:0:
87,357,153854,6,0,B|186:355|146:302|267:300,1,191.999994140625
431,344,154406,1,0,0:0:0:0:
283,329,154590,2,0,P|267:257|314:146,1,191.999994140625
250,206,155050,1,0,0:0:0:0:
219,226,155142,1,0,0:0:0:0:
185,238,155234,1,0,0:0:0:0:
149,243,155326,1,0,0:0:0:0:
112,239,155418,1,0,0:0:0:0:
78,226,155510,6,0,P|99:276|81:388,1,160
5,280,156062,1,0,0:0:0:0:
195,339,156246,1,0,0:0:0:0:
214,337,156338,1,0,0:0:0:0:
234,336,156430,1,0,0:0:0:0:
254,335,156522,1,0,0:0:0:0:
290,358,156615,1,0,0:0:0:0:
316,356,156707,1,0,0:0:0:0:
345,355,156799,1,0,0:0:0:0:
374,353,156891,1,0,0:0:0:0:
403,352,156983,5,0,0:0:0:0:
494,171,157167,1,0,0:0:0:0:
308,293,157351,1,0,0:0:0:0:
512,249,157535,1,0,0:0:0:0:
291,148,157719,1,0,0:0:0:0:
483,334,157903,1,0,0:0:0:0:
413,78,158087,1,0,0:0:0:0:
303,311,158271,1,0,0:0:0:0:
195,72,158455,6,0,P|216:152|219:244,1,160
180,319,159007,1,0,0:0:0:0:
106,257,159191,2,0,P|61:249|11:249,1,80
193,152,159559,2,0,P|238:144|288:144,1,80
413,243,159927,2,0,P|400:186|404:158,1,80
490,9,160295,2,0,P|503:66|499:94,1,80
413,243,160664,5,0,0:0:0:0:
378,261,160756,1,0,0:0:0:0:
338,265,160848,1,0,0:0:0:0:
301,252,160940,1,0,0:0:0:0:
271,225,161032,1,0,0:0:0:0:
233,190,161124,1,0,0:0:0:0:
186,174,161216,1,0,0:0:0:0:
136,178,161308,1,0,0:0:0:0:
93,202,161400,1,0,0:0:0:0:
