osu file format v14

[General]
AudioFilename: audio.mp3
AudioLeadIn: 0
PreviewTime: 707
Countdown: 0
SampleSet: Soft
StackLeniency: 0.7
Mode: 0
LetterboxInBreaks: 0
WidescreenStoryboard: 1

[Editor]
Bookmarks: 38167,76081,109578
DistanceSpacing: 1.1
BeatDivisor: 4
GridSize: 8
TimelineZoom: 1.7

[Metadata]
Title:Aoi Tori
TitleUnicode:青い鳥
Artist:mimimemeMIMI
ArtistUnicode:みみめめMIMI
Creator:Nao Tomori
Version:Normal
Source:
Tags:blue bird japanese novelty cut short version jpop shiroi white synderes frostwich fhána fhana BEST ALBUM ~Bon! Voyage!~
BeatmapID:2204249
BeatmapSetID:1054715

[Difficulty]
HPDrainRate:3
CircleSize:3.3
OverallDifficulty:4
ApproachRate:5.5
SliderMultiplier:0.899999999999999
SliderTickRate:1

[Events]
//Background and Video events
0,0,"atdan upscale.jpg",0,0
//Break Periods
//Storyboard Layer 0 (Background)
//Storyboard Layer 1 (Fail)
//Storyboard Layer 2 (Pass)
//Storyboard Layer 3 (Foreground)
//Storyboard Layer 4 (Overlay)
//Storyboard Sound Samples

[TimingPoints]
2449,370.847894263848,4,2,1,39,1,0
2449,-285.714285714286,4,2,1,39,0,0
5415,363.222510109693,4,2,1,39,1,0
5415,-285.714285714286,4,2,1,39,0,0
8320,368.098159509202,4,2,1,39,1,0
8320,-285.714285714286,4,2,1,39,0,0
9792,397.614314115308,4,2,1,39,1,0
9792,-285.714285714286,4,2,1,39,0,0
10587,368.098159509202,4,2,1,39,1,0
10587,-267.594327000268,4,2,1,39,0,0
11840,367.309458218549,4,2,1,39,1,0
14227,368.098159509202,4,2,1,39,1,8
14227,-200,4,2,1,39,0,0
14779,368.098159509202,4,2,1,39,1,0
14779,-285.714285714286,4,2,1,39,0,0
20116,368.098159509202,4,2,1,39,1,0
21956,-285.714285714286,4,2,1,39,0,0
25637,-100,4,2,1,61,0,0
37785,-114.285714285714,4,2,1,51,0,0
49564,-100,4,2,1,56,0,0
61340,-100,4,2,1,51,0,0
61343,-133.333333333333,4,2,1,51,0,0
65577,-114.285714285714,4,2,1,51,0,0
67234,-100,4,2,1,66,0,0
76066,-86.9565217391304,4,2,1,71,0,1
79748,-100,4,2,1,71,0,1
80116,-100,4,2,1,71,0,1
81221,-86.9565217391304,4,2,1,71,0,1
82141,-100,4,2,1,71,0,1
84165,-86.9565217391304,4,2,1,71,0,1
87846,-86.9565217391304,4,2,2,71,0,1
99625,-86.9565217391304,4,2,1,71,0,1
120239,-86.9565217391304,4,2,1,81,0,1
123183,-114.285714285714,4,2,1,71,0,0
123369,-114.285714285714,4,2,1,66,0,0
125393,-100,4,2,1,66,0,0
126126,-114.285714285714,4,2,1,66,0,0
131283,-100,4,2,1,66,0,0
132016,-114.285714285714,4,2,1,66,0,0
134226,-100,4,2,1,66,0,0
134964,-100,4,2,1,76,0,0
137909,-100,4,2,1,86,0,0

[Colours]
Combo1 : 235,99,88
Combo2 : 121,216,247
Combo3 : 247,164,201
Combo4 : 169,162,240

[HitObjects]
84,297,2449,6,0,L|75:244,1,47.2499985580444,2|2,0:2|0:2,0:0:0:0:
88,235,5415,6,0,L|97:182,1,47.2499985580444,2|2,0:2|0:2,0:0:0:0:
113,176,8320,6,0,L|92:46,1,125.999996154785,2|2,0:2|0:2,0:0:0:0:
214,104,10586,1,2,0:2:0:0:
335,51,11323,6,0,L|381:41,1,47.2499985580444,2|2,0:2|0:2,0:0:0:0:
424,43,14227,6,0,P|442:69|446:105,1,67.4999999999999,2|2,0:2|0:2,0:0:0:0:
391,171,15699,1,0,0:0:0:0:
391,171,17171,6,0,P|359:161|313:171,1,78.7499975967407,2|2,0:2|0:2,0:0:0:0:
230,232,18644,2,0,P|206:243|171:249,1,62.9999980773926,0|2,0:0|0:2,0:0:0:0:
68,193,20116,5,2,0:2:0:0:
28,79,20852,1,2,0:2:0:0:
81,212,21589,1,2,0:2:0:0:
50,221,21956,2,0,P|42:257|39:283,1,62.9999980773926
78,362,23061,6,0,L|206:372,1,125.999996154785,2|2,2:2|0:2,0:0:0:0:
224,362,25637,2,0,L|281:350,1,45,10|0,0:2|3:2,0:0:0:0:
316,363,26006,6,0,P|332:335|320:272,1,89.9999999999999,6|10,3:2|0:2,0:0:0:0:
291,242,26558,1,2,3:2:0:0:
268,145,26926,1,2,3:2:0:0:
313,54,27294,2,0,P|352:54|417:44,1,89.9999999999999,2|2,3:2|0:0,0:0:0:0:
441,77,27846,1,10,0:0:0:0:
372,148,28214,1,2,3:2:0:0:
434,224,28582,1,10,0:0:0:0:
363,293,28951,6,0,B|336:308|336:308|259:293,1,89.9999999999999,6|10,3:2|0:2,0:0:0:0:
232,276,29503,1,2,0:2:0:0:
263,182,29871,1,2,0:2:0:0:
189,115,30239,1,2,3:2:0:0:
107,171,30607,5,2,3:2:0:0:
107,171,30791,1,10,0:0:0:0:
107,171,30975,2,0,P|120:233|111:267,1,89.9999999999999,2|0,0:0|0:0,0:0:0:0:
89,300,31527,1,10,0:2:0:0:
184,326,31895,6,0,L|281:310,1,89.9999999999999,6|10,3:2|2:2,0:0:0:0:
317,333,32447,1,0,0:2:0:0:
408,295,32816,1,0,0:2:0:0:
505,310,33184,2,0,P|516:254|497:214,1,89.9999999999999,2|2,3:2|0:2,0:2:0:0:
463,197,33736,1,10,0:0:0:0:
368,225,34104,1,2,3:2:0:0:
368,225,34288,1,2,3:2:0:0:
368,225,34472,1,10,0:0:0:0:
425,144,34840,6,0,L|438:52,1,89.9999999999999,14|0,2:2|3:2,0:0:0:0:
394,30,35392,2,0,L|287:16,1,89.9999999999999,14|0,2:2|3:2,0:0:0:0:
263,46,35944,1,14,2:2:0:0:
165,28,36313,5,10,0:2:0:0:
165,28,36497,1,10,0:2:0:0:
165,28,36681,1,2,3:2:0:0:
165,28,36865,1,2,3:2:0:0:
165,28,37049,1,6,3:2:0:0:
49,156,37785,6,0,P|66:202|57:234,1,78.7500007510184,2|2,3:2|3:2,0:0:0:0:
99,306,38521,2,0,P|159:326|183:318,1,78.7500007510184,8|0,2:2|0:0,0:0:0:0:
250,287,39257,2,0,L|259:206,2,78.7500007510184,0|0|8,3:2|3:2|0:2,0:0:0:0:
319,338,40362,1,0,3:0:0:0:
398,303,40730,6,0,B|409:274|409:274|393:227,1,78.7500007510184,2|2,3:2|3:2,0:0:0:0:
447,161,41466,2,0,L|455:73,1,78.7500007510184,8|0,0:2|3:2,0:0:0:0:
371,57,42202,2,0,L|363:135,1,78.7500007510184,0|0,3:2|3:2,0:0:0:0:
285,173,42938,2,0,P|237:181|197:199,1,78.7500007510184,8|0,0:2|3:2,0:0:0:0:
124,207,43674,6,0,P|94:172|99:125,1,78.7500007510184,6|0,3:2|3:2,0:0:0:0:
112,102,44227,1,2,0:2:0:0:
112,102,44411,2,0,L|190:86,1,78.7500007510184,8|0,0:0|3:0,0:0:0:0:
270,117,45147,2,0,L|350:104,1,78.7500007510184,0|0,3:2|3:0,0:0:0:0:
386,122,45699,1,2,0:2:0:0:
386,122,45883,1,10,0:2:0:0:
446,184,46251,1,0,3:2:0:0:
376,235,46619,6,0,P|345:273|337:318,1,78.7500007510184,2|0,3:2|3:2,0:0:0:0:
354,340,47171,1,2,0:0:0:0:
354,340,47355,2,0,P|311:328|267:335,1,78.7500007510184,10|6,0:2|0:2,0:0:0:0:
197,363,48092,2,0,L|104:379,1,78.7500007510184,2|8,3:2|0:2,0:0:0:0:
49,325,48828,2,0,L|57:234,1,78.7500007510184,10|0,0:2|3:2,0:0:0:0:
25,216,49380,1,8,2:2:0:0:
25,216,49564,6,0,P|17:184|44:119,1,89.9999999999999,6|10,3:2|0:2,0:0:0:0:
79,112,50116,2,0,L|99:18,1,89.9999999999999,2|2,0:2|3:2,0:0:0:0:
196,19,50852,2,0,L|214:107,1,89.9999999999999,2|0,0:2|0:0,0:0:0:0:
276,184,51589,2,0,L|330:170,2,45,2|2|2,3:2|3:2|0:2,0:0:0:0:
211,258,52325,1,2,3:2:0:0:
211,258,52509,6,0,P|225:293|281:319,1,89.9999999999999,2|8,3:2|0:2,0:0:0:0:
318,319,53061,2,0,P|381:303|413:308,1,89.9999999999999,2|2,0:2|0:2,0:0:0:0:
506,353,53797,2,0,P|499:320|485:213,1,135,2|8,0:2|0:2,0:0:0:0:
488,120,54717,1,8,0:2:0:0:
488,120,55086,1,8,0:2:0:0:
404,66,55454,6,0,P|371:62|317:94,1,89.9999999999999,6|8,3:2|0:2,0:0:0:0:
303,133,56006,1,2,0:2:0:0:
303,133,56190,2,0,L|291:230,1,89.9999999999999,2|8,3:2|2:0,0:0:0:0:
226,296,56926,2,0,P|192:303|139:281,1,89.9999999999999,2|8,3:2|0:2,0:0:0:0:
112,243,57478,1,2,3:2:0:0:
112,243,57662,1,2,3:2:0:0:
139,97,58214,5,2,0:2:0:0:
139,97,58398,2,0,L|116:8,1,89.9999999999999,6|8,3:2|0:2,0:0:0:0:
24,46,59135,2,0,L|47:135,1,89.9999999999999,2|10,3:2|0:2,0:0:0:0:
22,178,59687,1,6,3:2:0:0:
22,178,59871,2,0,P|2:213|70:330,1,180,2|14,0:0|0:2,0:0:0:0:
201,364,61159,5,4,0:3:0:0:
201,364,61343,2,0,P|247:341|335:369,1,135.000005149841,6|8,3:2|0:2,0:0:0:0:
411,330,62447,1,2,3:2:0:0:
498,360,62816,2,0,L|503:216,1,135.000005149841,2|8,3:2|0:2,0:0:0:0:
424,145,64104,5,2,0:0:0:0:
424,145,64288,2,0,P|399:170|390:271,1,135.000005149841,2|8,3:2|0:2,0:0:0:0:
265,308,65576,1,6,3:2:0:0:
265,308,65760,2,0,L|137:295,1,118.125001126528,0|2,0:0|3:2,0:0:0:0:
118,263,66497,2,0,P|89:255|28:241,1,78.7500007510184,8|8,0:3|2:2,0:0:0:0:
29,145,67233,5,6,3:2:0:0:
124,120,67601,1,10,0:2:0:0:
214,159,67969,1,2,3:2:0:0:
311,142,68337,1,0,3:2:0:0:
311,142,68521,6,0,P|355:131|457:115,1,135,6|8,3:2|0:2,0:0:0:0:
487,94,69257,2,0,P|434:82|349:52,1,135,6|8,3:2|0:3,0:0:0:0:
252,20,70178,1,6,3:2:0:0:
180,88,70546,1,2,3:2:0:0:
90,46,70914,1,10,0:2:0:0:
20,116,71282,1,10,0:2:0:0:
20,116,71466,1,10,0:2:0:0:
20,116,71650,6,0,P|4:159|8:216,1,89.9999999999999,6|8,3:2|0:2,0:0:0:0:
75,271,72386,2,0,L|174:260,1,89.9999999999999,6|6,3:2|3:2,0:0:0:0:
246,316,73122,6,0,P|283:302|342:305,1,89.9999999999999,6|8,3:2|0:2,0:0:0:0:
379,320,73674,1,0,3:2:0:0:
379,320,73859,2,0,P|430:336|480:326,1,89.9999999999999,2|8,3:2|0:2,0:0:0:0:
505,302,74411,1,2,3:2:0:0:
505,302,74595,6,0,L|492:208,1,89.9999999999999,2|10,3:2|0:2,0:0:0:0:
482,114,75331,1,8,0:2:0:0:
390,75,75699,1,8,0:3:0:0:
390,75,75883,1,4,0:3:0:0:
390,75,76067,6,0,P|340:99|281:86,1,103.500001974106,6|8,3:2|0:0,0:0:0:0:
242,117,76619,1,2,3:2:0:0:
192,145,76803,2,0,L|182:256,1,103.500001974106,0|8,3:2|2:2,0:0:0:0:
142,289,77355,5,2,3:2:0:0:
142,289,77540,1,2,3:2:0:0:
43,231,77908,1,10,0:2:0:0:
94,129,78276,2,0,L|107:21,1,103.500001974106,2|12,3:2|0:2,0:0:0:0:
160,7,78828,1,0,0:2:0:0:
160,7,79012,6,0,B|205:30|205:30|273:15,1,103.500001974106,6|0,3:2|3:2,0:0:0:0:
309,40,79564,1,0,3:0:0:0:
309,40,79748,1,8,0:2:0:0:
472,101,80300,5,2,3:2:0:0:
472,101,80484,1,2,3:2:0:0:
415,181,80852,1,2,3:2:0:0:
455,287,81221,1,14,0:2:0:0:
359,349,81589,6,0,P|295:334|253:328,1,103.500001974106,8|6,0:2|3:2,0:0:0:0:
170,282,82325,2,0,P|124:294|71:297,1,89.9999999999999,10|0,0:0|3:2,0:0:0:0:
63,199,83061,2,0,P|109:187|162:184,1,89.9999999999999,2|0,3:2|3:2,0:0:0:0:
214,107,83797,1,2,0:0:0:0:
321,145,84165,1,6,3:2:0:0:
407,71,84533,1,10,2:2:0:0:
483,155,84901,6,0,L|496:275,2,103.500001974106,6|0|8,3:2|3:0|0:2,0:0:0:0:
381,17,86190,1,2,3:2:0:0:
381,17,86374,2,0,P|337:10|284:32,1,103.500001974106,4|10,2:3|0:2,0:0:0:0:
237,136,87110,1,6,3:2:0:0:
128,102,87478,1,14,2:2:0:0:
30,160,87846,6,0,L|16:269,1,103.500001974106,6|10,3:2|2:2,0:0:0:0:
58,301,88398,1,0,0:0:0:0:
58,301,88582,2,0,L|161:314,1,103.500001974106,2|10,3:2|0:2,0:0:0:0:
210,286,89135,1,0,3:2:0:0:
210,286,89319,1,2,3:2:0:0:
297,212,89687,2,0,P|333:197|409:196,1,103.500001974106,10|2,0:2|3:2,0:0:0:0:
495,129,90423,1,10,0:2:0:0:
415,47,90791,6,0,L|299:44,1,103.500001974106,6|10,3:2|0:2,0:2:0:0:
219,97,91527,1,2,2:2:0:0:
127,23,91895,1,10,2:2:0:0:
127,23,92079,1,0,3:0:0:0:
127,23,92263,6,0,P|100:52|94:120,1,103.500001974106,2|10,3:2|0:2,0:0:0:0:
48,218,93000,2,0,P|59:298|67:327,1,103.500001974106,2|10,3:2|0:2,0:0:0:0:
121,320,93552,1,0,3:2:0:0:
121,320,93736,6,0,P|175:323|231:336,1,103.500001974106,6|10,3:2|0:2,0:0:0:0:
300,250,94472,2,0,P|292:202|287:132,1,103.500001974106,2|10,3:2|0:2,0:0:0:0:
317,98,95024,1,8,0:0:0:0:
317,98,95208,5,2,3:2:0:0:
428,120,95576,2,0,B|436:140|440:156|440:156|421:199|418:238,1,103.500001974106,10|2,0:2|3:2,0:0:0:0:
342,303,96313,1,4,2:3:0:0:
342,303,96497,1,4,0:3:0:0:
342,303,96681,6,0,P|290:289|174:382,1,207.000003948212,6|2,3:2|3:2,0:0:0:0:
69,332,97785,1,10,0:2:0:0:
69,332,97969,2,0,P|67:279|56:223,1,103.500001974106,4|0,3:2|3:2,0:0:0:0:
96,188,98521,1,10,0:2:0:0:
145,85,98889,1,6,3:2:0:0:
145,85,99073,1,0,3:2:0:0:
145,85,99257,1,2,3:2:0:0:
259,109,99625,6,0,P|303:124|373:104,1,103.500001974106,6|10,3:2|0:2,0:0:0:0:
408,86,100178,1,0,3:2:0:0:
408,86,100362,2,0,P|390:147|411:201,1,103.500001974106,0|8,3:2|0:2,0:0:0:0:
437,226,100914,1,2,3:2:0:0:
437,226,101098,5,2,3:2:0:0:
382,326,101466,1,10,0:2:0:0:
275,285,101834,2,0,P|187:272|169:276,1,103.500001974106,2|10,3:2|2:2,0:0:0:0:
122,251,102386,1,2,3:2:0:0:
122,251,102570,6,0,B|100:208|100:208|118:146,1,103.500001974106,6|8,3:2|0:2,0:0:0:0:
136,43,103306,2,0,P|189:68|240:60,1,103.500001974106,0|8,3:2|0:2,0:0:0:0:
258,17,103859,1,2,3:2:0:0:
258,17,104043,6,0,P|313:25|353:62,1,103.500001974106,2|10,3:2|0:2,0:0:0:0:
325,166,104779,1,2,3:2:0:0:
364,272,105147,1,10,0:2:0:0:
364,272,105331,1,0,0:0:0:0:
364,272,105515,6,0,P|264:261|241:268,1,103.500001974106,6|10,3:2|2:2,0:0:0:0:
165,319,106251,1,0,3:2:0:0:
62,268,106619,2,0,L|69:154,1,103.500001974106,10|6,0:2|3:2,0:0:0:0:
157,93,107355,1,10,2:2:0:0:
256,148,107724,1,2,3:2:0:0:
353,89,108092,1,10,0:2:0:0:
353,89,108276,1,0,3:0:0:0:
353,89,108460,6,0,P|389:69|483:121,1,155.250002961159,6|0,3:2|3:2,0:0:0:0:
458,168,109196,2,0,P|444:217|434:268,1,103.500001974106,2|10,3:2|0:2,0:0:0:0:
389,303,109748,1,2,3:2:0:0:
389,303,109932,6,0,P|327:278|274:288,1,103.500001974106,2|10,3:2|0:2,0:0:0:0:
239,302,110484,1,2,3:2:0:0:
145,236,110852,1,2,3:2:0:0:
37,275,111221,1,8,2:3:0:0:
37,275,111405,2,0,L|25:158,1,103.500001974106,6|8,3:2|0:2,0:0:0:0:
112,97,112141,2,0,P|136:141|126:191,1,103.500001974106,2|8,3:2|0:2,0:0:0:0:
162,235,112693,1,2,3:2:0:0:
162,235,112877,5,2,3:2:0:0:
257,173,113245,2,0,P|310:188|368:167,1,103.500001974106,10|0,0:2|3:2,0:0:0:0:
428,88,113981,1,10,0:2:0:0:
428,88,114165,1,0,3:0:0:0:
428,88,114349,6,0,L|450:307,1,207.000003948212,6|0,3:2|3:2,0:0:0:0:
378,365,115454,1,10,0:2:0:0:
378,365,115638,1,2,3:2:0:0:
378,365,115822,6,0,P|328:345|264:352,1,103.500001974106,2|8,3:2|0:0,0:0:0:0:
165,341,116558,2,0,P|155:306|137:227,1,103.500001974106,0|8,3:2|0:2,0:0:0:0:
129,199,117110,1,2,3:2:0:0:
129,199,117294,6,0,P|77:172|13:187,2,103.500001974106,6|10|0,3:2|0:2|3:2,0:0:0:0:
230,250,118398,1,10,0:2:0:0:
325,188,118767,1,2,3:2:0:0:
289,79,119135,1,10,0:2:0:0:
175,79,119503,2,0,B|140:73|123:100|123:100|163:157|162:210,1,155.250002961159,2|4,3:2|0:3,0:0:0:0:
134,238,120239,6,0,P|107:270|34:264,1,103.500001974106,6|2,3:2|3:2,0:0:0:0:
2,238,120791,1,0,3:2:0:0:
2,238,120975,2,0,L|9:128,1,103.500001974106,2|2,3:2|3:2,0:0:0:0:
78,44,121711,6,0,B|128:32|128:32|193:62,1,103.500001974106,6|4,3:2|0:3,0:0:0:0:
217,91,122263,2,0,L|326:79,1,103.500001974106,2|8,3:2|0:3,0:0:0:0:
368,109,122816,1,4,0:3:0:0:
463,65,123184,6,0,P|493:92|487:212,1,157.500001502037,6|10,3:2|0:2,3:0:0:0:
414,241,124288,1,0,3:2:0:0:
414,241,124472,2,0,L|295:234,1,118.125001126528,6|2,3:2|0:2,0:0:0:0:
220,297,125392,1,6,3:2:0:0:
125,266,125760,1,6,3:2:0:0:
55,317,126128,6,0,B|27:280|27:280|48:167,1,157.500001502037,2|10,3:2|0:2,0:0:0:0:
66,86,127233,1,0,3:2:0:0:
66,86,127417,2,0,P|107:106|177:83,1,118.125001126528,14|8,0:2|0:2,0:0:0:0:
227,18,128337,1,6,3:2:0:0:
281,85,128705,1,4,2:3:0:0:
355,40,129073,6,0,P|395:35|462:133,1,157.500001502037,2|10,3:2|0:2,0:0:0:0:
412,185,130178,1,0,3:2:0:0:
412,185,130362,2,0,L|420:313,1,118.125001126528,6|2,3:2|0:2,0:0:0:0:
341,364,131282,1,14,2:2:0:0:
258,308,131650,1,8,0:2:0:0:
169,354,132018,6,0,P|114:340|46:360,1,118.125001126528,6|0,3:2|3:2,0:0:0:0:
22,326,132754,2,0,P|2:282|7:245,1,78.7500007510184,10|6,0:2|3:2,0:0:0:0:
47,177,133490,1,0,3:2:0:0:
123,217,133859,1,10,0:2:0:0:
210,170,134227,6,0,L|314:155,1,89.9999999999999,6|6,3:2|3:2,0:0:0:0:
371,224,134963,1,6,3:2:0:0:
461,184,135331,1,2,3:2:0:0:
450,85,135699,1,2,3:2:0:0:
353,62,136067,1,0,3:2:0:0:
323,101,136251,1,0,0:0:0:0:
293,141,136435,6,0,P|253:156|197:146,1,89.9999999999999,14|10,2:2|0:2,0:0:0:0:
116,109,137171,2,0,L|100:218,1,89.9999999999999,10|6,0:2|3:2,0:0:0:0:
25,260,137908,6,0,B|14:302|14:302|32:353,1,89.9999999999999,14|0,0:2|3:2,0:0:0:0:
74,365,138460,2,0,P|122:341|176:343,1,89.9999999999999,14|0,0:2|3:2,0:0:0:0:
204,354,139012,1,14,0:2:0:0:
276,286,139380,5,6,3:2:0:0:
388,327,139748,1,8,0:0:0:0:
388,327,139932,1,8,0:0:0:0:
388,327,140116,1,8,0:0:0:0:
388,327,140300,1,8,0:0:0:0:
388,327,140484,5,14,0:0:0:0:
