osu file format v14

[General]
AudioFilename: audio.mp3
AudioLeadIn: 0
PreviewTime: 707
Countdown: 0
SampleSet: Soft
StackLeniency: 0.7
Mode: 0
LetterboxInBreaks: 0
WidescreenStoryboard: 0

[Editor]
Bookmarks: 38167,76081,109578
DistanceSpacing: 1.1
BeatDivisor: 4
GridSize: 8
TimelineZoom: 1.7

[Metadata]
Title:Aoi Tori
TitleUnicode:青い鳥
Artist:mimimemeMIMI
ArtistUnicode:みみめめMIMI
Creator:Nao Tomori
Version:Insane
Source:
Tags:blue bird japanese novelty cut short version jpop shiroi white synderes frostwich fhána fhana BEST ALBUM ~Bon! Voyage!~
BeatmapID:2203826
BeatmapSetID:1054715

[Difficulty]
HPDrainRate:5.5
CircleSize:4
OverallDifficulty:8
ApproachRate:9
SliderMultiplier:1.8
SliderTickRate:1

[Events]
//Background and Video events
0,0,"atdan upscale.jpg",0,0
//Break Periods
//Storyboard Layer 0 (Background)
//Storyboard Layer 1 (Fail)
//Storyboard Layer 2 (Pass)
//Storyboard Layer 3 (Foreground)
//Storyboard Layer 4 (Overlay)
//Storyboard Sound Samples

[TimingPoints]
2449,370.847894263848,4,2,1,39,1,0
2449,-285.714285714286,4,2,1,39,0,0
5415,363.222510109693,4,2,1,39,1,0
5415,-285.714285714286,4,2,1,39,0,0
8320,368.098159509202,4,2,1,39,1,0
8320,-285.714285714286,4,2,1,39,0,0
8359,-285.714285714286,4,2,1,39,0,0
9792,397.614314115308,4,2,1,39,1,0
9792,-100,4,2,1,39,0,0
10587,368.098159509202,4,2,1,39,1,0
10587,-285.714285714286,4,2,1,39,0,0
11323,-285.714285714286,4,2,1,39,0,0
11840,367.309458218549,4,2,1,39,1,0
11840,-285.714285714286,4,2,1,39,0,0
14227,368.098159509202,4,2,1,39,1,8
14227,-200,4,2,1,39,0,0
14779,368.098159509202,4,2,1,39,1,0
14779,-285.714285714286,4,2,1,39,0,0
17169,-200,4,2,1,39,0,0
17721,-285.714285714286,4,2,1,39,0,0
20116,368.098159509202,4,2,1,39,1,0
20116,-285.714285714286,4,2,1,39,0,0
25636,-100,4,2,1,61,0,0
26005,-100,4,2,1,61,0,0
37783,-114.285714285714,4,2,1,51,0,0
49562,-100,4,2,1,56,0,0
61337,-133.333333333333,4,2,1,51,0,0
65573,-114.285714285714,4,2,1,51,0,0
67231,-100,4,2,1,66,0,0
76066,-86.9565217391304,4,2,1,71,0,1
79748,-100,4,2,1,71,0,1
80116,-100,4,2,1,71,0,1
81219,-86.9565217391304,4,2,1,71,0,1
82140,-100,4,2,1,71,0,1
84165,-86.9565217391304,4,2,1,71,0,1
87846,-86.9565217391304,4,2,2,71,0,1
99625,-86.9565217391304,4,2,1,71,0,1
120239,-86.9565217391304,4,2,1,81,0,1
123183,-114.285714285714,4,2,1,71,0,0
123366,-114.285714285714,4,2,1,66,0,0
125390,-100,4,2,1,66,0,0
126126,-114.285714285714,4,2,1,66,0,0
131280,-100,4,2,1,66,0,0
132016,-133.333333333333,4,2,1,66,0,0
134225,-100,4,2,1,66,0,0
134961,-100,4,2,1,76,0,0
137907,-100,4,2,1,86,0,1
140484,-100,4,2,1,86,0,0

[Colours]
Combo1 : 235,99,88
Combo2 : 121,216,247
Combo3 : 247,164,201
Combo4 : 169,162,240

[HitObjects]
78,201,2449,6,0,P|126:213|145:210,1,62.9999980773926,2|0,0:2|0:2,0:2:0:0:
209,178,3005,1,2,0:2:0:0:
436,285,5415,6,0,P|388:297|369:294,1,62.9999980773926,2|0,0:2|0:2,0:2:0:0:
305,262,5959,1,2,0:2:0:0:
160,88,8320,5,2,0:2:0:0:
400,152,9792,1,2,0:2:0:0:
312,240,10587,1,2,0:2:0:0:
224,327,11323,2,0,P|182:320|151:319,1,62.9999980773926,2|0,0:2|0:2,0:2:0:0:
89,347,11840,1,2,0:2:0:0:
77,332,14227,6,0,P|64:303|71:239,1,90,2|0,0:2|0:2,0:2:0:0:
143,281,14779,2,0,B|227:265|211:332|305:310,1,157.499995193482,2|2,0:2|0:2,0:2:0:0:
468,116,17171,6,0,P|481:145|474:209,1,90,2|0,0:2|0:2,0:2:0:0:
299,264,17723,2,0,P|329:247|440:292,1,157.499995193482,2|0,0:2|0:2,0:2:0:0:
483,364,19380,1,2,0:2:0:0:
267,136,20116,6,0,L|258:65,1,62.9999980773926,2|0,0:2|0:2,0:2:0:0:
211,270,20852,2,0,L|220:199,1,62.9999980773926,2|0,0:2|0:2,0:2:0:0:
273,330,21588,1,2,0:2:0:0:
129,229,21956,2,0,B|72:218|73:260|-4:246,1,125.999996154785,2|0,0:2|0:2,0:2:0:0:
133,139,23060,6,0,P|168:113|215:209,1,188.999994232178,2|0,2:2|2:2,2:2:0:0:
256,360,24533,5,2,0:2:0:0:
256,368,25637,5,10,0:2:0:0:
297,338,25729,1,8,0:2:0:0:
347,329,25821,1,0,3:2:0:0:
397,340,25913,1,0,3:2:0:0:
437,370,26005,6,0,L|419:178,1,180,6|10,3:2|0:2,0:2:0:0:
482,42,26558,2,0,P|498:83|488:151,1,90,2|0,3:2|0:2,0:2:0:0:
336,257,26926,2,0,P|320:216|330:148,1,90,2|8,3:2|0:2,0:2:0:0:
181,102,27294,6,0,B|126:83|126:83|66:136|-2:115,1,180,2|2,3:2|3:2,0:2:0:0:
9,112,27754,1,0,3:2:0:0:
6,103,27846,1,8,2:2:0:0:
185,11,28030,1,2,0:2:0:0:
89,222,28214,2,0,L|-24:206,1,90,2|0,3:2|0:2,0:2:0:0:
198,20,28582,2,0,L|311:36,1,90,8|0,0:2|0:2,0:2:0:0:
503,222,28950,6,0,P|451:196|348:260,1,180,6|10,3:2|0:2,0:2:0:0:
449,377,29502,2,0,P|442:317|432:264,1,90,2|0,0:2|0:2,0:2:0:0:
262,168,29871,2,0,P|254:212|249:257,1,90,2|8,0:2|0:2,0:2:0:0:
70,363,30239,6,0,P|58:297|36:179,1,180,2|2,3:2|3:2,0:2:0:0:
40,177,30699,1,0,3:2:0:0:
43,168,30791,1,8,0:2:0:0:
161,60,30975,1,2,3:2:0:0:
368,132,31159,2,0,P|294:147|246:126,1,90,2|0,3:2|0:2,0:2:0:0:
113,257,31527,5,10,0:2:0:0:
157,257,31619,1,2,0:2:0:0:
196,278,31711,1,2,0:2:0:0:
221,315,31803,1,2,0:2:0:0:
226,359,31895,6,0,P|188:296|206:175,1,180,6|10,3:2|2:2,0:2:0:0:
371,254,32447,2,0,P|285:260|239:259,1,90,2|0,0:2|0:2,0:2:0:0:
12,158,32815,2,0,P|56:159|101:164,1,90,2|8,0:2|0:2,0:2:0:0:
417,58,33183,6,0,B|314:50|355:124|227:109,1,180,2|2,3:2|3:2,0:2:0:0:
401,155,33736,1,10,0:2:0:0:
266,13,33920,1,0,3:2:0:0:
194,193,34104,1,2,3:2:0:0:
274,5,34288,1,0,0:2:0:0:
398,243,34472,2,0,P|451:237|505:230,1,90,10|0,0:2|0:2,0:2:0:0:
197,342,34840,5,14,2:2:0:0:
100,294,35024,1,0,3:2:0:0:
7,351,35208,1,0,3:2:0:0:
154,77,35392,5,14,2:2:0:0:
251,125,35576,1,0,3:2:0:0:
344,68,35760,1,0,3:2:0:0:
56,21,35944,6,0,P|41:68|54:128,1,90,14|0,2:2|3:2,0:2:0:0:
264,221,36312,5,6,3:2:0:0:
443,163,36496,1,8,0:2:0:0:
443,163,36588,1,8,0:2:0:0:
443,163,36680,1,8,0:2:0:0:
403,347,36864,1,8,0:2:0:0:
375,249,37048,5,6,3:2:0:0:
51,206,37601,5,2,0:2:0:0:
51,206,37785,2,0,P|43:256|48:293,1,78.7500007510185,2|0,3:2|0:2,0:2:0:0:
131,149,38153,1,2,3:2:0:0:
131,149,38337,2,0,P|91:117|57:102,1,78.7500007510185,2|8,0:2|2:2,0:2:0:0:
140,248,38705,2,0,B|224:255|203:193|296:208,1,157.500001502037,2|2,3:2|3:2,2:2:0:0:
438,118,39257,6,0,P|409:169|398:271,1,157.500001502037,0|0,3:0|3:0,0:0:0:0:
343,359,39809,1,2,0:2:0:0:
288,187,39993,1,8,0:2:0:0:
190,239,40177,2,0,B|116:228|117:289|25:269,1,157.500001502037,2|0,0:2|0:2,0:2:0:0:
184,71,40729,6,0,P|202:134|195:173,1,78.7500007510185,2|0,3:2|0:2,0:2:0:0:
34,124,41098,1,2,3:2:0:0:
34,124,41282,2,0,P|89:124|136:119,1,78.7500007510185,2|8,0:2|0:2,0:2:0:0:
279,144,41650,2,0,P|224:144|177:149,1,78.7500007510185,2|0,0:2|3:2,0:2:0:0:
341,220,42018,1,2,0:2:0:0:
341,220,42202,6,0,P|373:162|329:64,1,157.500001502037,0|0,3:2|3:2,0:2:0:0:
262,24,42754,1,0,0:2:0:0:
172,68,42938,2,0,P|124:76|75:54,1,78.7500007510185,8|0,0:2|0:2,0:2:0:0:
0,171,43306,2,0,P|48:163|97:185,1,78.7500007510185,0|0,3:2|0:2,0:2:0:0:
252,276,43674,6,0,B|169:303|181:232|67:279,1,157.500001502037,6|0,3:2|3:2,0:2:0:0:
339,313,44226,2,0,P|344:272|326:215,1,78.7500007510185,2|8,0:2|0:2,0:2:0:0:
270,103,44594,2,0,L|260:205,1,78.7500007510185,2|0,0:2|3:2,0:2:0:0:
357,60,44963,1,2,0:2:0:0:
272,12,45147,6,0,P|210:32|183:120,1,157.500001502037,0|0,3:2|3:2,0:2:0:0:
81,90,45699,1,2,0:2:0:0:
81,90,45791,1,2,0:2:0:0:
81,90,45883,2,0,P|86:158|90:253,1,157.500001502037,8|0,0:2|3:2,0:2:0:0:
0,188,46435,1,2,0:2:0:0:
183,207,46619,6,0,B|265:185|256:250|345:232,1,157.500001502037,2|0,3:2|3:2,0:2:0:0:
489,155,47171,1,2,0:2:0:0:
407,98,47355,2,0,P|402:151|398:199,1,78.7500007510185,10|0,0:2|0:2,0:2:0:0:
487,350,47723,2,0,P|504:308|475:241,1,118.125001126528,6|0,0:2|0:2,0:2:0:0:
302,304,48091,5,2,3:2:0:0:
397,304,48275,1,0,3:2:0:0:
262,219,48459,1,8,0:2:0:0:
255,378,48644,1,0,3:2:0:0:
255,378,48736,1,0,3:2:0:0:
255,378,48828,5,10,0:2:0:0:
346,167,49012,1,0,3:2:0:0:
117,193,49196,1,0,3:2:0:0:
339,295,49380,1,8,2:2:0:0:
339,295,49472,1,8,2:2:0:0:
339,295,49564,6,0,P|271:273|148:309,1,180,6|10,3:2|0:2,0:2:0:0:
25,205,50116,2,0,P|82:217|129:206,1,90,2|0,0:2|3:2,0:2:0:0:
257,129,50484,1,2,3:2:0:0:
153,35,50668,2,0,L|159:138,1,90,8|0,0:2|0:2,0:2:0:0:
330,202,51036,6,0,B|425:176|410:247|504:222,1,180,2|8,3:2|0:2,0:2:0:0:
381,106,51588,1,2,3:2:0:0:
381,106,51680,1,0,3:2:0:0:
381,106,51772,1,2,3:2:0:0:
349,292,51956,2,0,P|270:280|219:279,1,90,2|8,0:2|0:2,0:2:0:0:
81,321,52325,1,2,3:2:0:0:
81,321,52417,1,0,3:2:0:0:
81,321,52509,6,0,P|111:281|76:164,1,180,2|8,3:2|0:2,0:2:0:0:
210,30,53061,2,0,P|188:72|197:150,1,90,2|0,0:2|3:2,0:2:0:0:
351,167,53429,2,0,P|372:128|375:84,1,90,2|0,0:2|3:2,0:2:0:0:
281,99,53797,1,2,0:2:0:0:
411,235,53981,6,0,L|474:220,2,45,2|2|0,0:3|0:3|3:2,0:2:0:0:
343,323,54349,1,8,0:2:0:0:
248,255,54533,2,0,L|236:179,2,45,0|0|8,3:2|3:2|0:2,0:2:0:0:
140,304,54901,1,0,3:2:0:0:
124,287,54993,1,0,3:2:0:0:
105,276,55085,1,8,0:2:0:0:
83,270,55177,1,8,0:2:0:0:
61,270,55269,1,8,0:2:0:0:
39,277,55361,1,8,0:2:0:0:
18,290,55453,6,0,P|8:209|-4:84,1,180,6|8,3:2|0:2,0:2:0:0:
71,0,56005,1,2,0:2:0:0:
181,75,56190,1,2,3:2:0:0:
330,40,56374,2,0,P|281:17|174:101,1,180,2|8,0:3|0:2,0:2:0:0:
221,284,56926,6,0,P|225:237|209:185,1,90,2|0,3:2|3:2,0:2:0:0:
128,248,57294,1,8,0:2:0:0:
325,314,57478,1,2,3:2:0:0:
325,314,57570,1,0,3:2:0:0:
325,314,57662,2,0,P|379:302|442:293,1,90,2|0,3:2|0:2,0:2:0:0:
128,248,58030,2,0,P|74:236|11:227,1,90,8|0,0:2|0:2,0:2:0:0:
103,151,58306,1,0,3:2:0:0:
103,151,58398,6,0,B|161:164|161:164|207:143|207:143|298:159,1,180,6|8,3:2|0:2,0:2:0:0:
200,47,58950,1,2,0:2:0:0:
242,249,59134,2,0,P|293:252|344:228,1,90,2|0,3:2|3:2,0:2:0:0:
275,155,59502,1,10,0:2:0:0:
411,363,59686,6,0,P|417:294|431:175,1,180,6|0,3:2|3:2,0:2:0:0:
512,315,60239,1,8,0:2:0:0:
328,238,60423,1,0,3:2:0:0:
488,102,60607,5,14,0:2:0:0:
334,332,60791,1,8,0:3:0:0:
201,76,60975,1,4,0:3:0:0:
339,148,61159,1,4,0:3:0:0:
167,160,61343,6,0,B|104:173|105:124|29:146,1,135.000005149842,6|2,3:2|0:2,0:2:0:0:
150,309,61895,1,2,3:2:0:0:
241,277,62079,2,0,P|291:270|330:268,1,67.5000025749208,8|0,0:2|0:2,0:2:0:0:
459,311,62447,2,0,P|409:318|370:320,1,67.5000025749208,2|0,3:2|3:2,0:2:0:0:
235,191,62815,5,2,3:2:0:0:
306,121,62999,2,0,P|345:116|388:133,1,67.5000025749208,8|0,0:2|0:2,0:2:0:0:
233,58,63367,1,0,3:2:0:0:
371,123,63552,2,0,P|403:130|436:125,1,67.5000025749208,8|0,0:2|0:2,0:2:0:0:
233,58,63920,2,0,P|200:50|167:55,1,67.5000025749208,8|0,0:2|3:2,0:2:0:0:
22,181,64288,5,2,3:2:0:0:
95,244,64472,2,0,P|116:194|86:107,1,135.000005149842,0|2,3:2|3:2,0:2:0:0:
55,331,65024,2,0,B|125:355|120:307|196:335,1,135.000005149842,8|0,0:2|3:2,0:2:0:0:
442,276,65576,6,0,B|385:301|385:301|262:277,1,157.500001502037,6|0,3:2|3:2,0:2:0:0:
353,91,66128,1,8,0:2:0:0:
369,198,66312,1,2,3:2:0:0:
274,165,66496,1,8,0:3:0:0:
450,136,66680,1,4,0:3:0:0:
211,73,66864,5,8,2:2:0:0:
184,102,66956,1,8,2:2:0:0:
172,139,67048,1,8,2:2:0:0:
177,178,67140,1,8,2:2:0:0:
196,211,67232,6,0,P|140:200|78:201,1,90,6|0,3:2|0:2,0:2:0:0:
253,298,67601,1,10,0:2:0:0:
464,243,67785,5,6,3:2:0:0:
340,211,67969,1,2,3:2:0:0:
253,298,68153,1,0,3:2:0:0:
377,330,68337,1,0,3:2:0:0:
236,83,68521,6,0,B|222:127|222:127|234:185,1,90,6|0,3:2|0:2,0:2:0:0:
464,243,68889,2,0,B|478:199|478:199|466:141,1,90,2|8,3:2|0:2,0:2:0:0:
163,234,69257,5,6,3:2:0:0:
374,182,69441,1,8,0:2:0:0:
377,159,69533,1,8,0:2:0:0:
380,137,69625,1,8,0:2:0:0:
384,115,69717,1,8,0:2:0:0:
386,91,69809,1,8,0:3:0:0:
383,80,69901,1,8,0:3:0:0:
380,69,69993,1,8,0:3:0:0:
377,58,70085,1,8,0:3:0:0:
372,47,70177,6,0,L|377:-7,3,45,6|0|0|0,3:2|3:2|3:2|3:2,0:2:0:0:
273,111,70545,2,0,L|277:155,3,45,2|0|0|0,3:2|3:2|3:2|3:2,0:2:0:0:
184,30,70913,5,8,0:0:0:0:
143,10,71005,1,8,0:0:0:0:
99,12,71098,1,8,0:0:0:0:
61,36,71190,1,8,0:0:0:0:
41,77,71282,2,0,L|45:121,1,45,12|8,0:0|0:0,0:0:0:0:
122,245,71466,2,0,L|117:199,1,45,10|8,0:0|0:0,0:0:0:0:
3,205,71650,5,6,3:2:0:0:
138,337,71834,1,8,0:2:0:0:
208,156,72018,1,8,0:2:0:0:
125,207,72202,1,8,0:2:0:0:
125,207,72294,1,8,0:2:0:0:
125,207,72386,5,6,3:2:0:0:
329,316,72570,1,0,3:2:0:0:
334,15,72754,6,0,P|317:60|297:154,1,135,6|0,3:2|0:2,0:2:0:0:
355,218,73122,5,6,3:2:0:0:
228,47,73306,1,0,3:2:0:0:
143,220,73490,1,8,0:2:0:0:
225,186,73674,5,0,3:2:0:0:
225,186,73766,1,0,3:2:0:0:
225,186,73858,1,2,3:2:0:0:
101,142,74042,1,0,3:2:0:0:
62,263,74226,1,8,0:2:0:0:
186,307,74410,1,2,3:2:0:0:
186,307,74502,1,0,3:2:0:0:
186,307,74594,6,0,P|245:297|295:290,1,90,2|0,3:2|3:2,0:2:0:0:
108,150,74963,1,10,0:2:0:0:
88,374,75147,1,6,3:2:0:0:
228,199,75331,1,8,0:2:0:0:
279,179,75423,1,8,0:2:0:0:
334,189,75515,1,8,0:2:0:0:
375,227,75607,1,8,0:2:0:0:
390,281,75699,5,8,0:3:0:0:
387,292,75791,1,8,0:3:0:0:
385,303,75883,1,4,0:3:0:0:
383,314,75975,1,4,0:3:0:0:
381,325,76067,5,6,3:2:0:0:
496,135,76251,2,0,B|374:121|422:205|274:179,1,207.000003948212,8|0,2:2|3:2,0:2:0:0:
130,88,76803,2,0,P|185:87|243:135,1,103.500001974106,8|0,3:2|3:2,3:2:0:0:
125,277,77171,1,0,3:2:0:0:
158,180,77355,1,2,3:2:0:0:
171,369,77539,5,2,3:2:0:0:
60,185,77723,1,0,3:2:0:0:
298,277,77907,2,0,P|364:272|432:262,1,103.500001974106,10|0,0:2|0:2,0:2:0:0:
242,197,78275,5,2,3:2:0:0:
366,362,78459,1,0,3:2:0:0:
286,116,78644,2,0,B|237:107|237:107|180:125,1,103.500001974106,12|0,0:2|0:2,0:2:0:0:
354,35,79012,5,6,3:2:0:0:
242,197,79196,1,8,0:2:0:0:
153,4,79380,1,0,3:2:0:0:
251,82,79564,1,0,3:2:0:0:
170,128,79748,2,0,B|73:118|106:186|-22:168,1,180,8|0,0:2|3:2,0:2:0:0:
80,43,80300,5,2,3:2:0:0:
151,223,80484,2,0,L|137:325,1,90,2|0,3:2|0:2,0:2:0:0:
361,223,80852,2,0,L|373:312,1,90,2|0,3:2|0:2,0:2:0:0:
256,38,81220,6,0,B|242:86|242:86|257:147,1,103.500001974106,14|0,0:2|3:2,0:2:0:0:
498,106,81588,1,8,0:2:0:0:
378,83,81772,1,0,3:2:0:0:
505,269,81956,5,6,3:2:0:0:
445,197,82140,2,0,P|381:188|331:206,1,90,10|0,0:2|0:2,0:2:0:0:
492,104,82509,1,0,3:2:0:0:
357,193,82693,2,0,P|299:200|254:187,1,90,8|0,0:2|0:2,0:2:0:0:
46,285,83061,5,2,3:2:0:0:
121,180,83245,1,0,3:2:0:0:
192,296,83429,1,0,3:2:0:0:
115,158,83613,2,0,L|95:34,1,90,10|0,0:2|0:2,0:2:0:0:
0,132,83981,5,2,3:2:0:0:
209,51,84165,2,0,B|248:30|284:46|284:46|308:90|379:76,1,155.250002961159,6|0,3:2|0:2,0:2:0:0:
438,33,84533,2,0,B|428:83|428:83|449:145,1,103.500001974106,10|0,2:2|3:2,2:2:0:0:
222,326,84901,5,6,3:2:0:0:
302,235,85085,2,0,P|396:225|456:341,1,207.000003948212,8|0,0:2|3:2,0:2:0:0:
211,197,85637,2,0,P|203:145|195:79,1,103.500001974106,8|0,0:2|0:2,0:2:0:0:
105,167,86005,1,0,3:2:0:0:
286,92,86190,1,2,3:2:0:0:
133,1,86374,5,4,2:3:0:0:
115,185,86558,1,4,2:3:0:0:
285,111,86742,1,10,0:2:0:0:
67,86,86926,1,4,2:3:0:0:
351,216,87110,6,0,P|402:219|450:201,1,103.500001974106,6|0,3:2|0:2,0:2:0:0:
104,274,87478,2,0,P|56:255|4:259,1,103.500001974106,14|0,2:2|3:2,0:2:0:0:
189,354,87754,1,0,3:2:0:0:
189,354,87846,6,0,P|203:289|206:219,1,103.500001974106,6|0,3:2|0:2,0:2:0:0:
200,14,88214,2,0,P|186:79|183:149,1,103.500001974106,10|0,2:2|0:2,0:2:0:0:
302,74,88582,1,2,3:2:0:0:
88,57,88766,1,0,3:2:0:0:
302,74,88950,1,10,0:2:0:0:
124,204,89134,5,0,3:2:0:0:
324,55,89318,2,0,P|384:46|441:53,1,103.500001974106,2|0,3:2|0:2,0:2:0:0:
102,76,89686,2,0,P|50:79|0:70,1,103.500001974106,10|0,0:2|3:2,0:2:0:0:
0,60,89963,1,0,3:2:0:0:
1,49,90055,1,2,3:2:0:0:
93,193,90239,1,0,3:2:0:0:
285,143,90423,2,0,B|398:135|398:135|348:162,1,155.250002961159,10|0,0:2|0:2,0:2:0:0:
459,65,90791,6,0,P|488:109|473:182,1,103.500001974106,6|0,3:2|0:2,0:2:0:0:
296,269,91159,2,0,P|368:260|413:293,1,103.500001974106,10|0,0:2|0:2,0:2:0:0:
247,372,91527,1,2,0:2:0:0:
171,236,91711,1,0,3:2:0:0:
171,236,91803,1,0,3:2:0:0:
171,236,91895,1,10,2:2:0:0:
60,342,92079,1,0,3:2:0:0:
49,124,92263,6,0,P|58:193|59:234,1,103.500001974106,2|0,3:2|0:2,0:2:0:0:
217,2,92631,2,0,P|208:71|207:112,1,103.500001974106,10|0,0:2|0:2,0:2:0:0:
337,207,92999,1,2,3:2:0:0:
488,154,93183,1,0,3:2:0:0:
397,133,93367,1,10,0:2:0:0:
431,233,93552,1,0,3:2:0:0:
194,191,93736,6,0,B|126:197|126:197|90:228|90:228|-6:241,1,207.000003948212,6|10,3:2|0:2,0:2:0:0:
97,108,94288,1,0,3:2:0:0:
275,254,94472,2,0,P|227:290|143:269,1,103.500001974106,2|0,3:2|0:2,0:2:0:0:
198,88,94840,1,10,0:2:0:0:
194,191,95024,1,8,0:2:0:0:
9,26,95208,6,0,B|48:15|48:15|70:30|117:27,1,103.500001974106,2|0,3:2|0:2,0:2:0:0:
391,128,95576,2,0,B|415:115|432:108|432:108|379:85|348:106,1,103.500001974106,10|0,0:2|0:2,0:2:0:0:
221,300,95944,1,2,3:2:0:0:
239,266,96036,1,0,3:2:0:0:
246,228,96128,1,0,3:2:0:0:
239,190,96220,1,0,3:2:0:0:
219,157,96312,5,4,2:3:0:0:
209,165,96404,1,4,2:3:0:0:
200,174,96496,1,4,2:3:0:0:
193,185,96588,1,4,2:3:0:0:
185,196,96680,6,0,P|251:204|318:143,1,155.250002961159,6|0,3:2|0:2,0:2:0:0:
102,129,97048,2,0,P|87:188|85:245,1,103.500001974106,10|0,0:2|3:2,0:2:0:0:
205,97,97417,1,2,3:2:0:0:
0,159,97601,1,0,3:2:0:0:
164,305,97785,1,10,0:2:0:0:
101,100,97969,1,4,3:2:0:0:
171,330,98153,5,2,3:2:0:0:
312,272,98337,1,0,3:2:0:0:
476,348,98521,2,0,P|459:284|475:235,1,103.500001974106,10|0,0:2|3:2,0:2:0:0:
364,81,98797,1,0,3:2:0:0:
364,81,98889,2,0,P|381:145|365:194,1,103.500001974106,6|0,3:2|0:2,0:2:0:0:
232,285,99165,1,0,3:2:0:0:
232,285,99257,2,0,L|134:270,1,51.7500009870529,2|0,3:2|3:2,0:2:0:0:
11,351,99441,1,0,3:2:0:0:
11,351,99533,1,0,3:2:0:0:
11,351,99625,6,0,P|26:300|25:229,1,103.500001974106,6|0,3:2|0:2,0:2:0:0:
2,49,99993,1,10,0:2:0:0:
187,114,100177,1,0,3:2:0:0:
116,21,100361,5,0,3:2:0:0:
213,228,100545,1,0,3:2:0:0:
331,12,100729,1,8,0:2:0:0:
415,171,100913,1,2,3:2:0:0:
401,170,101005,1,0,3:2:0:0:
385,172,101098,6,0,P|370:226|389:305,1,103.500001974106,2|0,3:2|0:2,0:2:0:0:
472,86,101466,1,10,0:2:0:0:
261,193,101650,1,0,3:2:0:0:
472,340,101834,1,10,0:2:0:0:
474,327,101926,1,8,0:2:0:0:
477,314,102018,1,0,3:2:0:0:
479,301,102110,1,0,3:2:0:0:
482,289,102202,1,8,0:2:0:0:
440,205,102386,1,2,3:2:0:0:
229,351,102570,6,0,P|145:368|37:269,1,207.000003948212,6|8,3:2|0:2,0:2:0:0:
104,102,103122,2,0,P|114:164|93:223,1,103.500001974106,2|0,3:2|3:2,0:2:0:0:
11,32,103490,1,0,3:2:0:0:
229,133,103674,2,0,L|365:121,1,103.500001974106,8|2,0:2|3:2,0:2:0:0:
443,67,103950,1,0,3:2:0:0:
443,67,104042,6,0,B|426:118|426:118|437:174,1,103.500001974106,2|0,3:2|3:2,3:2:0:0:
217,326,104410,2,0,P|291:303|332:328,1,103.500001974106,10|0,0:2|2:2,0:2:0:0:
94,259,104778,1,2,3:2:0:0:
73,226,104871,1,0,3:2:0:0:
70,188,104963,1,0,3:2:0:0:
87,153,105055,1,0,3:2:0:0:
118,131,105147,1,10,0:2:0:0:
307,191,105331,1,0,3:2:0:0:
255,197,105423,1,0,3:2:0:0:
204,203,105515,6,0,P|210:113|213:79,1,103.500001974106,6|0,3:2|0:2,0:2:0:0:
416,234,105791,1,0,3:2:0:0:
416,234,105883,2,0,P|410:324|407:358,1,103.500001974106,10|0,2:2|0:2,0:2:0:0:
496,154,106251,1,0,3:2:0:0:
298,280,106435,1,0,3:2:0:0:
339,38,106619,2,0,P|362:87|348:149,1,103.500001974106,10|0,0:2|0:2,0:2:0:0:
40,197,106987,6,0,B|133:227|109:160|223:200,1,155.250002961159,6|0,3:2|0:2,0:2:0:0:
31,102,107355,2,0,P|19:151|40:197,1,103.500001974106,10|0,0:2|3:2,0:2:0:0:
209,112,107723,2,0,L|221:10,1,103.500001974106,0|0,3:2|3:2,0:2:0:0:
371,247,108091,2,0,L|382:350,1,103.500001974106,10|0,0:2|3:2,0:2:0:0:
418,3,108459,5,6,3:2:0:0:
496,240,108644,1,0,3:2:0:0:
263,200,108828,1,8,2:2:0:0:
408,128,109012,1,0,3:2:0:0:
152,281,109196,6,0,P|128:222|148:164,1,103.500001974106,2|0,3:2|3:2,0:2:0:0:
197,0,109564,2,0,P|221:59|201:117,1,103.500001974106,10|2,0:2|3:2,0:2:0:0:
37,185,109840,1,0,3:2:0:0:
37,185,109932,6,0,P|99:171|153:199,1,103.500001974106,2|0,3:2|3:2,0:2:0:0:
317,259,110300,1,10,0:2:0:0:
414,201,110484,1,2,3:2:0:0:
414,201,110576,1,8,0:2:0:0:
414,201,110668,1,0,3:2:0:0:
350,88,110852,5,8,0:2:0:0:
350,88,110944,1,8,0:2:0:0:
350,88,111036,2,0,L|355:28,1,51.7500009870529,2|0,3:2|3:2,0:2:0:0:
238,126,111220,2,0,L|248:225,1,51.7500009870529,8|4,2:3|2:3,0:2:0:0:
114,92,111404,5,6,3:2:0:0:
329,242,111588,1,0,3:2:0:0:
103,340,111772,1,8,0:2:0:0:
167,237,111956,1,0,3:2:0:0:
306,343,112140,2,0,P|357:344|402:319,1,103.500001974106,2|0,3:2|3:2,0:2:0:0:
185,121,112509,2,0,L|175:244,1,103.500001974106,8|2,0:2|3:2,0:2:0:0:
342,129,112785,1,0,3:2:0:0:
342,129,112877,6,0,L|350:25,1,103.500001974106,2|0,3:2|3:2,3:2:0:0:
443,123,113245,1,10,0:2:0:0:
259,69,113429,1,0,0:2:0:0:
333,253,113613,1,0,3:2:0:0:
333,253,113705,1,0,3:2:0:0:
345,162,113889,1,0,3:2:0:0:
345,162,113981,2,0,P|281:173|243:227,1,103.500001974106,10|0,0:2|3:2,0:2:0:0:
427,349,114257,1,0,3:2:0:0:
453,332,114349,6,0,P|453:272|454:222,1,103.500001974106,6|0,3:2|0:2,0:2:0:0:
220,0,114717,2,0,P|220:60|219:110,1,103.500001974106,8|0,0:2|3:2,0:2:0:0:
13,220,115085,2,0,P|78:211|127:257,1,103.500001974106,0|0,3:2|3:2,0:2:0:0:
46,362,115453,1,10,0:2:0:0:
78,94,115637,1,2,3:2:0:0:
78,94,115729,1,0,3:2:0:0:
78,94,115821,6,0,B|171:86|143:145|238:128,1,155.250002961159,2|0,3:2|0:2,0:2:0:0:
324,77,116190,2,0,P|308:139|302:184,1,103.500001974106,8|0,0:2|3:2,0:2:0:0:
422,76,116558,1,0,3:2:0:0:
236,37,116742,1,0,3:2:0:0:
276,265,116926,1,8,0:2:0:0:
303,177,117110,1,2,3:2:0:0:
41,318,117294,6,0,P|110:298|176:362,1,155.250002961159,6|0,3:2|0:2,0:2:0:0:
9,231,117662,2,0,P|-4:175|8:129,1,103.500001974106,10|0,0:2|3:2,0:2:0:0:
179,31,118030,2,0,L|167:135,1,103.500001974106,0|0,3:2|3:2,0:2:0:0:
278,339,118398,2,0,L|290:235,1,103.500001974106,10|0,0:2|3:2,0:2:0:0:
430,27,118766,5,2,3:2:0:0:
482,138,118950,1,0,3:2:0:0:
211,128,119134,5,10,0:2:0:0:
329,104,119318,1,0,3:2:0:0:
141,33,119502,5,2,3:2:0:0:
99,62,119594,1,0,3:2:0:0:
78,109,119686,1,8,0:2:0:0:
83,160,119778,1,8,0:2:0:0:
119,202,119871,5,8,0:3:0:0:
152,182,119963,1,8,0:3:0:0:
190,180,120055,1,4,0:3:0:0:
226,195,120147,1,4,0:3:0:0:
251,224,120239,6,0,L|239:394,1,155.250002961159,6|0,3:2|0:2,0:2:0:0:
353,212,120607,1,2,3:2:0:0:
142,297,120791,1,0,3:2:0:0:
354,369,120975,1,2,3:2:0:0:
237,139,121159,1,0,3:2:0:0:
129,319,121343,1,2,3:2:0:0:
250,270,121527,1,0,3:2:0:0:
88,56,121711,5,6,3:2:0:0:
0,152,121895,1,8,0:3:0:0:
95,237,122079,1,4,0:3:0:0:
306,106,122263,5,2,3:2:0:0:
272,87,122355,1,0,3:2:0:0:
234,86,122447,1,8,0:3:0:0:
200,104,122539,1,8,0:3:0:0:
179,136,122631,1,8,0:3:0:0:
410,212,122815,5,4,0:3:0:0:
469,113,122999,1,4,0:3:0:0:
402,231,123183,6,0,B|371:227|344:210|344:210|304:255|226:242,1,157.500001502037,6|2,3:2|3:2,0:2:0:0:
147,207,123736,1,0,3:2:0:0:
17,332,123920,2,0,B|109:310|109:310|185:343,1,157.500001502037,10|0,0:2|3:2,0:2:0:0:
163,62,124472,6,0,P|133:111|147:207,1,157.500001502037,6|2,3:2|3:2,0:2:0:0:
255,9,125024,1,2,0:2:0:0:
52,52,125208,1,0,3:2:0:0:
235,151,125392,2,0,B|279:144|279:144|359:161,1,90,6|0,3:2|0:2,0:2:0:0:
89,292,125760,2,0,B|45:299|45:299|-35:282,1,90,6|0,3:2|3:2,0:2:0:0:
265,368,126128,5,6,3:2:0:0:
342,306,126312,2,0,P|410:298|484:382,1,157.500001502037,2|0,3:2|3:2,0:2:0:0:
259,257,126864,2,0,P|251:217|249:162,1,78.7500007510185,10|0,0:2|0:2,0:2:0:0:
276,89,127232,1,0,3:2:0:0:
164,288,127417,6,0,B|114:276|114:276|69:316|14:303,1,157.500001502037,14|0,0:2|3:2,0:2:0:0:
42,217,127969,1,0,0:2:0:0:
125,372,128153,1,2,3:2:0:0:
38,207,128337,2,0,P|28:141|23:101,1,78.7500007510185,6|0,3:2|0:2,0:2:0:0:
126,0,128705,2,0,P|120:38|113:77,1,78.7500007510185,4|4,2:3|0:3,0:2:0:0:
189,144,129073,5,4,3:2:0:0:
275,98,129257,2,0,B|369:99|328:155|439:147,1,157.500001502037,2|0,3:2|3:2,0:2:0:0:
309,218,129809,2,0,P|296:267|300:306,1,78.7500007510185,10|0,0:2|0:2,0:2:0:0:
300,301,130085,1,0,3:2:0:0:
303,307,130177,1,0,3:2:0:0:
484,303,130361,6,0,B|514:289|514:289|383:268,1,157.500001502037,6|0,3:2|3:2,0:2:0:0:
238,345,130913,1,2,0:2:0:0:
238,345,131098,1,0,3:2:0:0:
52,302,131282,2,0,B|99:291|99:291|156:314,1,90,14|0,2:2|0:2,0:2:0:0:
202,140,131650,1,8,0:2:0:0:
205,162,131742,1,8,0:2:0:0:
208,184,131834,1,8,0:2:0:0:
211,206,131926,1,8,0:2:0:0:
215,230,132018,6,0,P|272:238|343:179,1,135.000005149842,6|2,3:2|3:2,0:2:0:0:
311,100,132570,1,0,3:2:0:0:
133,189,132754,2,0,P|124:240|133:273,1,67.5000025749208,10|0,0:2|0:2,0:2:0:0:
31,78,133122,2,0,L|21:12,1,67.5000025749208,6|0,3:2|3:2,0:2:0:0:
8,181,133490,5,0,3:2:0:0:
143,96,133674,1,0,3:2:0:0:
241,203,133858,2,0,P|243:236|234:268,1,67.5000025749208,10|0,0:2|0:2,0:2:0:0:
348,114,134226,6,0,L|330:16,1,90,6|0,3:2|0:2,0:2:0:0:
484,216,134594,2,0,L|470:305,1,90,6|0,3:2|3:2,0:2:0:0:
355,366,134871,1,0,3:2:0:0:
355,366,134963,6,0,P|305:338|250:336,1,90,6|0,3:2|3:2,0:2:0:0:
25,304,135331,2,0,P|74:274|103:228,1,90,2|0,3:2|3:2,0:2:0:0:
243,49,135699,2,0,P|243:106|269:154,1,90,2|0,3:2|3:2,0:2:0:0:
489,71,136067,1,2,3:2:0:0:
355,71,136251,1,2,3:2:0:0:
437,344,136435,5,14,2:2:0:0:
472,162,136619,1,0,3:2:0:0:
293,306,136803,5,10,0:2:0:0:
265,98,136987,1,0,3:2:0:0:
120,362,137171,5,10,0:2:0:0:
154,116,137355,1,0,3:2:0:0:
17,371,137539,6,0,P|3:304|-21:217,1,135,6|0,3:2|0:2,0:2:0:0:
49,95,137907,5,14,0:2:0:0:
203,175,138091,1,0,3:2:0:0:
359,95,138275,1,0,3:2:0:0:
96,179,138459,5,14,0:2:0:0:
264,102,138644,1,0,3:2:0:0:
430,169,138828,1,0,3:2:0:0:
49,95,139012,5,14,0:2:0:0:
328,189,139196,1,0,3:2:0:0:
175,31,139380,5,6,3:2:0:0:
233,246,139564,1,10,0:2:0:0:
362,46,139748,1,10,0:2:0:0:
420,247,139932,1,10,0:2:0:0:
153,163,140116,5,10,2:2:0:0:
428,92,140300,1,10,2:2:0:0:
363,358,140484,1,14,0:2:0:0:
