osu file format v14

[General]
AudioFilename: audio.mp3
AudioLeadIn: 0
PreviewTime: 142353
Countdown: 0
SampleSet: Soft
StackLeniency: 0.5
Mode: 0
LetterboxInBreaks: 0
WidescreenStoryboard: 1

[Editor]
Bookmarks: 7061,36775,51632,88203,106489,122489,143061,197775
DistanceSpacing: 1.1
BeatDivisor: 4
GridSize: 32
TimelineZoom: 2.599999

[Metadata]
Title:WORK
TitleUnicode:W●RK
Artist:millennium parade x Sheena Ringo
ArtistUnicode:millennium parade × 椎名林檎
Creator:AirinCat
Version:Hard
Source:地獄楽
Tags:jigokuraku hell hell's hells Paradition Heavenhell paradise fuju agatsu nexusqi full version opening op jrock j-rock japanese rock pop jpop anime 常田大希 daiki tsuneta Shiina
BeatmapID:4086284
BeatmapSetID:1967160

[Difficulty]
HPDrainRate:4
CircleSize:3.6
OverallDifficulty:6
ApproachRate:8
SliderMultiplier:2
SliderTickRate:1

[Events]
//Background and Video events
0,0,"Jigokuraku.jpg",0,0
//Break Periods
2,18699,19890
2,89559,95324
//Storyboard Layer 0 (Background)
//Storyboard Layer 1 (Fail)
//Storyboard Layer 2 (Pass)
//Storyboard Layer 3 (Foreground)
//Storyboard Layer 4 (Overlay)
//Storyboard Sound Samples

[TimingPoints]
201,571.428571428571,4,2,1,60,1,0
201,-100,4,2,1,60,0,0
212,-100,4,2,1,60,0,0
7058,574.162679425837,4,2,1,60,1,0
7058,-71.4285714285714,4,2,1,60,0,0
7345,-71.4285714285714,4,2,1,60,0,0
8493,-71.4285714285714,4,2,1,70,0,0
9354,571.428571428571,4,2,1,70,1,0
9354,-71.4285714285714,4,2,1,70,0,0
9925,-83.3333333333333,4,2,1,70,0,0
10354,-66.6666666666667,4,2,1,70,0,0
11639,579.710144927536,4,2,1,70,1,0
11639,-83.3333333333333,4,2,1,70,0,0
13378,555.555555555556,4,2,1,70,1,0
13378,-83.3333333333333,4,2,1,70,0,0
13933,582.52427184466,4,2,1,70,1,0
13933,-83.3333333333333,4,2,1,70,0,0
14515,571.428571428571,4,2,1,70,1,0
14515,-83.3333333333333,4,2,1,70,0,0
14943,-83.3333333333333,4,2,1,70,0,0
15086,568.720379146919,4,2,1,70,1,0
15086,-100,4,2,1,70,0,0
15228,-83.3333333333333,4,2,1,70,0,0
16223,571.428571428571,4,2,1,70,1,0
16223,-83.3333333333333,4,2,1,70,0,0
16794,-83.3333333333333,4,2,1,70,0,0
17365,567.375886524823,4,2,1,70,1,0
17365,-100,4,2,1,70,0,0
17496,-83.3333333333333,4,2,1,70,0,0
18499,571.428571428571,4,2,1,70,1,0
18499,-100,4,2,1,70,0,0
19069,-83.3333333333333,4,2,1,40,0,0
20640,-83.3333333333333,4,2,1,50,0,0
27639,-71.4285714285714,4,2,1,60,0,0
35496,-66.6666666666667,4,2,1,70,0,0
37211,-90.9090909090908,4,2,1,70,0,0
37497,-125,4,2,1,70,0,0
37782,-58.8235294117647,4,2,1,70,0,0
38211,-90.9090909090909,4,2,1,70,0,0
39068,-62.5,4,2,1,70,0,0
39354,-90.9090909090909,4,2,1,70,0,0
39783,-142.857142857143,4,2,1,70,0,0
40068,-58.8235294117647,4,2,1,70,0,0
40496,-90.9090909090909,4,2,1,70,0,0
41354,-62.5,4,2,1,70,0,0
41639,-111.111111111111,4,2,1,70,0,0
42354,-58.8235294117647,4,2,1,70,0,0
42782,-90.9090909090909,4,2,1,70,0,0
43639,-62.5,4,2,1,70,0,0
44496,-111.111111111111,4,2,1,70,0,0
45925,-58.8235294117647,4,2,1,70,0,0
46496,567.10775047259,4,2,1,60,1,0
46496,-76.9230769230769,4,2,1,60,0,0
49331,582.52427184466,4,2,1,60,1,0
49331,-100,4,2,1,60,0,0
50640,-76.9230769230769,4,2,1,30,0,0
51224,-200,4,2,1,30,0,0
51647,571.428571428571,4,2,1,70,1,0
51647,-66.6666666666667,4,2,1,70,0,0
52353,-66.6666666666667,4,2,1,70,0,0
54924,-111.111111111111,4,2,1,70,0,0
55353,-66.6666666666667,4,2,1,70,0,0
56218,585.365853658537,4,2,1,70,1,0
56218,-66.6666666666667,4,2,1,70,0,0
56803,550.45871559633,4,2,1,70,1,8
56803,-100,4,2,1,70,0,8
56940,-66.6666666666667,4,2,1,70,0,0
57215,-68.4931506849315,4,2,1,70,0,0
57353,574.162679425837,4,2,1,70,1,8
57353,-66.6666666666667,4,2,1,70,0,0
58501,588.235294117647,4,2,1,70,1,0
58501,-66.6666666666667,4,2,1,70,0,0
59089,571.428571428571,4,2,1,70,1,8
59089,-100,4,2,1,70,0,8
59515,-99.009900990099,4,2,1,70,0,0
59660,560.747663551402,4,2,1,70,1,0
59660,-66.6666666666667,4,2,1,70,0,0
60781,574.162679425837,4,2,1,70,1,0
60781,-66.6666666666667,4,2,1,70,0,0
61495,-66.6666666666667,4,2,1,70,0,0
63077,571.428571428571,4,2,1,70,1,0
63077,-66.6666666666667,4,2,1,70,0,0
63352,-66.6666666666667,4,2,1,70,0,0
64219,563.380281690141,4,2,1,70,1,0
64219,-66.6666666666667,4,2,1,70,0,0
65345,576.923076923077,4,2,1,70,1,0
65345,-66.6666666666667,4,2,1,70,0,0
66498,585.365853658537,4,2,1,70,1,0
66498,-66.6666666666667,4,2,1,70,0,0
67229,560.747663551402,4,2,1,70,1,0
67229,-83.3333333333333,4,2,1,70,0,0
67649,579.710144927536,4,2,1,70,1,0
67649,-66.6666666666667,4,2,1,70,0,0
68518,555.555555555556,4,2,1,70,1,8
68518,-66.6666666666667,4,2,1,70,0,0
68795,571.428571428571,4,2,1,70,1,0
68795,-100,4,2,1,70,0,0
68796,-100,4,2,1,70,0,0
69067,-66.6666666666667,4,2,1,70,0,0
69937,568.720379146919,4,2,2,70,1,0
69937,-66.6666666666667,4,2,2,70,0,0
70353,-66.6666666666667,4,2,2,70,0,0
72212,572.792362768496,4,2,2,70,1,0
72212,-66.6666666666667,4,2,2,70,0,0
72781,-66.6666666666667,4,2,2,70,0,0
74503,571.428571428571,4,2,2,70,1,0
74503,-66.6666666666667,4,2,2,70,0,0
75067,-66.6666666666667,4,2,2,70,0,0
88503,-90.9090909090909,4,2,1,50,0,0
98496,-90.9090909090909,4,2,2,50,0,0
101924,-76.9230769230769,4,2,2,50,0,0
106503,570.071258907363,4,2,1,70,1,0
106503,-58.8235294117647,4,2,1,70,0,0
106781,-90.9090909090909,4,2,1,70,0,0
107496,-58.8235294117647,4,2,1,70,0,0
107924,-90.9090909090909,4,2,1,70,0,0
108783,572.246065808298,4,2,1,70,1,0
108783,-58.8235294117647,4,2,1,70,0,0
109067,-90.9090909090908,4,2,1,70,0,0
109781,-58.8235294117647,4,2,1,70,0,0
110210,-83.3333333333333,4,2,1,70,0,0
111067,-58.8235294117647,4,2,1,70,0,0
111353,-76.9230769230769,4,2,1,70,0,0
111639,-111.111111111111,4,2,1,70,0,0
112067,-58.8235294117647,4,2,1,70,0,0
112496,-83.3333333333333,4,2,1,70,0,0
113361,565.50424128181,4,2,1,70,1,0
113361,-58.8235294117647,4,2,1,70,0,0
113640,-58.8235294117647,4,2,1,70,0,0
113924,-71.4285714285714,4,2,1,70,0,0
114492,-76.9230769230769,4,2,1,70,0,0
115623,585.365853658537,4,2,1,70,1,0
115623,-76.9230769230769,4,2,1,70,0,0
116208,566.037735849057,4,2,1,70,1,0
116208,-90.9090909090909,4,2,1,70,0,0
116771,-100,4,2,1,70,0,0
117337,-71.4285714285714,4,2,1,70,0,0
118472,545.454545454546,4,2,1,70,1,0
118472,-71.4285714285714,4,2,1,70,0,0
119017,603.015075376884,4,2,1,70,1,8
119017,-71.4285714285714,4,2,1,70,0,0
119620,615.384615384615,4,2,1,70,1,0
119620,-71.4285714285714,4,2,1,70,0,0
119927,-76.9230769230769,4,2,1,70,0,0
120543,552.995391705069,4,2,1,70,1,0
120543,-100,4,2,1,70,0,0
121925,558.139534883721,4,2,1,70,1,0
121925,-100,4,2,1,70,0,0
122483,285.714285714286,4,2,1,70,1,0
122483,-142.857142857143,4,2,1,70,0,0
126483,292.682926829268,4,2,1,70,1,8
126483,-142.857142857143,4,2,1,70,0,0
127068,285.714285714286,4,2,1,70,1,0
127068,-142.857142857143,4,2,1,70,0,0
129353,289.855072463768,4,2,1,70,1,0
129353,-142.857142857143,4,2,1,70,0,0
130512,281.69014084507,4,2,1,70,1,0
130512,-142.857142857143,4,2,1,70,0,0
131638,287.631831255992,4,2,1,80,1,0
131638,-133.333333333333,4,2,1,80,0,0
133939,-133.333333333333,4,2,1,80,0,0
135089,257.510729613734,4,2,1,80,1,0
135089,-142.857142857143,4,2,1,80,0,0
135948,-142.857142857143,4,2,1,80,0,0
136162,298.507462686567,4,2,1,70,1,0
136162,-125,4,2,1,70,0,0
137654,281.69014084507,4,2,1,70,1,0
137654,-125,4,2,1,70,0,0
138496,285.714285714286,4,2,1,70,1,0
138496,-125,4,2,1,70,0,0
140781,571.428571428571,4,2,1,70,1,0
142496,-125,4,2,1,40,0,0
143067,568.720379146919,4,2,1,70,1,0
143067,-66.6666666666667,4,2,1,70,0,0
145341,585.365853658537,4,2,1,70,1,0
145341,-66.6666666666667,4,2,1,70,0,0
146511,571.428571428571,4,2,1,70,1,0
146511,-66.6666666666667,4,2,1,70,0,0
147368,579.710144927536,4,2,1,70,1,8
147368,-66.6666666666667,4,2,1,70,0,0
147657,571.428571428571,4,2,1,70,1,0
147657,-66.6666666666667,4,2,1,70,0,0
148371,542.986425339367,4,2,1,70,1,8
148371,-66.6666666666667,4,2,1,70,0,0
148642,-68.4931506849315,4,2,1,70,0,0
148779,571.428571428571,4,2,1,70,1,0
148779,-66.6666666666667,4,2,1,70,0,8
149921,579.710144927536,4,2,1,70,1,0
149921,-66.6666666666667,4,2,1,70,0,0
150500,566.037735849057,4,2,1,70,1,8
150500,-66.6666666666667,4,2,1,70,0,0
150924,-100,4,2,1,70,0,8
151066,571.428571428571,4,2,1,70,1,0
151066,-100,4,2,1,70,0,0
151351,-66.6666666666667,4,2,1,70,0,0
152208,588.235294117647,4,2,1,70,1,0
152208,-66.6666666666667,4,2,1,70,0,0
152943,545.454545454546,4,2,1,70,1,8
152943,-66.6666666666667,4,2,1,70,0,0
153213,-68.4931506849315,4,2,1,70,0,0
153352,572.792362768496,4,2,1,70,1,0
153352,-66.6666666666667,4,2,1,70,0,8
154497,591.133004926108,4,2,1,70,1,0
154497,-66.6666666666667,4,2,1,70,0,8
154781,-66.6666666666667,4,2,1,70,0,0
155088,563.380281690141,4,2,1,70,1,8
155088,-66.6666666666667,4,2,1,70,0,0
155651,571.428571428571,4,2,1,70,1,0
155651,-66.6666666666667,4,2,1,70,0,0
156651,621.761658031088,4,2,1,70,1,0
156651,-66.6666666666667,4,2,1,70,0,0
156805,582.52427184466,4,2,1,70,1,0
156805,-66.6666666666667,4,2,1,70,0,0
157241,-66.6666666666667,4,2,1,70,0,0
157387,545.454545454546,4,2,1,70,1,8
157387,-66.6666666666667,4,2,1,70,0,0
157932,571.428571428571,4,2,1,70,1,0
157932,-66.6666666666667,4,2,1,70,0,0
160217,560.747663551402,4,2,1,70,1,0
160217,-66.6666666666667,4,2,1,70,0,0
161198,-65.359477124183,4,2,3,70,0,0
161338,618.556701030928,4,2,1,70,1,0
161338,-66.6666666666667,4,2,1,70,0,0
161956,550.45871559633,4,2,1,70,1,8
161956,-71.4285714285714,4,2,1,70,0,0
162368,568.720379146919,4,2,1,70,1,8
162368,-66.6666666666667,4,2,1,70,0,0
162510,568.720379146919,4,2,1,70,1,0
162510,-100,4,2,1,70,0,0
163220,-66.6666666666667,4,2,1,70,0,0
163506,-66.6666666666667,4,2,1,70,0,0
164639,-66.6666666666667,4,2,1,70,0,0
165495,-66.6666666666667,4,2,1,70,0,0
168055,571.428571428571,4,2,1,70,1,8
168055,-66.6666666666667,4,2,1,70,0,0
168197,571.428571428571,4,2,1,70,1,0
168197,-100,4,2,1,70,0,0
168198,-100,4,2,1,70,0,0
168769,-66.6666666666667,4,2,1,70,0,0
170340,594.059405940594,4,2,1,70,1,8
170340,-66.6666666666667,4,2,1,70,0,0
170488,594.059405940594,4,2,1,70,1,0
170488,-100,4,2,1,70,0,0
171231,540.540540540541,4,2,1,70,1,8
171231,-66.6666666666667,4,2,1,70,0,0
171501,568.720379146919,4,2,1,70,1,8
171501,-66.6666666666667,4,2,1,70,0,0
171642,-100,4,2,1,70,0,0
171643,568.720379146919,4,2,1,70,1,0
171643,-100,4,2,1,70,0,0
172352,-66.6666666666667,4,2,1,70,0,0
174913,576.923076923077,4,2,1,70,1,8
174913,-66.6666666666667,4,2,1,70,0,0
175054,-100,4,2,1,70,0,0
175057,576.923076923077,4,2,1,70,1,0
175057,-100,4,2,1,70,0,0
175345,-66.6666666666667,4,2,1,70,0,0
176066,566.037735849057,4,2,1,70,1,8
176066,-66.6666666666667,4,2,1,70,0,0
176207,566.037735849057,4,2,1,70,1,0
176207,-100,4,2,1,70,0,0
177198,574.162679425837,4,2,1,70,1,8
177198,-66.6666666666667,4,2,1,70,0,0
177341,574.162679425837,4,2,1,70,1,0
177341,-100,4,2,1,70,0,0
177484,-66.6666666666667,4,2,1,50,0,0
178202,-66.6666666666667,4,2,1,60,0,0
179063,-66.6666666666667,4,2,1,70,0,0
179638,571.428571428571,4,2,3,70,1,1
179638,-66.6666666666667,4,2,3,70,0,1
179923,-66.6666666666667,4,2,2,70,0,1
180780,588.235294117647,4,2,2,70,1,1
180780,-66.6666666666667,4,2,2,70,0,1
181662,521.739130434783,4,2,2,70,1,1
181662,-66.6666666666667,4,2,2,70,0,1
181923,571.428571428571,4,2,2,70,1,1
181923,-66.6666666666667,4,2,2,70,0,1
184781,594.059405940594,4,2,2,70,1,9
184781,-66.6666666666667,4,2,2,70,0,1
185375,563.380281690141,4,2,2,70,1,1
185375,-100,4,2,2,70,0,1
185515,-66.6666666666667,4,2,2,70,0,1
186501,571.428571428571,4,2,2,70,1,1
186501,-66.6666666666667,4,2,2,70,0,1
188786,570.071258907363,4,2,3,70,1,1
188786,-66.6666666666667,4,2,3,70,0,1
189071,-66.6666666666667,4,2,2,70,0,1
191066,571.428571428571,4,2,2,70,1,1
191066,-66.6666666666667,4,2,2,70,0,1
196208,582.52427184466,4,2,2,70,1,9
196208,-66.6666666666667,4,2,2,70,0,1
196790,576.923076923077,4,2,2,70,1,1
196790,-100,4,2,2,70,0,1
197078,-66.6666666666667,4,2,2,70,0,1
197799,-90.9090909090909,4,2,1,70,0,0

[Colours]
Combo1 : 194,168,242
Combo2 : 243,143,143
Combo3 : 240,180,113
Combo4 : 200,242,191

[HitObjects]
62,370,7058,6,0,L|180:328,1,104.999996795654,0|4,1:0|0:3,0:0:0:0:
160,334,7345,2,0,L|235:360,1,69.9999978637696,14|14,0:3|0:3,0:0:0:0:
318,321,7632,2,0,L|341:248,1,69.9999978637696,10|2,0:0|1:3,0:0:0:0:
131,232,8062,6,0,P|112:163|96:96,1,139.999995727539,4|8,1:0|0:0,0:0:0:0:
154,38,8493,2,0,L|237:55,1,69.9999978637696,2|8,1:0|0:0,0:0:0:0:
301,107,8780,1,8,0:0:0:0:
301,107,8924,1,8,0:0:0:0:
301,107,9067,2,0,L|382:89,1,69.9999978637696,8|8,0:0|0:0,0:0:0:0:
449,49,9354,6,0,P|521:120|512:221,1,209.999993591309,6|0,1:0|0:0,0:0:0:0:
448,281,9925,2,0,P|390:271|358:222,1,119.999996337891,8|0,0:0|0:0,0:0:0:0:
276,187,10354,2,0,B|207:200|214:217|133:242,2,150.000005722046,2|0|2,1:0|0:0|1:0,0:0:0:0:
341,131,11069,1,8,0:0:0:0:
341,131,11211,2,0,P|347:96|357:56,1,75.0000028610231,2|0,1:0|0:0,0:0:0:0:
296,9,11496,1,2,0:1:0:0:
232,53,11639,6,0,P|137:63|63:14,1,179.999994506836,6|0,1:0|0:0,0:0:0:0:
0,66,12218,2,0,P|14:118|25:202,1,119.999996337891,8|0,0:0|3:0,0:0:0:0:
100,229,12653,1,2,1:0:0:0:
100,229,12798,2,0,L|174:212,1,59.9999981689454,0|2,3:0|0:1,0:0:0:0:
213,153,13088,2,0,P|247:163|281:174,1,59.9999981689454,0|0,3:0|1:1,0:0:0:0:
338,220,13378,2,0,L|418:197,1,59.9999981689454,8|2,0:0|1:0,0:0:0:0:
440,133,13655,2,0,L|481:139,3,29.9999990844727,2|0|0|0,3:2|3:0|3:0|3:0,0:0:0:0:
509,101,13933,6,0,L|464:291,1,179.999994506836,2|0,1:0|0:0,0:0:0:0:
471,366,14515,2,0,P|409:346|339:335,1,119.999996337891,8|0,0:0|0:0,0:0:0:0:
286,285,14943,2,0,P|256:294|228:301,1,59.9999981689454,2|0,1:0|0:0,0:0:0:0:
166,358,15228,2,0,P|135:353|105:348,1,59.9999981689454,2|0,0:1|0:0,0:0:0:0:
45,290,15512,1,2,1:0:0:0:
45,290,15654,2,0,P|51:253|56:227,1,59.9999981689454,8|2,0:0|1:0,0:0:0:0:
123,184,15939,2,0,P|114:155|103:127,1,59.9999981689454,2|0,0:0|0:0,0:0:0:0:
54,63,16223,6,0,P|135:95|218:66,1,179.999994506836,6|0,1:0|1:0,0:0:0:0:
283,8,16794,2,0,P|337:5|389:49,1,119.999996337891,8|0,0:0|0:0,0:0:0:0:
374,129,17223,1,2,1:0:0:0:
374,129,17506,6,0,L|317:149,2,59.9999981689454,2|2|2,3:1|3:1|1:1,0:0:0:0:
452,163,17932,2,0,L|475:227,1,59.9999981689454,8|12,1:2|0:3,0:0:0:0:
468,229,18145,1,12,0:3:0:0:
463,238,18216,2,0,L|403:255,1,59.9999981689454,12|4,0:3|0:3,0:0:0:0:
396,262,18428,1,4,0:3:0:0:
389,273,18499,1,6,1:1:0:0:
35,369,20640,5,8,0:2:0:0:
35,369,20712,1,8,0:2:0:0:
35,369,20783,2,0,P|25:296|-13:180,1,179.999994506836,4|0,1:2|1:2,0:2:0:0:
13,113,21355,1,10,0:2:0:0:
13,113,21498,2,0,P|64:78|124:88,1,119.999996337891,2|0,0:2|1:2,0:2:0:0:
196,121,21927,2,0,P|254:122|300:85,1,119.999996337891,2|2,0:2|0:2,0:2:0:0:
354,22,22355,1,2,1:2:0:0:
354,22,22498,2,0,P|409:34|487:52,1,119.999996337891,8|0,0:2|0:2,0:2:0:0:
469,263,23070,6,0,P|371:234|281:212,1,179.999994506836,0|0,1:2|1:2,0:2:0:0:
217,234,23641,1,10,0:2:0:0:
217,234,23784,2,0,P|199:275|183:365,1,119.999996337891,2|0,0:2|1:2,0:2:0:0:
257,380,24213,1,2,0:2:0:0:
82,323,24498,2,0,P|74:289|60:256,1,59.9999981689454,2|2,0:2|1:2,0:0:0:0:
75,183,24784,2,0,P|82:114|127:76,1,119.999996337891,8|2,0:2|0:2,0:0:0:0:
195,46,25213,1,0,3:0:0:0:
195,46,25355,6,0,P|246:73|320:63,1,119.999996337891,0|2,1:2|0:2,0:0:0:0:
391,44,25784,1,0,1:2:0:0:
391,44,25927,2,0,P|449:54|491:116,1,119.999996337891,8|2,0:2|0:2,0:2:0:0:
461,189,26355,5,0,1:2:0:0:
461,189,26641,2,0,L|476:261,2,59.9999981689454,2|2|2,0:3|0:3|1:3,0:0:0:0:
373,206,27070,2,0,L|386:277,2,59.9999981689454,8|2|2,0:2|0:3|1:3,0:0:0:0:
289,175,27498,5,8,0:2:0:0:
289,175,27570,1,8,0:2:0:0:
289,175,27640,2,0,P|201:227|104:196,1,209.999993591309,4|0,1:2|1:2,0:2:0:0:
53,128,28212,1,10,0:2:0:0:
53,128,28355,2,0,L|75:55,1,69.9999978637696,2|0,0:2|0:2,0:2:0:0:
146,14,28640,1,2,1:2:0:0:
146,14,28783,2,0,P|206:31|288:48,1,139.999995727539,2|0,0:2|0:2,0:2:0:0:
337,110,29213,2,0,P|371:98|403:89,2,69.9999978637696,2|8|2,1:2|0:2|0:2,0:2:0:0:
295,184,29641,2,0,P|303:213|315:259,1,69.9999978637696,2|0,0:2|0:2,0:2:0:0:
388,307,29927,6,0,P|480:265|509:168,1,209.999993591309,0|0,1:2|1:2,0:2:0:0:
492,89,30498,1,10,0:2:0:0:
492,89,30641,2,0,P|459:80|393:63,1,69.9999978637696,2|0,0:2|0:2,0:2:0:0:
364,14,30927,1,2,1:2:0:0:
364,14,31070,2,0,P|290:30|216:51,1,139.999995727539,2|0,0:2|0:2,0:2:0:0:
170,114,31498,2,0,P|177:142|187:182,2,69.9999978637696,2|8|2,1:2|3:2|0:3,0:0:0:0:
89,78,31927,2,0,L|41:91,3,34.9999989318848,2|0|0|0,0:3|1:0|1:2|1:2,0:2:0:0:
11,62,32213,6,0,P|32:149|57:277,1,209.999993591309,4|0,1:2|1:2,0:2:0:0:
42,365,32784,1,10,0:2:0:0:
42,365,32927,2,0,P|78:353|121:339,1,69.9999978637696,2|0,0:2|0:2,0:2:0:0:
203,350,33213,1,2,1:2:0:0:
203,350,33355,2,0,P|235:289|223:222,1,139.999995727539,2|0,0:2|0:2,0:2:0:0:
154,176,33784,1,2,1:2:0:0:
154,176,33927,2,0,P|119:117|137:51,1,139.999995727539,8|2,0:2|0:2,0:2:0:0:
367,153,34498,6,0,P|429:165|504:182,1,139.999995727539,0|0,1:2|0:2,0:2:0:0:
512,92,34927,1,2,1:2:0:0:
512,92,35070,2,0,L|364:63,1,139.999995727539,8|8,0:2|0:3,0:2:0:0:
297,10,35499,6,0,P|235:49|221:120,1,150.000005722046,6|0,1:0|1:0,0:0:0:0:
131,163,35926,2,0,P|147:194|180:213,1,75.0000028610231,14|0,1:2|0:0,0:0:0:0:
193,317,36213,2,0,P|229:311|259:290,1,75.0000028610231,12|12,0:3|0:3,0:0:0:0:
268,284,36427,1,8,0:3:0:0:
276,278,36498,2,0,P|321:289|367:299,1,75.0000028610231,12|12,0:3|0:3,0:0:0:0:
419,349,36784,6,0,P|461:287|449:211,1,150.000005722046,6|0,1:0|0:0,0:0:0:0:
386,161,37212,2,0,L|315:187,2,55.0000016784668,0|8|2,1:0|0:0|0:0,0:0:0:0:
151,334,37784,6,0,P|74:270|80:184,1,170.000003242493,6|0,1:0|0:0,0:0:0:0:
119,135,38213,2,0,L|181:149,1,55.0000016784668,0|8,1:0|0:3,0:0:0:0:
249,201,38498,1,8,0:0:0:0:
249,201,38641,1,8,0:3:0:0:
249,201,38784,2,0,L|235:260,1,55.0000016784668,4|4,0:3|0:3,0:0:0:0:
309,331,39070,6,0,P|353:341|397:353,1,80,6|0,1:0|0:0,0:0:0:0:
474,327,39355,2,0,P|486:285|503:202,1,110.000003356934,2|8,0:0|0:0,0:0:0:0:
470,143,39783,1,2,0:0:0:0:
237,133,40070,6,0,P|322:149|381:89,1,170.000003242493,6|0,1:0|0:0,0:0:0:0:
368,11,40498,2,0,L|308:-2,1,55.0000016784668,0|8,1:0|0:3,0:0:0:0:
231,38,40784,1,8,0:0:0:0:
231,38,40927,1,8,0:3:0:0:
231,38,41070,2,0,L|171:25,1,55.0000016784668,4|4,0:3|0:3,0:0:0:0:
88,67,41355,6,0,P|77:110|65:146,1,80,6|0,1:0|0:0,0:0:0:0:
149,242,41641,2,0,P|160:198|179:141,2,89.9999972534181,2|8|0,0:0|0:0|0:0,0:0:0:0:
79,321,42355,6,0,P|152:272|230:288,1,170.000003242493,6|0,1:0|0:0,0:0:0:0:
302,340,42784,2,0,L|358:325,1,55.0000016784668,0|8,1:0|0:3,0:0:0:0:
401,259,43070,1,8,0:0:0:0:
401,259,43213,1,8,0:3:0:0:
401,259,43355,2,0,L|469:278,1,55.0000016784668,4|4,0:3|0:3,0:0:0:0:
448,173,43641,6,0,P|458:129|474:71,1,80,6|0,1:0|1:0,0:0:0:0:
341,139,43927,2,0,P|352:94|359:52,2,80,6|0|0,1:0|1:0|0:0,0:0:0:0:
246,162,44355,5,0,1:0:0:0:
246,162,44498,2,0,L|192:149,1,44.999998626709,8|0,0:0|1:0,0:0:0:0:
145,90,44784,2,0,L|98:102,1,44.999998626709,14|0,0:3|1:0,0:0:0:0:
47,162,45070,2,0,L|62:212,1,44.999998626709,14|0,0:3|1:0,0:0:0:0:
137,246,45355,2,0,L|126:294,1,44.999998626709,8|8,0:0|1:3,0:0:0:0:
61,341,45641,2,0,L|84:393,1,44.999998626709,8|8,0:3|0:3,0:0:0:0:
187,358,45927,6,0,P|225:364|284:380,1,85.0000016212464,6|0,1:0|0:0,0:0:0:0:
251,268,46212,2,0,P|256:224|272:176,1,85.0000016212464,6|0,1:0|0:0,0:0:0:0:
354,295,46497,2,0,P|415:304|498:332,1,129.999994049073,6|0,1:0|0:0,0:0:0:0:
256,192,46921,12,4,49331,1:0:0:0:
274,287,50641,6,2,B|203:294|227:327|168:375|91:354,1,194.999991073609,0|2,3:0|0:0,0:1:0:0:
35,310,51224,2,0,P|42:280|43:252,1,50,2|0,0:0|0:0,0:0:0:0:
0,193,51647,6,0,P|59:238|141:218,1,150.000005722046,6|2,1:0|0:0,0:0:0:0:
224,29,52218,1,10,0:0:0:0:
143,14,52361,2,0,P|130:53|121:93,1,75.0000028610231,2|0,0:1|0:0,0:0:0:0:
186,148,52647,2,0,P|260:170|344:201,1,150.000005722046,2|0,1:0|0:0,0:0:0:0:
401,254,53075,2,0,P|441:243|486:236,1,75.0000028610231,2|0,0:0|0:0,0:0:0:0:
512,160,53361,1,10,0:0:0:0:
512,160,53504,2,0,P|493:118|486:79,1,75.0000028610231,2|0,0:0|0:0,0:0:0:0:
413,44,53789,5,2,0:0:0:0:
413,44,53861,1,2,0:0:0:0:
413,44,53932,2,0,P|380:56|318:65,1,75.0000028610231,2|0,1:0|0:0,0:0:0:0:
249,42,54218,2,0,P|171:36|114:88,2,150.000005722046,2|8|2,0:0|0:0|0:0,0:0:0:0:
245,127,54932,1,2,1:0:0:0:
245,127,55361,2,0,P|238:157|228:205,1,75.0000028610231,2|0,0:0|1:0,0:0:0:0:
292,261,55647,1,10,0:0:0:0:
240,329,55789,2,0,P|153:327|107:269,1,150.000005722046,2|2,1:0|0:0,0:0:0:0:
10,237,56218,6,0,P|25:153|47:63,1,150.000005722046,6|2,1:0|0:0,0:0:0:0:
291,28,56803,1,10,0:0:0:0:
219,0,56940,2,0,P|205:39|198:84,1,75.0000028610231,2|0,0:1|0:0,0:0:0:0:
261,133,57215,2,0,B|354:151|329:183|408:188,1,150.000005722046,2|0,1:0|0:0,0:0:0:0:
463,241,57640,2,0,P|453:281|446:324,1,75.0000028610231,2|0,0:0|0:0,0:0:0:0:
370,358,57927,1,8,0:0:0:0:
370,358,58070,2,0,P|330:353|287:340,1,75.0000028610231,2|0,0:0|0:0,0:0:0:0:
221,290,58357,5,2,0:0:0:0:
221,290,58429,1,2,0:0:0:0:
221,290,58501,2,0,P|142:298|97:362,2,150.000005722046,2|2|8,1:0|0:0|0:0,0:0:0:0:
456,363,59374,1,2,0:0:0:0:
456,363,59517,2,0,P|465:313|475:265,1,100,2|0,1:0|0:0,0:0:0:0:
419,204,59940,2,0,P|382:211|337:218,1,75.0000028610231,2|0,0:0|1:0,0:0:0:0:
269,180,60220,1,8,0:0:0:0:
269,180,60360,2,0,P|260:137|252:99,1,75.0000028610231,0|8,1:0|0:3,0:0:0:0:
284,20,60641,1,4,0:3:0:0:
362,62,60781,6,0,P|439:66|490:16,1,150.000005722046,6|2,1:0|0:0,0:0:0:0:
367,165,61355,1,10,0:0:0:0:
426,221,61498,2,0,L|446:302,1,75.0000028610231,2|0,0:1|0:0,0:0:0:0:
511,351,61785,2,0,P|444:323|373:345,1,150.000005722046,2|0,1:0|0:0,0:0:0:0:
298,380,62216,2,0,L|214:356,1,75.0000028610231,2|0,0:0|0:0,0:0:0:0:
180,290,62503,1,10,0:0:0:0:
180,290,62647,2,0,L|205:199,1,75.0000028610231,2|0,0:0|0:0,0:0:0:0:
162,128,62934,5,8,0:3:0:0:
162,128,63005,1,8,0:3:0:0:
162,128,63077,2,0,P|122:122|89:113,1,75.0000028610231,6|0,1:0|0:0,0:0:0:0:
105,210,63362,2,0,P|53:263|53:353,2,150.000005722046,2|8|8,0:0|0:0|0:3,0:0:0:0:
199,217,64077,1,4,1:0:0:0:
199,217,64500,2,0,P|238:225|287:238,1,75.0000028610231,2|0,0:0|1:0,0:0:0:0:
327,173,64782,1,8,0:0:0:0:
397,219,64923,2,0,P|446:158|441:85,1,150.000005722046,0|4,1:0|0:3,0:0:0:0:
364,34,65345,6,0,P|325:44|273:57,1,75.0000028610231,6|0,1:0|0:0,0:0:0:0:
210,114,65633,2,0,P|134:95|101:31,1,150.000005722046,2|8,0:0|0:0,0:0:0:0:
178,0,66066,1,2,0:0:0:0:
178,0,66210,1,2,0:0:0:0:
101,35,66354,6,0,P|82:103|58:212,1,150.000005722046,6|2,1:0|0:0,0:0:0:0:
93,265,66790,1,2,0:0:0:0:
93,265,66937,2,0,P|134:272|186:285,1,75.0000028610231,2|8,1:2|0:0,0:0:0:0:
239,232,67229,2,0,P|274:185|269:126,1,119.999996337891,2|0,0:0|0:0,0:0:0:0:
214,53,67649,6,0,P|300:96|369:64,1,150.000005722046,6|0,1:0|0:0,0:0:0:0:
427,31,68083,1,0,1:0:0:0:
427,31,68228,2,0,P|464:47|517:61,1,75.0000028610231,10|0,0:0|0:0,0:0:0:0:
512,142,68518,2,0,P|498:176|489:222,1,75.0000028610231,2|0,0:0|1:0,0:0:0:0:
419,276,68795,5,2,0:0:0:0:
419,276,68937,1,8,0:0:0:0:
340,225,69080,2,0,P|303:236|259:246,1,75.0000028610231,8|0,0:0|1:0,0:0:0:0:
198,297,69366,2,0,P|163:285|118:276,1,75.0000028610231,8|4,0:0|0:3,0:0:0:0:
62,217,69652,1,12,0:3:0:0:
62,217,69795,1,4,0:3:0:0:
106,132,69937,6,0,P|220:112|351:72,1,225.000008583069,6|0,1:0|1:0,0:0:0:0:
390,30,70505,2,0,P|454:65|462:146,1,150.000005722046,8|0,0:0|0:0,0:0:0:0:
414,199,70933,2,0,P|376:189|339:182,1,75.0000028610231,2|0,1:0|0:0,0:0:0:0:
264,219,71217,2,0,P|254:255|248:303,1,75.0000028610231,2|0,0:1|0:0,0:0:0:0:
306,361,71501,1,2,1:0:0:0:
306,361,71644,2,0,P|383:328|447:370,1,150.000005722046,10|0,0:0|0:0,0:0:0:0:
84,325,72212,6,0,P|31:243|52:183,1,150.000005722046,2|0,1:0|0:0,0:0:0:0:
105,137,72641,1,0,1:0:0:0:
105,137,72784,2,0,P|141:149|191:158,1,75.0000028610231,8|0,0:0|0:0,0:0:0:0:
243,214,73071,2,0,P|283:205|338:193,1,75.0000028610231,2|2,0:0|1:0,0:0:0:0:
376,139,73357,2,0,P|367:99|348:57,2,75.0000028610231,2|2|2,0:0|0:0|0:0,0:0:0:0:
460,170,73787,2,0,P|467:210|478:254,1,75.0000028610231,2|8,1:0|0:0,0:0:0:0:
429,320,74073,1,2,1:0:0:0:
429,320,74216,2,0,L|380:334,3,37.5000014305115
343,362,74503,6,0,P|272:328|254:257,1,150.000005722046,2|0,1:0|0:0,0:0:0:0:
223,185,74931,1,0,1:0:0:0:
223,185,75074,2,0,P|152:152|86:181,1,150.000005722046,8|0,0:0|0:0,0:0:0:0:
4,179,75503,2,0,P|16:225|23:258,1,75.0000028610231,2|0,1:0|0:0,0:0:0:0:
114,283,75788,2,0,P|107:323|101:369,1,75.0000028610231,2|0,0:1|0:0,0:0:0:0:
212,343,76074,1,2,1:2:0:0:
212,343,76217,2,0,P|276:351|381:378,1,150.000005722046,10|0,0:0|0:0,0:0:0:0:
512,216,76788,6,0,P|437:208|352:179,1,150.000005722046,2|0,1:0|0:0,0:0:0:0:
298,134,77217,1,0,1:0:0:0:
298,134,77360,2,0,P|223:152|200:225,1,150.000005722046,8|2,0:0|0:0,0:0:0:0:
260,290,77788,5,6,1:0:0:0:
260,290,78074,2,0,P|296:279|352:276,2,75.0000028610231,2|2|2,0:3|0:3|1:3,0:0:0:0:
203,366,78503,1,14,0:3:0:0:
203,366,78645,1,6,0:3:0:0:
203,366,78788,2,0,P|160:372|112:383,1,75.0000028610231,4|12,0:3|0:3,0:0:0:0:
48,319,79074,6,0,B|21:211|91:189|82:84,1,225.000008583069,6|0,1:0|1:0,0:0:0:0:
27,41,79645,2,0,P|92:73|160:48,1,150.000005722046,8|0,0:0|0:0,0:0:0:0:
231,1,80074,2,0,P|263:7|315:19,1,75.0000028610231,2|0,1:0|0:0,0:0:0:0:
367,69,80359,2,0,P|354:107|346:145,1,75.0000028610231,2|0,0:1|0:0,0:0:0:0:
262,177,80645,1,2,1:2:0:0:
262,177,80788,2,0,P|219:235|233:307,1,150.000005722046,8|0,0:0|0:0,0:0:0:0:
454,360,81360,6,0,P|500:304|490:231,1,150.000005722046,6|0,1:0|0:0,0:0:0:0:
496,143,81789,1,0,1:0:0:0:
496,143,81932,2,0,L|424:164,1,75.0000028610231,8|0,0:0|0:0,0:0:0:0:
353,219,82218,2,0,P|363:255|372:291,1,75.0000028610231,2|2,0:0|1:0,0:0:0:0:
321,360,82503,6,0,P|285:366|245:380,1,75.0000028610231,2|2,0:0|0:0,0:0:0:0:
167,349,82789,1,2,0:0:0:0:
167,349,82932,2,0,P|158:314|144:271,1,75.0000028610231,2|8,1:0|0:0,0:0:0:0:
209,212,83218,1,2,1:0:0:0:
209,212,83360,2,0,L|221:159,3,37.5000014305115
215,128,83646,6,0,P|156:83|84:93,1,150.000005722046,6|0,1:0|0:0,0:0:0:0:
5,137,84075,1,0,1:0:0:0:
5,137,84218,2,0,P|17:195|36:308,1,150.000005722046,8|0,0:0|0:0,0:0:0:0:
99,351,84646,2,0,P|134:341|178:331,1,75.0000028610231,2|0,1:0|0:0,0:0:0:0:
225,271,84932,2,0,P|261:280|304:290,1,75.0000028610231,2|0,0:1|0:0,0:0:0:0:
365,348,85218,1,2,1:2:0:0:
365,348,85360,2,0,P|419:299|418:227,1,150.000005722046,10|2,0:0|0:0,0:0:0:0:
268,13,85932,6,0,P|211:59|207:132,1,150.000005722046,2|0,1:0|0:0,0:0:0:0:
279,198,86360,1,0,1:0:0:0:
279,198,86503,2,0,B|353:182|343:148|419:135,1,150.000005722046,8|0,0:0|0:0,0:0:0:0:
486,188,86931,5,6,1:0:0:0:
486,188,87217,2,0,P|475:221|470:269,2,75.0000028610231,10|10|10,0:3|0:3|0:3,0:0:0:0:
413,135,87645,2,0,P|418:95|436:54,1,75.0000028610231,10|6,0:3|0:3,0:0:0:0:
370,3,87931,1,14,0:3:0:0:
302,44,88074,5,4,0:3:0:0:
302,44,88145,1,4,0:3:0:0:
302,44,88217,2,0,B|139:60|185:144|36:168,1,300.000011444092,6|8,1:1|0:1,0:0:0:0:
72,342,96074,6,0,B|125:326|125:326|190:372,2,110.000003356934,2|2|0,1:3|1:3|0:0,0:0:0:0:
10,290,96788,2,0,B|3:262|3:262|20:242,1,55.0000016784668,0|0,3:0|3:0,0:0:0:0:
5,162,97074,2,0,B|25:145|25:145|66:155,1,55.0000016784668,0|0,3:0|3:0,0:0:0:0:
121,222,97359,5,6,0:0:0:0:
121,222,97502,1,2,0:0:0:0:
121,222,97645,2,0,L|189:207,1,55.0000016784668,2|2,1:2|1:2,0:0:0:0:
242,157,97931,1,2,0:0:0:0:
242,157,98074,2,0,P|300:165|363:187,1,110.000003356934,0|8,1:0|2:3,0:0:0:0:
426,145,98502,2,0,P|431:110|441:83,2,55.0000016784668,8|8|0,2:3|0:1|1:0,0:0:0:0:
481,213,98931,2,0,P|464:268|454:329,1,110.000003356934,0|0,1:0|1:0,0:0:0:0:
383,365,99360,1,8,0:1:0:0:
301,222,99645,6,0,P|271:215|240:210,1,55.0000016784668,4|8,1:3|0:1,0:0:0:0:
204,283,99931,2,0,P|170:289|134:299,1,55.0000016784668,0|2,1:0|1:3,0:0:0:0:
79,344,100217,1,8,0:1:0:0:
79,344,100359,2,0,P|67:286|56:232,1,110.000003356934,2|0,0:3|1:0,0:0:0:0:
54,142,100788,5,2,0:0:0:0:
54,142,100931,2,0,P|85:152|126:164,1,55.0000016784668,2|2,1:0|0:0,0:0:0:0:
183,115,101217,2,0,P|192:81|202:43,2,55.0000016784668,2|8|2,0:0|0:1|0:0,0:0:0:0:
234,194,101645,2,0,L|301:218,1,55.0000016784668,8|8,0:3|0:1,0:0:0:0:
388,208,101931,6,0,P|418:151|403:88,1,129.999994049073,4|0,1:3|1:0,0:0:0:0:
453,28,102359,1,0,1:0:0:0:
453,28,102502,1,8,0:1:0:0:
453,28,102645,2,0,P|400:38|320:60,1,129.999994049073,8|0,0:1|1:0,0:0:0:0:
255,101,103074,2,0,P|225:89|186:79,2,64.9999970245363,2|8|0,0:0|0:1|0:0,0:0:0:0:
299,176,103502,2,0,P|274:222|266:309,1,129.999994049073,0|8,1:0|0:1,0:0:0:0:
314,368,103931,2,0,P|344:378|376:384,1,64.9999970245363,2|8,0:0|0:1,0:0:0:0:
465,359,104217,5,4,1:3:0:0:
465,359,104359,1,8,0:1:0:0:
465,359,104502,2,0,P|472:304|497:229,1,129.999994049073,2|0,1:0|0:0,0:0:0:0:
465,153,104931,2,0,P|429:139|393:135,1,64.9999970245363,8|2,0:1|0:0,0:0:0:0:
335,192,105217,2,0,B|268:202|282:216|193:248,1,129.999994049073,2|2,1:2|0:3,0:0:0:0:
112,232,105645,2,0,P|101:200|91:157,1,64.9999970245363,2|2,1:3|1:3,0:0:0:0:
14,117,105931,2,0,P|21:83|37:46,1,64.9999970245363,14|8,0:3|0:3,0:0:0:0:
39,50,106145,1,8,0:3:0:0:
49,48,106217,2,0,P|80:58|119:66,1,64.9999970245363,8|12,0:3|0:3,0:0:0:0:
202,119,106503,6,0,P|251:105|299:94,1,85.0000016212464,6|0,1:0|1:0,0:0:0:0:
355,33,106788,2,0,P|407:43|479:52,2,110.000003356934,2|8|0,0:0|0:0|0:0,0:0:0:0:
285,98,107500,6,0,B|295:215|330:185|333:285,1,170.000003242493,6|2,1:0|0:0,0:0:0:0:
298,339,107928,2,0,P|271:345|245:354,1,55.0000016784668,2|0,1:2|0:0,0:0:0:0:
185,303,108213,1,8,0:0:0:0:
185,303,108355,1,8,0:3:0:0:
185,303,108498,2,0,P|165:300|126:290,1,55.0000016784668,4|4,0:3|0:3,0:0:0:0:
42,324,108783,6,0,P|19:283|26:238,1,85.0000016212464,6|0,1:0|1:0,0:0:0:0:
2,147,109069,2,0,P|57:148|102:203,2,110.000003356934,2|8|0,0:0|0:0|0:0,0:0:0:0:
23,247,109784,6,0,P|103:201|195:198,1,170.000003242493,6|2,1:0|0:0,0:0:0:0:
269,163,110213,2,0,P|299:175|331:183,1,59.9999981689454,2|0,1:0|0:0,0:0:0:0:
416,256,110499,1,8,0:0:0:0:
416,256,110642,1,8,0:3:0:0:
416,256,110785,2,0,P|428:224|441:192,1,59.9999981689454,4|4,0:3|0:3,0:0:0:0:
511,126,111071,6,0,P|479:99|438:92,1,85.0000016212464,6|0,1:0|1:0,0:0:0:0:
374,33,111358,2,0,P|348:53|316:59,1,64.9999970245363,2|0,0:0|1:0,0:0:0:0:
260,119,111644,2,0,P|216:116|179:91,1,89.9999972534181,8|0,0:0|0:0,0:0:0:0:
90,45,112073,6,0,P|13:96|8:177,1,170.000003242493,4|0,1:0|0:0,0:0:0:0:
48,245,112502,2,0,P|80:252|112:264,1,59.9999981689454,0|0,1:0|0:0,0:0:0:0:
193,233,112788,1,8,0:0:0:0:
193,233,112931,1,8,0:3:0:0:
193,233,113074,2,0,P|222:243|250:250,1,59.9999981689454,4|4,0:3|0:3,0:0:0:0:
321,319,113361,6,0,P|356:308|413:296,1,85.0000016212464,6|0,1:0|1:0,0:0:0:0:
494,228,113643,2,0,P|444:211|407:195,1,85.0000016212464,6|0,1:0|1:0,0:0:0:0:
376,120,113926,6,0,P|382:97|389:75,2,46.6666652425131,8|8|8,0:0|0:0|0:0,0:0:0:0:
268,146,114303,2,0,L|216:129,1,46.6666652425131,8|8,0:0|0:0,0:0:0:0:
201,92,114492,2,0,P|156:79|116:94,1,86.6666626993817,8|8,0:0|0:0,0:0:0:0:
82,114,114774,2,0,L|89:156,1,43.3333313496908,8|8,0:0|0:0,0:0:0:0:
118,267,115057,2,0,P|73:282|17:254,2,86.6666626993817,8|8|8,0:0|0:0|0:0,0:0:0:0:
235,219,115623,6,0,L|302:229,1,64.9999970245363,6|0,1:0|1:0,0:0:0:0:
325,310,115915,2,0,L|389:296,1,64.9999970245363,6|0,1:0|1:0,0:0:0:0:
476,301,116208,2,2,P|529:230|503:129,1,183.333338928223,6|4,1:0|0:3,0:1:0:0:
477,110,116774,1,12,0:0:0:0:
327,152,117057,2,0,L|310:204,2,33.3333333333333,4|4|4,0:3|0:3|0:3,0:0:0:0:
305,100,117340,6,0,P|256:87|210:74,1,93.3333304850261,6|0,1:0|1:0,0:0:0:0:
179,33,117623,2,0,P|153:99|136:178,1,139.999995727539,14|0,0:0|1:0,0:0:0:0:
10,302,118094,2,0,L|25:347,3,46.6666652425131,8|8|8|8,0:0|0:0|0:0|0:0,0:0:0:0:
27,251,118472,6,0,P|74:269|129:283,1,93.3333304850261,14|0,0:0|0:0,0:0:0:0:
147,314,118744,2,0,P|216:308|293:285,1,139.999995727539,6|0,1:0|1:0,0:0:0:0:
383,359,119167,2,0,L|398:308,5,34.9999989318848,8|8|0|0|4|4,0:0|0:0|1:0|1:0|0:3|0:3,0:0:0:0:
410,304,119620,6,0,L|397:254,3,34.9999989318848,6|0|8|8,1:0|1:0|1:3|1:3,0:0:0:0:
379,253,119927,2,0,B|406:119|468:170|501:22,1,259.999988098145,6|0,1:0|0:0,0:0:0:0:
195,370,121925,6,0,L|156:380,7,25,8|8|8|8|8|8|8|8,0:0|0:0|0:0|0:0|0:0|0:0|0:0|0:0,0:0:0:0:
127,384,122483,6,0,P|83:331|91:263,1,139.999995727539,6|10,1:0|0:0,0:0:0:0:
148,195,122911,2,0,B|181:188|181:188|222:229|222:229|281:244,1,139.999995727539,2|2,1:1|1:0,0:0:0:0:
359,214,123340,2,0,B|382:190|382:190|380:135,1,69.9999978637696,8|2,0:0|0:0,0:0:0:0:
320,81,123625,1,2,1:0:0:0:
320,81,123768,1,10,0:0:0:0:
320,81,123911,2,0,L|236:101,1,69.9999978637696,2|2,1:0|1:0,0:0:0:0:
181,48,124197,2,0,L|98:34,1,69.9999978637696,10|2,0:0|1:0,0:0:0:0:
26,63,124483,2,0,L|38:136,1,69.9999978637696,10|2,0:0|0:2,0:0:0:0:
0,213,124768,6,0,P|55:171|123:172,1,139.999995727539,6|8,1:0|0:0,0:0:0:0:
134,177,125125,1,8,0:0:0:0:
146,182,125197,2,0,P|139:218|125:281,1,69.9999978637696,6|2,1:0|0:1,0:0:0:0:
95,327,125483,1,2,1:1:0:0:
95,327,125554,1,8,0:0:0:0:
95,327,125625,2,0,P|58:315|27:308,2,69.9999978637696,6|2|8,1:0|0:1|0:0,0:0:0:0:
168,376,126054,2,0,P|201:370|246:365,1,69.9999978637696,2|0,1:0|0:0,0:0:0:0:
302,301,126340,1,8,0:0:0:0:
302,301,126411,1,8,0:0:0:0:
302,301,126483,2,0,P|364:311|453:343,1,139.999995727539,2|0,1:0|0:0,0:0:0:0:
512,276,126922,5,8,0:0:0:0:
512,276,127068,2,2,P|502:239|496:195,1,69.9999978637696,6|10,1:0|2:0,0:0:0:0:
419,168,127353,2,0,P|423:132|437:96,1,69.9999978637696,0|0,1:0|1:0,0:0:0:0:
364,33,127639,2,0,P|389:22|439:9,2,69.9999978637696,12|0|0,0:0|1:0|1:0,0:0:0:0:
306,104,128068,1,0,1:0:0:0:
306,104,128210,2,0,P|273:100|231:89,1,69.9999978637696,0|8,1:0|0:0,0:0:0:0:
165,53,128496,1,0,1:0:0:0:
165,53,128639,1,0,1:0:0:0:
164,53,128782,2,0,B|123:73|101:114|101:114|107:171,1,139.999995727539,14|2,0:0|0:0,0:0:0:0:
138,236,129210,1,10,0:0:0:0:
228,225,129353,6,0,P|280:237|368:263,1,139.999995727539,6|8,1:0|0:0,0:0:0:0:
428,332,129787,2,0,P|442:295|452:260,1,69.9999978637696,2|8,1:1|0:0,0:0:0:0:
512,208,130077,1,2,0:1:0:0:
512,208,130222,2,0,P|497:179|487:139,1,69.9999978637696,2|8,1:0|0:0,0:0:0:0:
399,139,130512,5,0,1:0:0:0:
399,139,130652,1,0,1:0:0:0:
399,139,130793,2,0,P|372:147|331:160,1,69.9999978637696,8|0,0:0|1:0,0:0:0:0:
276,229,131075,1,8,0:0:0:0:
276,229,131216,1,8,0:0:0:0:
296,315,131357,1,8,0:0:0:0:
296,315,131497,1,8,0:0:0:0:
212,355,131638,6,0,B|134:337|146:302|82:281,1,150.000005722046,6|0,1:1|1:0,0:0:0:0:
0,310,132069,1,8,0:0:0:0:
12,227,132213,2,0,P|28:189|34:151,1,75.0000028610231,0|2,1:2|1:0,0:0:0:0:
105,97,132500,2,0,B|173:106|162:143|270:154,1,150.000005722046,12|0,0:2|1:0,0:0:0:0:
304,217,132932,1,10,0:0:0:0:
389,170,133076,2,0,P|399:131|409:90,1,75.0000028610231,2|2,1:0|1:0,0:0:0:0:
336,58,133363,1,10,0:0:0:0:
186,232,133651,2,0,B|151:232|151:232|128:263|78:275,1,112.500004291535,14|0,0:0|0:0,0:0:0:0:
82,268,133939,6,0,P|72:230|54:197,1,75.0000028610231,14|2,0:0|1:0,0:0:0:0:
78,97,134226,1,2,1:0:0:0:
78,97,134370,1,14,0:0:0:0:
78,97,134514,2,0,P|122:85|151:71,1,75.0000028610231,2|2,1:0|1:0,0:0:0:0:
218,131,134801,2,0,P|251:138|300:157,1,75.0000028610231,14|2,0:0|1:0,0:0:0:0:
383,124,135089,2,0,P|409:83|397:26,2,93.3333304850261,2|2|8,1:0|1:2|0:0,0:0:0:0:
369,231,135604,2,0,L|380:282,5,46.6666652425131,10|8|10|10|10|10,0:0|0:0|0:0|0:0|0:0|0:0,0:0:0:0:
466,301,136162,6,0,B|395:284|400:326|291:343,1,160,6|0,1:0|1:0,0:0:0:0:
234,373,136609,1,0,1:0:0:0:
234,373,136759,2,0,P|194:358|155:352,1,80,8|2,0:0|0:0,0:0:0:0:
101,290,137057,1,6,1:0:0:0:
38,342,137206,2,0,P|-10:280|0:203,1,160,2|8,0:1|0:0,0:0:0:0:
74,132,137654,1,0,1:0:0:0:
74,132,137794,1,0,1:0:0:0:
74,132,137935,2,0,L|158:157,1,80,8|2,0:0|0:0,0:0:0:0:
206,225,138217,2,0,L|287:209,1,80,2|2,1:0|0:0,0:0:0:0:
364,171,138496,6,0,P|445:212|459:286,1,160,6|8,1:0|0:0,0:0:0:0:
408,345,138924,1,8,0:0:0:0:
408,345,138996,1,8,0:0:0:0:
408,345,139067,2,0,L|315:326,1,80,8|8,1:2|0:0,0:0:0:0:
243,315,139353,5,8,0:0:0:0:
243,315,139424,1,8,0:0:0:0:
243,315,139496,2,0,P|260:235|282:134,1,160,8|0,1:2|0:0,0:0:0:0:
233,76,139924,2,0,P|186:67|147:58,1,80,2|2,1:0|1:0,0:0:0:0:
85,121,140210,2,0,L|45:134,7,40,10|10|10|10|10|10|10|10,0:0|0:0|0:0|0:0|0:0|0:0|0:0|0:0,0:0:0:0:
26,127,140781,1,8,1:2:0:0:
10,332,142496,5,2,0:0:0:0:
10,332,142638,2,0,L|85:357,1,80,2|0,0:0|0:0,0:0:0:0:
170,337,143067,6,0,P|209:258|184:190,1,150.000005722046,6|2,1:0|0:0,0:0:0:0:
118,162,143493,1,0,1:0:0:0:
46,213,143635,1,10,0:0:0:0:
46,213,143777,2,0,P|34:175|22:133,1,75.0000028610231,2|0,0:1|0:0,0:0:0:0:
83,62,144062,2,0,P|136:80|245:103,1,150.000005722046,2|0,1:1|0:0,0:0:0:0:
274,169,144488,2,0,P|309:156|349:145,1,75.0000028610231,2|0,0:0|1:0,0:0:0:0:
367,58,144773,1,10,0:0:0:0:
450,92,144915,2,0,P|494:156|488:230,1,150.000005722046,2|2,0:0|0:0,0:0:0:0:
488,243,145270,5,2,0:0:0:0:
474,246,145341,2,0,P|435:252|394:277,1,75.0000028610231,2|0,1:1|0:0,0:0:0:0:
339,345,145633,2,0,P|296:335|260:325,1,75.0000028610231,2|0,0:0|1:0,0:0:0:0:
197,258,145926,2,0,P|210:182|235:87,1,150.000005722046,10|2,0:0|0:0,0:0:0:0:
171,38,146365,1,2,1:0:0:0:
171,38,146796,6,0,P|141:33|97:17,1,75.0000028610231,2|0,0:0|1:0,0:0:0:0:
30,63,147082,1,10,0:0:0:0:
71,137,147225,2,0,L|51:209,1,75.0000028610231,2|0,1:2|0:0,0:0:0:0:
105,274,147512,1,2,0:0:0:0:
53,340,147657,6,0,P|120:309|190:329,1,150.000005722046,2|2,1:0|0:0,0:0:0:0:
259,382,148085,1,0,1:0:0:0:
335,337,148228,1,10,0:0:0:0:
335,337,148371,2,0,P|345:298|352:249,1,75.0000028610231,2|0,0:1|0:0,0:0:0:0:
338,163,148642,6,0,P|265:151|208:195,1,150.000005722046,2|0,1:0|0:0,0:0:0:0:
118,193,149064,2,0,P|133:231|143:274,1,75.0000028610231,2|0,0:0|1:0,0:0:0:0:
109,344,149350,1,10,0:0:0:0:
19,320,149493,2,0,P|6:284|-1:245,1,75.0000028610231,2|8,1:2|0:3,0:0:0:0:
0,154,149779,5,8,0:3:0:0:
0,154,149850,1,8,0:3:0:0:
0,154,149921,2,0,P|73:153|132:109,1,150.000005722046,2|2,1:0|0:0,0:0:0:0:
177,24,150355,1,0,1:0:0:0:
264,52,150500,2,0,P|282:120|290:206,1,150.000005722046,10|2,0:0|0:0,0:0:0:0:
218,257,150924,1,2,1:0:0:0:
218,257,151351,6,0,P|223:296|228:346,1,75.0000028610231,2|0,0:0|1:0,0:0:0:0:
322,340,151637,1,8,0:0:0:0:
381,269,151780,2,0,P|415:278|463:289,1,75.0000028610231,0|4,1:0|0:3,0:0:0:0:
498,356,152066,1,4,0:3:0:0:
453,287,152208,6,0,B|460:214|492:212|491:135,1,150.000005722046,6|2,1:0|0:0,0:0:0:0:
430,82,152649,1,0,1:0:0:0:
358,122,152796,1,10,0:0:0:0:
358,122,152943,2,0,P|326:112|280:100,1,75.0000028610231,2|0,0:1|0:0,0:0:0:0:
217,38,153215,2,0,P|144:38|94:91,1,150.000005722046,2|0,1:0|0:0,0:0:0:0:
16,136,153638,2,0,P|26:174|33:212,1,75.0000028610231,2|0,0:0|1:0,0:0:0:0:
81,286,153924,1,10,0:0:0:0:
167,292,154067,2,0,P|214:235|207:156,1,150.000005722046,2|2,1:2|0:0,0:0:0:0:
146,98,154497,6,0,P|210:131|287:113,1,150.000005722046,2|2,1:0|0:0,0:0:0:0:
362,72,154940,1,0,1:0:0:0:
362,72,155088,2,0,P|434:56|501:96,1,150.000005722046,8|0,0:0|0:0,0:0:0:0:
447,158,155510,1,2,1:0:0:0:
447,158,155935,2,0,L|427:243,1,75.0000028610231,2|0,0:0|1:0,0:0:0:0:
440,320,156221,1,8,0:0:0:0:
440,320,156364,2,0,L|526:347,1,75.0000028610231,0|4,1:0|0:3,0:0:0:0:
357,280,156650,5,8,0:3:0:0:
357,280,156728,1,8,0:3:0:0:
357,280,156805,2,0,P|300:326|226:322,1,150.000005722046,2|2,1:0|0:0,0:0:0:0:
158,267,157241,2,0,P|149:230|138:195,1,75.0000028610231,0|10,1:0|0:0,0:0:0:0:
209,124,157523,2,0,P|246:138|298:157,1,75.0000028610231,2|2,0:0|0:0,0:0:0:0:
254,237,157796,5,6,1:0:0:0:
33,207,158074,2,0,P|22:171|10:135,1,75.0000028610231,2|2,0:0|0:0,0:0:0:0:
23,48,158360,2,0,P|60:36|96:22,1,75.0000028610231,2|8,1:0|0:0,0:0:0:0:
183,52,158646,2,0,B|259:45|244:22|330:11,1,150.000005722046,2|0,0:0|0:0,0:0:0:0:
405,50,159074,5,2,1:0:0:0:
327,12,159217,2,0,P|279:65|291:137,1,150.000005722046,2|0,1:0|1:0,0:0:0:0:
292,237,159646,2,0,P|369:212|395:135,1,150.000005722046,10|0,0:0|0:0,0:0:0:0:
291,137,160074,6,0,P|249:147|210:158,1,75.0000028610231,6|0,1:0|0:0,0:0:0:0:
176,246,160357,2,0,P|188:283|198:338,1,75.0000028610231,12|2,0:0|1:0,0:0:0:0:
282,363,160637,1,2,1:0:0:0:
282,363,160777,1,12,0:0:0:0:
370,327,160917,2,0,L|406:333,2,37.5000014305115,12|12|4,0:3|0:3|0:3,0:0:0:0:
366,207,161198,6,0,P|378:128|400:52,1,159.375006079674,6|0,1:0|0:0,0:0:0:0:
107,79,161801,1,0,1:0:0:0:
107,79,161956,2,0,L|122:5,2,69.9999978637696,10|2|2,0:0|0:0|0:0,0:0:0:0:
118,165,162368,6,0,B|196:179|179:204|271:214,2,150.000005722046,2|0|0,1:0|0:0|1:0,0:0:0:0:
46,214,163078,1,10,0:0:0:0:
46,214,163220,2,0,P|55:254|61:290,1,75.0000028610231,2|0,0:0|0:0,0:0:0:0:
143,305,163506,6,0,B|61:320|75:349|-20:377,2,150.000005722046,2|2|0,1:0|0:0|1:0,0:0:0:0:
225,349,164216,1,10,0:0:0:0:
225,349,164358,2,0,P|258:358|314:376,1,75.0000028610231,2|0,0:0|0:0,0:0:0:0:
372,324,164642,6,0,P|429:253|401:173,2,150.000005722046,2|0|2,1:0|0:0|1:0,0:0:0:0:
293,274,165353,1,10,0:0:0:0:
293,274,165495,2,0,P|301:236|317:184,1,75.0000028610231,2|0,0:0|0:0,0:0:0:0:
367,124,165780,6,0,P|413:154|509:131,1,150.000005722046,2|0,1:0|0:0,0:0:0:0:
512,56,166206,2,0,P|486:48|439:27,1,75.0000028610231,2|2,0:0|1:2,0:0:0:0:
365,0,166491,1,10,0:0:0:0:
365,0,166633,2,0,P|334:8|279:26,1,75.0000028610231,2|0,0:0|0:0,0:0:0:0:
243,96,166917,6,0,P|263:157|280:255,2,150.000005722046,2|2|0,1:0|0:0|1:3,0:0:0:0:
171,51,167628,1,10,0:0:0:0:
171,51,167770,2,0,P|143:58|93:68,1,75.0000028610231,2|0,0:0|0:0,0:0:0:0:
69,146,168055,6,0,P|58:71|37:0,2,150.000005722046,2|0|2,1:0|0:0|1:0,0:0:0:0:
130,204,168769,2,0,P|120:235|111:282,1,75.0000028610231,10|2,0:0|0:0,0:0:0:0:
34,312,169055,1,2,0:0:0:0:
111,276,169198,6,0,P|171:289|278:325,1,150.000005722046,6|0,1:0|0:0,0:0:0:0:
470,384,169769,1,0,1:0:0:0:
470,384,169912,1,10,0:0:0:0:
470,384,170055,2,0,P|484:350|495:294,1,75.0000028610231,8|12,1:3|0:3,0:0:0:0:
437,231,170340,6,0,P|357:263|340:333,2,150.000005722046,6|2|0,1:0|0:0|1:0,0:0:0:0:
512,185,171082,1,10,0:0:0:0:
472,101,171231,2,0,P|436:93|397:80,1,75.0000028610231,2|0,0:0|0:0,0:0:0:0:
316,131,171501,6,0,P|302:59|344:0,2,150.000005722046,2|2|0,1:0|0:0|1:2,0:0:0:0:
360,208,172211,1,10,0:0:0:0:
290,259,172353,2,0,P|255:265|211:279,1,75.0000028610231,2|0,0:0|0:0,0:0:0:0:
142,203,172638,6,0,B|76:192|84:170|-2:157,2,150.000005722046,2|2|0,1:0|0:0|1:0,0:0:0:0:
229,177,173349,1,10,0:0:0:0:
187,103,173491,2,0,P|177:61|172:25,1,75.0000028610231,2|0,0:0|0:0,0:0:0:0:
274,27,173775,6,0,P|346:16|402:62,1,150.000005722046,2|0,1:0|0:0,0:0:0:0:
492,111,174202,2,0,P|482:145|472:194,1,75.0000028610231,2|2,0:0|1:2,0:0:0:0:
383,192,174486,1,10,0:0:0:0:
411,276,174628,2,0,P|451:284|488:297,1,75.0000028610231,4|8,0:3|0:3,0:0:0:0:
383,192,174913,6,0,P|324:202|221:231,1,150.000005722046,6|0,1:0|0:0,0:0:0:0:
203,304,175345,2,0,P|166:314|126:327,1,75.0000028610231,2|2,0:0|1:2,0:0:0:0:
40,314,175633,1,10,0:0:0:0:
49,226,175778,2,0,P|41:182|26:137,1,75.0000028610231,2|0,0:0|0:0,0:0:0:0:
116,74,176066,6,0,P|188:78|236:134,2,150.000005722046,6|8|2,1:0|0:3|1:0,0:0:0:0:
149,164,176773,1,8,0:0:0:0:
246,0,177056,1,2,1:0:0:0:
246,0,177198,2,0,P|301:48|374:48,1,150.000005722046,6|8,1:0|0:0,0:0:0:0:
474,70,177628,2,0,L|486:18,6,37.5000014305115,10|8|8|8|8|8|8,0:0|0:0|1:2|0:0|0:0|0:0|0:0,0:0:0:0:
374,47,178202,6,0,B|386:134|409:123|423:212,1,150.000005722046,6|8,1:1|0:0,0:0:0:0:
426,199,178561,1,8,0:0:0:0:
437,203,178632,1,0,1:0:0:0:
500,272,178776,2,0,L|490:325,3,37.5000014305115,12|8|8|8,0:0|0:0|0:0|0:0,0:0:0:0:
451,339,179063,2,0,L|409:329,3,37.5000014305115,12|8|8|8,1:2|0:0|0:0|0:0,0:0:0:0:
384,360,179350,2,0,L|340:371,3,37.5000014305115,12|8|8|8,0:0|0:0|0:0|0:0,0:0:0:0:
307,372,179638,6,0,P|251:281|312:186,1,225.000008583069,6|0,1:0|0:0,0:0:0:0:
390,149,180209,2,0,P|431:87|407:18,1,150.000005722046,8|0,0:0|0:0,0:0:0:0:
328,0,180638,6,0,P|300:9|239:22,1,75.0000028610231,2|0,1:0|0:0,0:0:0:0:
231,102,180927,2,0,P|201:91|154:81,1,75.0000028610231
111,3,181221,1,0,1:0:0:0:
28,35,181368,2,0,P|15:63|4:121,1,75.0000028610231,8|2,0:0|0:0,0:0:0:0:
76,152,181662,2,0,P|90:185|100:240,1,75.0000028610231,0|8,0:0|0:3,0:0:0:0:
66,308,181923,6,0,P|118:256|191:256,1,150.000005722046,6|0,1:0|0:0,0:0:0:0:
275,307,182351,1,0,1:0:0:0:
275,307,182494,2,0,P|287:272|297:213,1,75.0000028610231,8|0,0:0|0:0,0:0:0:0:
220,178,182780,2,0,P|209:138|210:97,1,75.0000028610231,2|2,0:0|1:0,0:0:0:0:
288,72,183065,2,0,B|378:85|367:110|445:123,1,150.000005722046,2|0,0:0|0:0,0:0:0:0:
512,73,183495,2,0,P|508:32|495:-4,2,75.0000028610231,2|8|2,1:0|0:0|1:0,0:0:0:0:
429,119,183923,2,0,P|434:155|448:201,1,75.0000028610231,2|0,0:0|0:0,0:0:0:0:
512,240,184209,6,0,P|439:231|389:285,1,150.000005722046,6|0,1:0|0:0,0:0:0:0:
338,347,184638,1,0,1:0:0:0:
338,347,184781,2,0,P|277:296|279:218,1,150.000005722046,8|0,0:0|0:0,0:0:0:0:
351,187,185226,2,0,P|356:147|365:105,1,75.0000028610231,2|0,1:0|0:0,0:0:0:0:
314,37,185515,2,0,P|277:32|232:20,1,75.0000028610231,2|0,0:1|0:0,0:0:0:0:
154,37,185797,1,2,1:0:0:0:
176,122,185938,2,0,P|173:146|163:200,1,75.0000028610231,8|2,0:0|1:0,0:0:0:0:
258,213,186220,2,0,P|261:237|271:291,1,75.0000028610231,0|8,0:0|0:3,0:0:0:0:
179,324,186501,6,0,P|116:362|45:348,1,150.000005722046,6|0,1:0|0:0,0:0:0:0:
0,273,186929,1,0,1:0:0:0:
0,273,187072,2,0,B|4:207|45:206|52:121,1,150.000005722046,8|0,0:0|0:0,0:0:0:0:
84,36,187501,5,2,1:0:0:0:
84,36,187786,2,0,P|48:47|11:50,2,75.0000028610231,2|2|2,0:3|0:3|1:3,0:0:0:0:
154,114,188215,1,10,0:3:0:0:
154,114,188358,1,6,1:3:0:0:
154,114,188501,2,0,P|187:107|250:89,1,75.0000028610231,6|10,0:3|0:3,0:0:0:0:
320,24,188786,6,0,P|421:60|446:165,1,225.000008583069,6|0,1:0|1:0,0:0:0:0:
452,270,189356,2,0,P|380:256|346:192,1,150.000005722046,8|0,0:0|0:0,0:0:0:0:
261,160,189783,2,0,P|233:171|176:177,1,75.0000028610231,2|0,1:0|0:0,0:0:0:0:
126,237,190068,2,0,P|138:268|147:323,1,75.0000028610231,2|0,0:1|0:0,0:0:0:0:
79,367,190353,1,2,1:0:0:0:
9,311,190496,2,0,B|19:236|46:244|46:152,1,150.000005722046,8|0,0:0|0:0,0:0:0:0:
328,329,191067,6,0,P|397:339|480:355,1,150.000005722046,6|0,1:0|0:0,0:0:0:0:
500,258,191494,1,0,1:0:0:0:
500,258,191637,2,0,P|466:252|421:240,1,75.0000028610231,8|0,0:0|0:0,0:0:0:0:
368,180,191923,2,0,P|371:135|380:102,1,75.0000028610231,2|2,0:0|1:1,0:0:0:0:
451,55,192208,5,2,0:0:0:0:
376,15,192351,2,0,P|339:8|302:0,1,75.0000028610231,2|2,0:0|0:0,0:0:0:0:
235,56,192637,2,0,P|225:88|221:135,2,75.0000028610231,2|8|2,1:2|0:0|1:2,0:0:0:0:
147,25,193066,2,0,L|134:75,3,37.5000014305115,2|0|0|0,0:0|0:0|0:0|0:0,0:0:0:0:
126,103,193351,6,0,P|53:97|0:146,1,150.000005722046,6|0,1:0|0:0,0:0:0:0:
29,244,193780,1,0,1:0:0:0:
29,244,193923,2,0,P|101:249|155:200,1,150.000005722046,8|0,0:0|0:0,0:0:0:0:
220,129,194351,2,0,P|258:139|301:154,1,75.0000028610231,2|0,1:0|0:0,0:0:0:0:
322,230,194637,2,0,P|360:220|404:214,1,75.0000028610231,2|0,0:1|0:0,0:0:0:0:
414,128,194923,1,2,1:0:0:0:
489,168,195066,2,0,P|508:228|509:333,1,150.000005722046,8|2,0:0|0:0,0:0:0:0:
233,384,195637,6,0,P|214:310|210:232,1,150.000005722046,2|0,1:0|0:0,0:0:0:0:
281,180,196066,1,0,1:0:0:0:
281,180,196208,2,0,P|285:141|281:99,1,75.0000028610231,8|0,0:0|0:0,0:0:0:0:
222,42,196499,1,2,0:0:0:0:
144,78,196644,1,6,1:0:0:0:
144,78,196934,5,10,0:3:0:0:
57,28,197078,2,0,P|48:59|38:107,1,75.0000028610231,10|10,0:3|0:3,0:0:0:0:
100,168,197366,1,10,1:3:0:0:
36,239,197511,2,0,L|0:232,3,37.5000014305115,14|14|14|14,0:3|0:3|0:3|0:3,0:0:0:0:
0,221,197799,6,0,B|52:288|15:307|56:377,1,165.000005035401,6|0,1:0|0:0,0:0:0:0:
