osu file format v14

[General]
AudioFilename: audio.mp3
AudioLeadIn: 0
PreviewTime: 98794
Countdown: 0
SampleSet: Soft
StackLeniency: 1
Mode: 0
LetterboxInBreaks: 0
WidescreenStoryboard: 0

[Editor]
Bookmarks: 4994,17794,30594,44994,46594,59394,72194,94594,99394,101394,126994,133394,158994,162194,187794,206994
DistanceSpacing: 0.6
BeatDivisor: 4
GridSize: 4
TimelineZoom: 2.3

[Metadata]
Title:inside you
TitleUnicode:inside you
Artist:milet
ArtistUnicode:milet
Creator:Ianos
Version:wanting
Source:スキャンダル専門弁護士 QUEEN
Tags:mocaotic dogerinoo ミレイ english japanese pop eyes opening op theme scandal special lawyer senmon bengoshi
BeatmapID:2556804
BeatmapSetID:1229732

[Difficulty]
HPDrainRate:6
CircleSize:4
OverallDifficulty:8
ApproachRate:8.7
SliderMultiplier:1.6
SliderTickRate:1

[Events]
//Background and Video events
0,0,"83437815_p0.jpg",0,0
//Break Periods
2,126994,131549
//Storyboard Layer 0 (Background)
//Storyboard Layer 1 (Fail)
//Storyboard Layer 2 (Pass)
//Storyboard Layer 3 (Foreground)
//Storyboard Layer 4 (Overlay)
//Storyboard Sound Samples

[TimingPoints]
194,400,4,2,0,5,1,0
1794,-100,4,2,0,10,0,0
2594,-100,4,2,0,20,0,0
3394,-100,4,2,0,30,0,0
4194,-200,4,2,0,35,0,0
4994,-142.857142857143,4,2,1,45,0,0
5394,-142.857142857143,4,2,0,45,0,0
6194,-142.857142857143,4,2,1,45,0,0
6394,-142.857142857143,4,2,0,45,0,0
6594,-142.857142857143,4,2,0,45,0,0
7394,-142.857142857143,4,2,1,45,0,0
7594,-142.857142857143,4,2,0,45,0,0
8194,-142.857142857143,4,2,1,45,0,0
8594,-142.857142857143,4,2,0,45,0,0
9394,-142.857142857143,4,2,1,45,0,0
9594,-142.857142857143,4,2,0,45,0,0
9794,-142.857142857143,4,2,0,45,0,0
11394,-142.857142857143,4,2,1,50,0,0
11694,-142.857142857143,4,2,0,50,0,0
12594,-200,4,2,1,55,0,0
13994,-142.857142857143,4,2,0,50,0,0
14594,-142.857142857143,4,2,1,50,0,0
14894,-142.857142857143,4,2,0,50,0,0
15794,-142.857142857143,4,2,1,55,0,0
17794,-125,4,2,1,60,0,0
17994,-125,4,2,2,60,0,0
18994,-125,4,2,1,60,0,0
19394,-125,4,2,1,55,0,0
20394,-125,4,2,2,55,0,0
20994,-125,4,2,1,60,0,0
21194,-125,4,2,2,60,0,0
22194,-125,4,2,1,60,0,0
22594,-125,4,2,1,55,0,0
23594,-125,4,2,2,55,0,0
24194,-125,4,2,1,60,0,0
24494,-125,4,2,2,60,0,0
25394,-166.666666666667,4,2,1,65,0,0
26794,-125,4,2,2,55,0,0
27394,-125,4,2,1,60,0,0
27694,-125,4,2,2,60,0,0
28594,-125,4,2,1,70,0,0
28994,-125,4,2,1,60,0,0
29194,-125,4,2,2,60,0,0
30594,-125,4,2,3,65,0,0
41794,-125,4,2,3,60,0,0
43394,-142.857142857143,4,2,3,45,0,0
44994,-200,4,2,7,45,0,0
46594,-166.666666666667,4,2,8,60,0,0
59394,-125,4,2,2,60,0,0
61594,-125,4,2,0,60,0,0
62594,-125,4,2,2,60,0,0
64994,-125,4,2,0,60,0,0
65794,-125,4,2,2,60,0,0
67994,-125,4,2,0,60,0,0
68994,-125,4,2,2,60,0,0
71394,-100,4,2,4,65,0,0
72194,-100,4,2,4,70,0,0
84194,-100,4,2,4,65,0,0
84994,-100,4,2,4,70,0,0
94594,-100,4,2,4,80,0,0
96594,400,4,2,4,80,1,0
96594,-100,4,2,4,80,0,0
99794,-200,4,2,7,50,0,0
101394,-90.9090909090909,4,2,4,90,0,1
113594,-90.9090909090909,4,2,2,90,0,1
114194,-90.9090909090909,4,2,4,90,0,1
126994,-90.9090909090909,4,2,4,90,0,0
132194,-142.857142857143,4,2,5,50,0,0
146194,-125,4,2,2,60,0,0
149194,-125,4,2,0,60,0,0
149394,-125,4,2,2,60,0,0
149594,-125,4,2,0,60,0,0
149994,-125,4,2,2,60,0,0
150994,-125,4,2,0,60,0,0
151194,-125,4,2,2,60,0,0
152194,-125,4,2,0,60,0,0
152594,-125,4,2,2,60,0,0
155994,-125,4,2,0,60,0,0
156194,-125,4,2,2,60,0,0
157394,-111.111111111111,4,2,6,50,0,0
157594,-111.111111111111,4,2,2,50,0,0
157844,-111.111111111111,4,2,6,50,0,0
158194,-111.111111111111,4,2,2,50,0,0
158294,-111.111111111111,4,2,6,50,0,0
158994,-200,4,2,7,55,0,0
162194,-83.3333333333333,4,2,4,95,0,1
174394,-83.3333333333333,4,2,2,95,0,1
174994,-83.3333333333333,4,2,4,95,0,1
187194,-83.3333333333333,4,2,2,95,0,1
187794,-83.3333333333333,4,2,4,100,0,1
192594,-71.4285714285714,4,2,4,100,0,1
193394,-83.3333333333333,4,2,4,100,0,1
199994,-83.3333333333333,4,2,2,100,0,1
200594,-83.3333333333333,4,2,4,100,0,1
206194,-83.3333333333333,4,2,4,90,0,1
206994,-142.857142857143,4,2,0,60,0,0
207594,-142.857142857143,4,2,1,60,0,0
207794,-142.857142857143,4,2,0,40,0,0
208594,-142.857142857143,4,2,1,40,0,0
208994,-142.857142857143,4,2,0,40,0,0
209194,-142.857142857143,4,2,1,40,0,0
209394,-142.857142857143,4,2,0,40,0,0
210194,-333.333333333334,4,2,1,40,0,0
212194,-333.333333333334,4,2,0,30,0,0
212994,-333.333333333334,4,2,0,20,0,0
213794,-333.333333333334,4,2,0,10,0,0
214594,-333.333333333334,4,2,0,5,0,0

[Colours]
Combo1 : 128,255,255
Combo2 : 128,128,255
Combo3 : 255,140,140
Combo4 : 255,183,111
Combo5 : 255,255,128
Combo6 : 128,255,128

[HitObjects]
256,192,1394,12,0,3994,0:0:0:0:
464,275,4194,6,0,P|457:324|454:358,1,80,2|2,0:0|0:0,0:0:0:0:
288,332,4994,5,2,0:0:0:0:
288,332,5394,2,0,B|219:311|217:363|143:342,1,139.999995727539,2|0,0:0|0:0,0:0:0:0:
151,344,5994,1,2,0:0:0:0:
103,261,6194,2,0,P|130:263|158:264,1,55.9999982910157,2|0,0:0|0:0,0:0:0:0:
39,212,6594,5,2,0:0:0:0:
29,290,6794,1,0,0:0:0:0:
113,183,6994,2,0,P|116:127|121:71,1,111.999996582031,2|2,0:0|0:0,0:0:0:0:
241,86,7594,2,0,P|240:114|237:142,1,55.9999982910157,2|0,0:0|0:0,0:0:0:0:
229,219,7994,1,2,0:0:0:0:
289,20,8194,5,2,0:0:0:0:
289,20,8594,2,0,P|358:13|417:71,1,139.999995727539,2|0,0:0|0:0,0:0:0:0:
410,55,9194,2,0,P|402:105|400:129,1,55.9999982910157,2|2,0:0|0:0,0:0:0:0:
393,188,9594,1,0,0:0:0:0:
466,252,9794,6,0,P|469:217|473:172,1,55.9999982910157,2|0,0:0|0:0,0:0:0:0:
320,90,10194,2,0,P|314:187|308:239,1,139.999995727539,2|0,0:0|0:0,0:0:0:0:
309,230,10794,1,2,0:0:0:0:
397,300,10994,2,0,P|347:307|319:310,1,55.9999982910157,0|2,0:0|0:0,0:0:0:0:
199,352,11394,6,0,P|240:356|282:361,2,83.9999974365235,2|0|2,0:0|0:0|0:0,0:0:0:0:
123,344,12194,1,2,0:0:0:0:
2,197,12594,6,0,B|139:171|91:277|231:252,1,240,2|2,0:0|0:0,0:0:0:0:
185,171,13994,2,0,P|191:119|194:99,2,55.9999982910157,2|0|2,0:0|0:0|0:0,0:0:0:0:
312,282,14594,6,0,P|318:344|320:373,2,83.9999974365235,2|0|2,0:0|0:0|0:0,0:0:0:0:
307,202,15394,1,2,0:0:0:0:
49,275,15794,5,2,0:0:0:0:
256,192,15894,12,0,17594,0:0:0:0:
367,127,17794,6,0,P|419:119|451:117,1,64,2|0,3:2|3:0,0:0:0:0:
478,28,18194,2,0,P|412:36|346:47,1,128,10|0,0:0|3:0,0:0:0:0:
272,60,18794,1,2,0:0:0:0:
181,135,18994,2,0,P|191:186|196:218,1,64,2|0,0:0|0:0,0:0:0:0:
340,279,19394,5,0,0:0:0:0:
286,336,19594,1,0,3:0:0:0:
264,262,19794,2,0,P|279:173|289:110,1,128,0|10,3:0|0:2,0:0:0:0:
189,54,20394,2,0,P|137:49|104:46,1,64,2|0,0:0|0:0,0:0:0:0:
49,41,20794,1,2,0:0:0:0:
130,209,20994,6,0,P|179:199|216:194,1,64,2|0,3:2|3:0,0:0:0:0:
212,323,21394,2,0,P|285:302|352:313,1,128,10|0,0:0|3:0,0:0:0:0:
417,217,21994,2,0,P|411:267|408:305,1,64,2|2,0:0|0:0,0:0:0:0:
406,355,22394,1,0,0:0:0:0:
333,224,22594,6,0,P|336:192|340:160,1,64,0|0,0:0|3:0,0:0:0:0:
511,93,22994,2,0,B|449:113|449:113|381:92,1,128,0|8,3:0|0:0,0:0:0:0:
146,82,23594,5,2,0:0:0:0:
192,147,23794,1,0,0:0:0:0:
269,137,23994,1,2,0:0:0:0:
223,74,24194,6,0,P|210:151|208:186,2,96,2|0|0,3:2|0:0|3:0,0:0:0:0:
234,0,24994,1,0,3:0:0:0:
212,251,25394,6,8,B|329:243|267:153|384:149|384:149|337:159|317:197,1,287.999991210938,10|10,0:0|0:0,0:0:0:0:
506,60,26794,5,2,0:0:0:0:
498,138,26994,1,0,0:0:0:0:
490,216,27194,1,2,0:0:0:0:
435,286,27394,6,0,P|376:275|337:272,2,96,2|0|0,3:2|0:0|3:0,0:0:0:0:
511,300,28194,1,0,3:0:0:0:
322,188,28594,5,2,0:0:0:0:
18,221,28994,5,2,0:0:0:0:
84,263,29194,2,0,P|130:255|158:252,1,64,0|0,3:0|3:0,0:0:0:0:
243,26,29794,2,0,P|223:71|213:129,1,96,10|0,0:0|0:0,0:0:0:0:
213,116,30194,2,0,P|221:173|225:204,1,64,2|0,0:0|0:0,0:0:0:0:
257,382,30594,5,2,3:2:0:0:
355,335,30794,1,2,3:2:0:0:
355,335,30894,1,0,3:0:0:0:
355,335,30994,1,2,3:2:0:0:
429,356,31194,1,2,0:0:0:0:
498,233,31394,2,0,P|397:251|348:260,1,128,8|2,0:0|0:0,0:0:0:0:
295,272,31994,1,2,0:0:0:0:
149,181,32194,5,2,3:2:0:0:
95,237,32394,2,0,P|100:282|104:320,1,64,2|2,3:2|3:2,0:0:0:0:
0,128,32794,1,2,3:2:0:0:
0,128,32894,1,0,3:0:0:0:
0,128,32994,2,0,P|62:116|125:105,1,128,8|2,0:0|0:0,0:0:0:0:
354,139,33794,5,2,3:2:0:0:
315,0,33994,1,2,3:2:0:0:
315,0,34094,1,0,3:0:0:0:
315,0,34194,1,2,3:2:0:0:
301,77,34394,1,2,0:0:0:0:
434,160,34594,2,0,P|442:251|446:281,1,96,8|0,0:0|0:0,0:0:0:0:
442,255,34994,2,0,P|434:309|431:342,1,64,2|2,0:0|0:0,0:0:0:0:
277,156,35394,6,0,P|228:166|156:184,1,96,2|0,3:2|0:0,0:0:0:0:
183,176,35794,1,0,3:0:0:0:
359,224,35994,1,0,3:0:0:0:
359,224,36094,1,0,3:0:0:0:
359,224,36194,2,0,P|297:236|206:259,1,128,10|0,0:0|0:0,0:0:0:0:
31,343,36994,5,2,3:2:0:0:
89,289,37194,1,2,3:2:0:0:
89,289,37294,1,0,3:0:0:0:
89,289,37394,2,0,P|96:233|101:204,1,64,2|2,3:2|0:0,0:0:0:0:
44,65,37794,2,0,P|31:145|21:217,1,128,8|2,0:0|0:0,0:0:0:0:
10,267,38394,1,2,0:0:0:0:
178,205,38594,5,2,3:2:0:0:
192,127,38794,1,2,3:2:0:0:
115,113,38994,1,2,3:2:0:0:
246,49,39194,1,2,3:2:0:0:
246,49,39294,1,0,3:0:0:0:
246,49,39394,2,0,P|321:33|375:22,1,128,8|2,0:0|0:0,0:0:0:0:
447,1,39994,1,2,0:0:0:0:
351,108,40194,6,0,P|347:145|343:188,1,64,2|0,3:2|3:0,0:0:0:0:
263,190,40594,2,0,P|266:158|269:126,1,64,0|0,3:0|0:0,0:0:0:0:
429,82,40994,2,0,P|442:159|450:212,1,128,10|0,0:0|0:0,0:0:0:0:
462,283,41594,1,0,3:0:0:0:
321,371,41994,5,0,3:0:0:0:
321,371,42194,2,0,P|269:364|245:362,1,64,0|0,3:0|0:0,0:0:0:0:
220,285,42594,2,0,P|154:254|81:238,1,128,8|0,0:0|0:0,0:0:0:0:
296,228,43394,5,0,3:0:0:0:
296,228,43594,2,0,P|302:279|304:304,2,55.9999982910157,0|0|0,3:0|3:0|3:0,0:0:0:0:
170,178,44194,2,0,B|145:122|145:122|169:58,1,111.999996582031,8|0,0:0|3:0,0:0:0:0:
207,10,44794,1,0,3:0:0:0:
278,45,44994,6,0,P|315:38|373:32,3,80,2|2|2|2,0:0|0:0|0:0|0:0,0:0:0:0:
485,179,46594,5,2,3:2:0:0:
485,179,46994,2,0,P|478:268|477:292,1,95.9999970703126
405,169,47794,2,0,P|408:121|413:73,1,95.9999970703126,0|2,0:0|3:2,0:0:0:0:
276,251,48594,6,0,B|316:180|316:180|255:104,1,167.999994873047
261,112,49394,2,0,P|188:126|157:132,1,95.9999970703126,0|2,0:0|3:2,0:0:0:0:
112,361,50594,6,0,P|63:354|5:348,1,95.9999970703126
29,265,51394,2,0,P|76:270|124:276,2,95.9999970703126,2|0|2,0:0|0:0|0:0,0:0:0:0:
192,380,52594,2,0,P|199:331|205:273,1,95.9999970703126,0|2,0:0|3:2,0:0:0:0:
65,186,53394,6,0,P|57:108|54:70,1,95.9999970703126
101,17,54194,2,0,P|179:9|217:6,1,95.9999970703126,0|2,0:0|3:2,0:0:0:0:
337,127,54994,6,0,B|426:114|398:189|503:171,1,167.999994873047
491,172,55794,2,0,P|497:212|501:239,2,47.9999985351563,0|0|2,0:0|0:0|3:2,0:0:0:0:
276,13,56994,5,0,0:0:0:0:
266,92,57394,1,0,0:0:0:0:
148,174,57794,5,2,3:2:0:0:
138,95,58194,1,0,0:0:0:0:
228,165,58594,2,0,P|218:239|213:276,1,95.9999970703126,2|0,0:0|0:0,0:0:0:0:
39,340,59394,6,0,P|120:330|154:326,1,96,2|0,3:2|0:0,0:0:0:0:
134,328,59794,2,0,P|183:335|215:341,1,64,0|0,3:0|3:0,0:0:0:0:
271,352,60194,1,2,1:2:0:0:
386,196,60594,2,0,P|435:203|467:209,1,64
409,59,60994,5,2,3:2:0:0:
337,81,61194,1,0,3:0:0:0:
337,81,61394,1,0,3:0:0:0:
194,22,61594,1,0,3:0:0:0:
194,22,61694,1,0,3:0:0:0:
194,22,61794,2,0,P|187:68|184:99,1,64,10|0,0:0|0:0,0:0:0:0:
92,124,62194,1,0,0:0:0:0:
106,47,62394,1,0,0:0:0:0:
265,114,62594,6,0,P|271:161|278:219,1,96,2|0,3:2|0:0,0:0:0:0:
276,209,62994,2,0,P|272:252|270:272,1,64,0|0,3:0|3:0,0:0:0:0:
414,373,63394,2,0,P|473:339|492:267,1,128,10|0,1:2|0:0,0:0:0:0:
189,180,64194,5,2,3:2:0:0:
111,172,64394,1,0,3:0:0:0:
111,172,64594,2,0,P|99:90|95:50,1,96,0|0,3:0|0:0,0:0:0:0:
97,76,64994,1,10,0:0:0:0:
33,187,65194,2,0,P|40:233|45:263,1,64
55,325,65594,1,0,0:0:0:0:
196,307,65794,6,0,P|280:314|344:321,2,128,2|0|10,3:2|3:0|1:2,0:0:0:0:
270,233,66794,2,0,P|276:176|280:139,1,64
276,169,67094,1,0,0:0:0:0:
389,20,67394,5,2,3:2:0:0:
376,99,67594,1,0,3:0:0:0:
376,99,67794,1,0,3:0:0:0:
211,78,67994,1,0,3:0:0:0:
211,78,68094,1,0,3:0:0:0:
211,78,68194,1,10,0:0:0:0:
147,128,68394,2,0,P|140:173|137:199,1,64
137,191,68727,1,0,0:0:0:0:
359,180,68994,6,0,B|426:171|411:220|491:211,2,128,2|0|2,3:2|3:0|1:2,0:0:0:0:
193,242,70194,2,0,P|113:254|50:266,1,128,0|2,0:0|3:2,0:0:0:0:
101,109,70794,5,0,3:0:0:0:
101,109,70994,2,0,P|113:163|119:197,1,64,0|0,3:0|0:0,0:0:0:0:
272,31,71394,5,8,0:0:0:0:
248,174,71594,1,0,1:0:0:0:
163,0,71794,5,0,1:0:0:0:
183,115,71994,1,0,1:0:0:0:
349,50,72194,6,0,P|405:40|480:30,1,120,4|0,1:2|0:0,0:0:0:0:
467,31,72594,1,2,0:0:0:0:
488,110,72794,1,2,0:0:0:0:
392,234,72994,1,8,3:2:0:0:
396,253,73094,1,0,3:0:0:0:
400,272,73194,1,2,3:2:0:0:
238,297,73394,1,2,3:2:0:0:
242,278,73494,1,0,3:0:0:0:
245,259,73594,1,0,3:0:0:0:
455,346,73794,6,0,P|394:359|355:367,1,80,2|0,1:2|3:0,0:0:0:0:
358,370,74094,1,0,3:0:0:0:
338,375,74194,2,0,P|327:315|319:278,1,80,2|0,3:2|0:0,0:0:0:0:
169,190,74594,2,0,P|161:229|154:268,1,80,10|0,0:0|0:0,0:0:0:0:
19,154,74994,1,2,0:0:0:0:
94,171,75194,1,0,0:0:0:0:
0,279,75394,5,0,1:0:0:0:
127,348,75594,1,0,3:0:0:0:
145,354,75694,1,0,3:0:0:0:
163,362,75794,2,0,P|202:354|242:350,1,80,2|2,3:2|0:0,0:0:0:0:
328,211,76194,1,8,0:0:0:0:
251,196,76394,1,2,0:0:0:0:
314,94,76594,1,2,3:2:0:0:
309,114,76694,1,0,3:0:0:0:
304,134,76794,1,0,3:0:0:0:
121,10,76994,6,0,P|131:72|135:104,1,80,2|0,1:2|3:0,0:0:0:0:
137,108,77294,1,0,3:0:0:0:
141,127,77394,2,0,P|203:117|235:113,1,80,2|0,3:2|0:0,0:0:0:0:
368,22,77794,2,0,P|306:12|274:8,1,80,10|0,0:0|0:0,0:0:0:0:
465,114,78194,1,2,0:0:0:0:
389,99,78394,1,0,0:0:0:0:
251,196,78594,6,0,P|267:275|272:322,2,120,0|0|0,1:0|0:0|0:0,0:0:0:0:
51,204,79394,2,0,P|57:141|61:103,1,80,10|2,0:0|0:0,0:0:0:0:
131,212,79794,1,2,3:2:0:0:
150,213,79894,1,0,3:0:0:0:
169,214,79994,1,2,3:2:0:0:
135,81,80194,5,2,1:2:0:0:
286,0,80394,1,0,3:0:0:0:
288,19,80494,1,0,3:0:0:0:
290,38,80594,2,0,P|281:91|276:125,1,80,2|0,3:2|0:0,0:0:0:0:
193,290,80994,2,0,B|245:323|245:323|310:301,1,120,10|0,0:0|0:0,0:0:0:0:
300,304,81394,2,0,P|366:311|410:323,1,80,2|0,0:0|0:0,0:0:0:0:
424,162,81794,6,0,P|348:150|321:145,1,80,0|2,1:0|0:0,0:0:0:0:
277,116,82094,1,2,0:0:0:0:
277,116,82194,2,0,P|201:128|174:133,1,80,2|2,0:0|0:0,0:0:0:0:
300,304,82594,1,10,0:0:0:0:
315,227,82794,1,2,0:0:0:0:
125,203,82994,1,2,3:2:0:0:
122,223,83094,1,0,3:0:0:0:
120,243,83194,1,2,3:2:0:0:
92,17,83394,6,0,P|168:48|181:96,1,120,2|0,1:2|0:0,0:0:0:0:
180,78,83794,2,0,P|231:71|273:67,1,80,2|0,0:2|0:0,0:0:0:0:
120,243,84194,5,10,0:0:0:0:
96,96,84394,1,8,0:0:0:0:
233,146,84594,5,2,1:2:0:0:
156,158,84794,1,0,1:0:0:0:
329,218,84994,6,0,P|269:227|208:238,1,120,4|0,1:2|0:0,0:0:0:0:
210,237,85394,2,0,P|220:291|228:332,1,80,2|2,0:0|0:0,0:0:0:0:
316,130,85794,2,0,P|396:164|403:247,1,160,10|2,0:0|0:0,0:0:0:0:
398,306,86394,1,2,0:0:0:0:
512,168,86594,5,0,1:0:0:0:
435,156,86794,1,0,1:0:0:0:
364,40,86994,2,0,P|424:47|463:52,1,80,2|2,1:2|0:0,0:0:0:0:
247,33,87394,1,10,0:0:0:0:
247,33,87594,2,0,P|236:92|230:135,1,80,0|2,0:0|0:0,0:0:0:0:
223,189,87994,1,2,0:0:0:0:
124,75,88194,6,0,P|137:167|141:204,1,120,0|0,1:0|0:0,0:0:0:0:
140,193,88594,2,0,P|74:203|28:210,1,80,2|2,0:0|0:0,0:0:0:0:
210,342,88994,2,0,P|289:354|368:366,1,160,10|2,0:0|0:0,0:0:0:0:
445,379,89594,1,2,0:0:0:0:
395,209,89794,5,0,1:0:0:0:
385,287,89994,1,0,1:0:0:0:
493,187,90194,2,0,P|487:124|482:77,1,80,2|2,1:2|0:0,0:0:0:0:
311,201,90594,2,0,P|306:240|303:280,1,80,10|0,0:0|0:0,0:0:0:0:
199,150,90994,2,0,P|193:87|188:40,1,80,2|2,0:0|0:0,0:0:0:0:
45,138,91394,5,0,1:0:0:0:
120,126,91594,1,0,1:0:0:0:
227,227,91794,2,0,P|216:312|211:378,1,120,2|0,0:0|0:0,0:0:0:0:
213,346,92194,2,0,P|173:340|133:335,1,80,10|0,0:0|0:0,0:0:0:0:
300,279,92594,1,2,0:0:0:0:
291,357,92794,1,2,0:0:0:0:
377,187,92994,6,0,P|319:194|268:203,1,80,0|0,1:0|1:0,0:0:0:0:
428,247,93394,2,0,P|486:254|537:263,1,80,2|2,1:2|0:0,0:0:0:0:
363,108,93794,2,0,P|305:115|254:124,1,80,10|0,0:0|0:0,0:0:0:0:
89,8,94194,5,2,1:2:0:0:
165,27,94394,1,2,1:2:0:0:
40,167,94594,6,0,P|50:263|54:334,1,160,4|0,1:2|0:0,0:0:0:0:
202,101,95194,6,0,P|186:196|172:265,1,160,4|0,1:2|0:0,0:0:0:0:
375,79,95794,6,0,P|343:149|329:180,1,80,4|0,1:2|0:0,0:0:0:0:
381,319,96194,5,8,0:0:0:0:
425,163,96394,1,8,0:0:0:0:
280,17,96594,6,0,P|200:22|120:30,1,160,4|0,1:2|0:0,0:0:0:0:
324,187,97194,6,0,P|403:192|483:200,1,160,4|0,1:2|0:0,0:0:0:0:
312,265,97794,5,8,0:0:0:0:
350,104,97994,1,8,0:0:0:0:
391,376,98194,6,0,P|396:296|404:216,1,160,4|0,1:2|0:0,0:0:0:0:
181,106,98794,6,0,P|186:185|194:265,1,160,4|0,1:2|0:0,0:0:0:0:
205,372,99394,5,10,0:0:0:0:
105,361,99794,6,0,P|110:317|115:274,3,80,2|2|2|2,0:0|0:0|0:0|0:0,0:0:0:0:
37,54,101394,6,0,P|104:44|149:40,1,88.000002685547,6|0,1:2|0:0,0:0:0:0:
204,30,101794,1,2,0:0:0:0:
373,97,101994,1,2,3:2:0:0:
370,118,102094,1,0,3:0:0:0:
367,139,102194,2,0,P|361:216|358:279,1,132.00000402832,8|0,3:2|0:0,0:0:0:0:
358,270,102594,1,2,1:2:0:0:
479,200,102794,1,0,1:0:0:0:
350,358,102994,6,0,P|285:353|237:347,1,88.000002685547,2|0,1:2|0:0,0:0:0:0:
108,170,103394,2,0,B|214:161|171:222|276:217,2,176.000005371094,2|8|2,0:0|0:0|1:2,0:0:0:0:
34,191,104394,1,0,1:0:0:0:
188,363,104594,5,2,1:2:0:0:
195,285,104794,1,0,0:0:0:0:
263,134,104994,1,2,3:2:0:0:
285,137,105094,1,0,3:0:0:0:
307,139,105194,1,2,3:2:0:0:
329,141,105294,1,0,3:0:0:0:
351,143,105394,2,0,P|345:74|340:36,1,88.000002685547,8|0,3:2|0:0,0:0:0:0:
483,233,105794,2,0,P|478:276|474:320,1,88.000002685547,2|0,1:2|1:0,0:0:0:0:
320,219,106194,5,2,1:2:0:0:
399,226,106394,1,0,0:0:0:0:
286,379,106594,2,0,P|280:310|275:272,1,88.000002685547,2|2,0:0|0:0,0:0:0:0:
51,312,106994,2,0,P|120:305|158:301,1,88.000002685547,8|0,0:0|0:0,0:0:0:0:
295,147,107394,2,0,P|208:160|139:168,1,132.00000402832,2|0,1:2|0:0,0:0:0:0:
164,166,107794,6,0,P|156:111|154:72,1,88.000002685547,6|0,1:2|0:0,0:0:0:0:
151,0,108194,1,2,0:0:0:0:
7,149,108394,1,2,3:2:0:0:
9,170,108494,1,0,3:0:0:0:
11,191,108594,2,0,P|2:294|0:346,1,132.00000402832,8|0,3:2|0:0,0:0:0:0:
0,322,108994,1,2,1:2:0:0:
141,336,109194,1,0,1:0:0:0:
87,163,109394,6,0,P|131:166|175:170,1,88.000002685547,2|0,1:2|0:0,0:0:0:0:
368,16,109794,1,2,0:0:0:0:
272,133,109994,1,2,3:2:0:0:
275,154,110094,1,0,3:0:0:0:
278,175,110194,2,0,P|288:240|295:289,1,88.000002685547,8|0,3:2|0:0,0:0:0:0:
426,90,110594,1,2,1:2:0:0:
348,103,110794,1,0,1:0:0:0:
210,257,110994,6,0,B|145:282|145:282|86:241,1,132.00000402832,2|0,1:2|0:0,0:0:0:0:
94,247,111394,2,0,P|102:305|106:346,1,88.000002685547,2|2,0:0|0:0,0:0:0:0:
307,340,111794,2,0,P|374:345|408:349,1,88.000002685547,8|0,0:0|0:0,0:0:0:0:
272,133,112194,2,0,P|205:138|171:142,1,88.000002685547,2|0,1:2|1:0,0:0:0:0:
425,53,112594,6,0,P|432:113|439:194,1,132.00000402832,2|0,1:2|0:0,0:0:0:0:
438,184,112994,1,2,0:0:0:0:
342,68,113194,1,10,0:0:0:0:
340,46,113294,1,8,0:0:0:0:
337,24,113394,1,8,0:0:0:0:
131,80,113594,5,0,1:0:0:0:
207,95,113794,5,2,1:2:0:0:
182,22,113994,5,0,1:0:0:0:
79,167,114194,6,0,P|65:261|63:289,1,88.000002685547,6|0,1:2|0:0,0:0:0:0:
61,330,114594,1,2,0:0:0:0:
3,140,114794,1,2,3:2:0:0:
1,118,114894,1,0,3:0:0:0:
0,96,114994,2,0,P|102:83|151:77,1,132.00000402832,8|0,3:2|0:0,0:0:0:0:
130,79,115394,1,2,1:2:0:0:
162,219,115594,1,0,1:0:0:0:
209,15,115794,6,0,P|220:77|228:117,1,88.000002685547,2|0,1:2|0:0,0:0:0:0:
361,265,116194,2,0,P|348:200|337:135,1,132.00000402832,2|0,0:0|0:0,0:0:0:0:
337,135,116594,1,8,0:0:0:0:
418,124,116794,1,0,0:0:0:0:
448,250,116994,1,2,1:2:0:0:
448,250,117194,1,0,1:0:0:0:
280,280,117394,6,0,P|214:289|160:301,1,88.000002685547,2|0,1:2|0:0,0:0:0:0:
0,216,117794,1,2,3:2:0:0:
21,219,117894,1,0,3:0:0:0:
42,222,117994,1,2,3:2:0:0:
63,225,118094,1,0,3:0:0:0:
84,228,118194,2,0,P|91:295|95:330,1,88.000002685547,8|0,3:2|0:0,0:0:0:0:
231,206,118594,2,0,P|235:162|240:118,1,88.000002685547,2|0,1:2|1:0,0:0:0:0:
410,244,118994,6,0,P|422:321|426:351,1,88.000002685547,2|8,1:2|0:0,0:0:0:0:
318,289,119394,1,2,3:2:0:0:
322,267,119494,1,0,3:0:0:0:
326,245,119594,1,2,3:2:0:0:
330,223,119694,1,0,3:0:0:0:
334,201,119794,1,8,3:2:0:0:
494,93,119994,2,0,P|424:103|377:111,1,88.000002685547,0|2,1:0|1:2,0:0:0:0:
332,115,120394,1,0,1:0:0:0:
157,165,120594,6,0,B|51:152|112:103|-3:91,1,176.000005371094,6|2,1:2|1:2,0:0:0:0:
169,6,121194,1,2,3:2:0:0:
190,3,121294,1,0,3:0:0:0:
211,0,121394,2,0,P|224:80|231:132,2,132.00000402832,8|0|0,3:2|0:0|0:0,0:0:0:0:
157,165,122194,5,2,1:2:0:0:
147,87,122394,1,0,1:0:0:0:
302,64,122594,2,0,P|313:124|318:158,1,88.000002685547,2|2,1:2|0:0,0:0:0:0:
136,259,122994,2,0,P|186:249|225:243,1,88.000002685547,8|0,0:0|0:0,0:0:0:0:
222,243,123294,2,0,P|238:323|247:386,1,132.00000402832,0|0,0:0|1:0,0:0:0:0:
439,131,123794,5,2,1:2:0:0:
386,187,123994,2,0,P|378:256|375:290,1,88.000002685547,0|2,1:0|1:2,0:0:0:0:
368,348,124394,1,2,0:0:0:0:
316,150,124594,2,0,P|236:142|157:132,1,132.00000402832,8|0,0:0|0:0,0:0:0:0:
184,135,124994,1,2,1:2:0:0:
198,61,125194,1,0,1:0:0:0:
87,236,125394,6,0,P|149:226|197:219,1,88.000002685547,2|0,1:2|1:0,0:0:0:0:
235,344,125794,2,0,P|297:354|345:361,1,88.000002685547,2|10,1:2|0:0,0:0:0:0:
321,358,126094,5,8,0:0:0:0:
321,358,126194,1,8,0:0:0:0:
368,158,126394,1,8,0:0:0:0:
169,111,126594,1,10,0:0:0:0:
121,310,126794,1,8,0:0:0:0:
65,334,132194,5,0,3:0:0:0:
78,333,132294,1,0,3:0:0:0:
91,332,132394,1,0,3:0:0:0:
104,331,132494,1,0,3:0:0:0:
117,330,132594,2,0,B|168:353|168:353|226:323,1,111.999996582031,8|0,3:2|0:0,0:0:0:0:
46,255,133194,5,0,3:0:0:0:
59,254,133294,1,0,3:0:0:0:
72,253,133394,2,0,P|67:209|63:178,1,55.9999982910157,2|0,3:2|0:0,0:0:0:0:
5,107,133794,2,0,P|101:94|139:89,1,111.999996582031,2|8,3:2|0:0,0:0:0:0:
188,137,134394,1,0,1:0:0:0:
188,137,134594,2,0,P|234:141|268:146,1,55.9999982910157,0|0,1:0|3:0,0:0:0:0:
323,30,134994,6,0,P|391:40|422:84,1,111.999996582031,2|2,1:2|0:0,0:0:0:0:
376,140,135594,1,0,1:0:0:0:
376,140,135794,2,0,P|368:221|364:274,1,111.999996582031,8|0,0:0|3:0,0:0:0:0:
354,370,136394,5,0,1:0:0:0:
354,370,136494,1,0,1:0:0:0:
354,370,136594,1,2,1:2:0:0:
278,330,136794,1,0,3:0:0:0:
264,333,136894,1,0,3:0:0:0:
250,336,136994,1,2,3:2:0:0:
110,238,137194,1,0,1:0:0:0:
98,316,137394,1,8,0:0:0:0:
189,246,137594,1,0,1:0:0:0:
189,246,137694,1,0,1:0:0:0:
189,246,137794,2,0,P|237:253|267:256,1,55.9999982910157,0|0,1:0|3:0,0:0:0:0:
119,156,138194,5,2,3:2:0:0:
133,158,138294,1,0,3:0:0:0:
147,160,138394,1,0,3:0:0:0:
224,169,138594,1,2,3:2:0:0:
156,26,138794,1,0,1:0:0:0:
156,26,138994,2,0,P|149:76|144:106,1,55.9999982910157,8|0,0:0|0:0,0:0:0:0:
290,122,139394,1,0,3:0:0:0:
303,120,139494,1,0,3:0:0:0:
316,118,139594,1,0,3:0:0:0:
329,116,139694,1,0,3:0:0:0:
342,114,139794,6,0,P|392:105|415:101,1,55.9999982910157,2|0,1:2|3:0,0:0:0:0:
476,170,140194,2,0,P|448:174|420:179,1,55.9999982910157,2|0,3:2|1:0,0:0:0:0:
322,260,140594,1,8,0:0:0:0:
386,319,140794,1,0,1:0:0:0:
386,319,140894,1,0,1:0:0:0:
386,319,140994,2,0,P|382:370|379:399,1,55.9999982910157,0|0,1:0|3:0,0:0:0:0:
261,211,141394,6,0,P|180:221|155:225,1,83.9999974365235,2|0,1:2|0:0,0:0:0:0:
177,221,141794,2,0,P|169:170|164:141,1,55.9999982910157,2|0,3:2|1:0,0:0:0:0:
32,228,142194,1,8,0:0:0:0:
91,179,142394,1,0,0:0:0:0:
105,255,142594,1,0,3:0:0:0:
78,99,142794,5,0,1:0:0:0:
78,99,142894,1,0,1:0:0:0:
78,99,142994,1,2,1:2:0:0:
145,51,143194,1,0,3:0:0:0:
158,54,143294,1,0,3:0:0:0:
171,57,143394,2,0,P|247:51|275:49,1,83.9999974365235,2|0,3:2|0:0,0:0:0:0:
254,50,143794,1,8,0:0:0:0:
336,45,143994,1,0,0:0:0:0:
310,178,144194,2,0,P|307:150|305:122,1,55.9999982910157,0|0,3:0|3:0,0:0:0:0:
230,189,144594,5,2,3:2:0:0:
230,203,144694,1,0,3:0:0:0:
229,216,144794,1,0,3:0:0:0:
391,168,144994,5,2,3:2:0:0:
404,166,145094,1,0,3:0:0:0:
417,164,145194,1,0,3:0:0:0:
430,162,145294,1,0,3:0:0:0:
443,160,145394,1,8,3:2:0:0:
369,333,145594,5,0,3:0:0:0:
382,331,145694,1,0,3:0:0:0:
395,329,145794,2,0,L|398:350,2,13.9999995727539,0|0|0,3:0|3:0|3:0,0:0:0:0:
383,249,145994,5,0,3:0:0:0:
369,251,146094,1,0,3:0:0:0:
355,253,146194,2,0,P|247:268|207:274,1,128,2|2,3:2|0:0,0:0:0:0:
104,351,146794,1,0,0:0:0:0:
104,351,146994,2,0,P|97:288|95:270,1,64,2|0,1:2|0:0,0:0:0:0:
0,189,147394,2,0,P|77:195|103:230,1,96
88,204,147794,5,2,0:0:0:0:
155,75,147994,1,0,3:0:0:0:
155,75,148194,2,0,P|167:158|178:211,1,128,2|10,3:2|0:0,0:0:0:0:
235,63,148794,2,0,P|241:102|246:132,1,64
373,175,149194,5,0,3:0:0:0:
373,175,149294,1,0,3:0:0:0:
373,175,149394,2,0,P|378:125|382:96,1,64,2|0,3:2|3:0,0:0:0:0:
382,95,149694,1,0,3:0:0:0:
384,79,149794,1,2,3:2:0:0:
327,16,149994,1,0,3:0:0:0:
462,126,150194,2,0,P|468:179|470:207,1,64,2|0,1:2|3:0,0:0:0:0:
468,189,150494,1,0,3:0:0:0:
468,189,150594,1,0,3:0:0:0:
483,278,150794,1,0,0:0:0:0:
335,359,150994,5,2,3:2:0:0:
319,361,151094,1,0,3:0:0:0:
303,363,151194,1,0,3:0:0:0:
418,348,151394,2,0,P|405:268|399:229,1,96,2|0,3:2|0:0,0:0:0:0:
402,253,151794,2,0,P|347:260|315:264,1,64,10|0,0:0|0:0,0:0:0:0:
222,358,152194,5,0,3:0:0:0:
206,355,152294,1,0,3:0:0:0:
190,352,152394,1,0,3:0:0:0:
174,349,152494,1,0,3:0:0:0:
158,346,152594,2,0,P|154:292|152:264,1,64,2|0,3:2|0:0,0:0:0:0:
70,215,152994,2,0,P|72:246|74:278,1,64,2|0,0:0|3:0,0:0:0:0:
64,138,153394,1,2,1:2:0:0:
226,199,153594,1,0,0:0:0:0:
226,199,153794,2,0,P|269:193|314:187,1,64
137,100,154194,5,2,3:2:0:0:
145,178,154394,1,0,3:0:0:0:
207,53,154594,2,0,P|214:107|220:143,1,64,2|0,3:2|0:0,0:0:0:0:
236,277,154994,2,0,P|299:267|362:257,1,128,10|0,0:0|0:0,0:0:0:0:
374,62,155594,5,0,3:0:0:0:
374,62,155694,1,0,3:0:0:0:
374,62,155794,1,2,3:2:0:0:
434,123,155994,1,0,3:0:0:0:
437,138,156094,1,0,3:0:0:0:
440,153,156194,2,0,P|433:210|427:244,1,64,2|0,3:2|3:0,0:0:0:0:
497,374,156594,2,0,B|424:376|459:337|368:337,1,128,2|0,1:2|0:0,0:0:0:0:
305,353,157194,1,0,0:0:0:0:
111,253,157394,6,0,L|106:306,1,35.9999989013672,2|0,3:2|3:0,0:0:0:0:
99,365,157594,1,0,3:0:0:0:
244,228,157794,6,0,L|246:248,6,17.9999994506836,2|0|0|0|0|0|0,3:2|3:0|3:0|3:0|3:0|3:0|3:0,0:0:0:0:
184,341,158194,6,0,L|187:305,1,35.9999989013672,10|0,0:0|3:0,0:0:0:0:
323,218,158394,6,0,L|319:182,1,35.9999989013672,0|0,3:0|3:0,0:0:0:0:
216,129,158594,6,0,L|219:93,1,35.9999989013672,0|0,3:0|3:0,0:0:0:0:
256,16,158794,5,0,3:0:0:0:
256,16,158894,1,0,3:0:0:0:
377,344,159794,6,0,P|426:339|473:335,1,80,2|2,0:0|0:0,0:0:0:0:
434,147,160594,2,0,P|394:150|354:154,2,80,2|2|2,0:0|0:0|0:0,0:0:0:0:
512,142,161794,1,2,0:0:0:0:
86,34,162194,6,0,P|173:84|174:146,1,143.999995605469,6|0,1:2|0:0,0:0:0:0:
179,119,162594,2,0,P|168:175|160:217,1,95.9999970703126,2|2,1:2|0:0,0:0:0:0:
359,144,162994,2,0,P|367:96|376:49,1,95.9999970703126,8|0,0:0|0:0,0:0:0:0:
427,221,163394,1,2,1:2:0:0:
442,144,163594,1,0,1:0:0:0:
227,252,163794,5,2,1:2:0:0:
231,275,163894,1,0,3:0:0:0:
235,298,163994,1,0,3:0:0:0:
91,268,164194,1,2,1:2:0:0:
310,237,164394,1,2,3:2:0:0:
314,260,164494,1,0,3:0:0:0:
318,283,164594,2,0,P|372:273|416:265,1,95.9999970703126,8|0,3:2|0:0,0:0:0:0:
152,136,164994,2,0,B|57:129|101:172|6:166,1,143.999995605469,2|0,1:2|0:0,0:0:0:0:
14,166,165394,5,2,1:2:0:0:
164,58,165594,1,0,1:0:0:0:
152,218,165794,1,2,3:2:0:0:
148,241,165894,1,0,3:0:0:0:
145,264,165994,1,2,3:2:0:0:
142,287,166094,1,0,3:0:0:0:
139,311,166194,2,0,P|129:234|122:198,1,95.9999970703126,8|0,3:2|0:0,0:0:0:0:
86,12,166594,2,0,P|78:59|72:107,1,95.9999970703126,2|0,1:2|0:0,0:0:0:0:
321,35,166994,5,2,1:2:0:0:
243,45,167194,1,0,0:0:0:0:
358,187,167394,2,0,P|419:202|463:212,1,95.9999970703126,2|2,1:2|3:2,0:0:0:0:
508,273,167694,1,0,3:0:0:0:
508,273,167794,2,0,P|495:340|490:381,1,95.9999970703126,8|0,3:2|0:0,0:0:0:0:
297,304,168194,2,0,P|290:256|280:209,1,95.9999970703126,2|0,1:2|1:0,0:0:0:0:
167,28,168594,6,0,P|150:136|141:204,1,143.999995605469,6|0,1:2|0:0,0:0:0:0:
145,170,168994,2,0,P|84:161|33:157,1,95.9999970703126,2|2,1:2|3:2,0:0:0:0:
0,222,169294,1,0,3:0:0:0:
0,222,169394,2,0,P|9:283|13:334,1,95.9999970703126,8|0,3:2|0:0,0:0:0:0:
229,117,169794,1,2,1:2:0:0:
204,232,169994,1,0,1:0:0:0:
403,232,170194,5,2,1:2:0:0:
426,229,170294,1,0,3:0:0:0:
449,226,170394,1,0,3:0:0:0:
413,355,170594,1,2,1:2:0:0:
377,132,170794,1,2,3:2:0:0:
354,135,170894,1,0,3:0:0:0:
331,138,170994,2,0,P|321:238|317:299,1,143.999995605469,8|0,3:2|0:0,0:0:0:0:
317,281,171394,1,2,1:2:0:0:
176,268,171594,1,0,1:0:0:0:
346,56,171794,6,0,P|254:93|246:151,1,143.999995605469,2|0,1:2|0:0,0:0:0:0:
243,128,172194,2,0,P|155:143|111:154,1,95.9999970703126,2|2,0:0|0:0,0:0:0:0:
40,21,172594,2,0,P|47:68|57:115,1,95.9999970703126,8|0,0:0|0:0,0:0:0:0:
149,348,172994,2,0,P|158:301|166:253,1,95.9999970703126,2|0,1:2|0:0,0:0:0:0:
200,47,173394,6,0,B|301:30|276:103|394:86,1,191.999994140625,2|2,1:2|1:2,0:0:0:0:
493,7,173994,1,10,0:0:0:0:
470,4,174094,1,8,0:0:0:0:
447,1,174194,1,8,0:0:0:0:
255,205,174394,5,0,1:0:0:0:
316,155,174594,5,2,1:2:0:0:
243,128,174794,5,0,1:0:0:0:
500,90,174994,6,0,P|483:195|477:246,1,143.999995605469,6|0,1:2|0:0,0:0:0:0:
478,232,175394,2,0,P|410:223|373:222,1,95.9999970703126,2|2,1:2|0:0,0:0:0:0:
234,368,175794,2,0,P|281:365|329:358,1,95.9999970703126,8|0,0:0|0:0,0:0:0:0:
128,300,176194,1,2,1:2:0:0:
205,293,176394,1,0,1:0:0:0:
56,135,176594,5,2,1:2:0:0:
79,132,176694,1,0,3:0:0:0:
102,129,176794,1,0,3:0:0:0:
128,300,176994,1,2,1:2:0:0:
0,243,177194,1,2,3:2:0:0:
23,240,177294,1,0,3:0:0:0:
46,237,177394,2,0,P|141:218|202:211,1,143.999995605469,8|0,3:2|0:0,0:0:0:0:
187,212,177794,1,2,1:2:0:0:
216,370,177994,1,0,1:0:0:0:
405,181,178194,5,2,1:2:0:0:
224,141,178394,1,0,1:0:0:0:
328,15,178594,1,2,3:2:0:0:
326,38,178694,1,0,3:0:0:0:
324,61,178794,1,2,3:2:0:0:
322,84,178894,1,0,3:0:0:0:
320,107,178994,2,0,P|329:181|332:220,1,95.9999970703126,8|0,3:2|0:0,0:0:0:0:
501,353,179394,2,0,P|496:305|490:257,1,95.9999970703126,2|0,1:2|0:0,0:0:0:0:
285,369,179794,5,2,1:2:0:0:
420,359,179994,2,0,P|390:360|364:362,1,47.9999985351563,8|0,0:0|0:0,0:0:0:0:
257,227,180194,1,2,1:2:0:0:
261,203,180294,1,0,3:0:0:0:
265,179,180394,1,2,3:2:0:0:
269,155,180494,1,0,3:0:0:0:
274,131,180594,2,0,P|279:92|281:80,1,47.9999985351563,8|0,3:2|3:2,3:2:0:0:
150,0,180794,2,0,P|163:86|170:198,1,191.999994140625,0|0,1:0|3:0,0:0:0:0:
170,190,181294,1,0,3:0:0:0:
170,190,181394,5,2,1:2:0:0:
94,204,181594,1,0,0:0:0:0:
240,52,181794,2,0,P|305:61|346:67,1,95.9999970703126,2|2,1:2|3:2,0:0:0:0:
404,104,182094,1,0,3:0:0:0:
404,104,182194,2,0,P|395:169|389:210,1,95.9999970703126,8|0,3:2|0:0,0:0:0:0:
509,43,182594,1,2,1:2:0:0:
434,29,182794,1,0,1:0:0:0:
471,214,182994,5,2,1:2:0:0:
273,149,183194,1,0,0:0:0:0:
273,149,183394,2,0,P|258:254|254:299,1,143.999995605469,2|0,1:2|0:0,0:0:0:0:
254,291,183794,2,0,P|193:282|147:278,1,95.9999970703126,8|0,0:0|0:0,0:0:0:0:
85,177,184194,1,2,1:2:0:0:
108,181,184294,1,0,3:0:0:0:
131,185,184394,1,0,3:0:0:0:
334,371,184594,6,0,B|409:371|389:320|481:319,1,143.999995605469,2|0,1:2|0:0,0:0:0:0:
465,319,184994,2,0,P|469:252|472:200,1,95.9999970703126,2|2,1:2|0:0,0:0:0:0:
311,93,185394,2,0,P|314:140|317:188,1,95.9999970703126,10|0,0:0|0:0,0:0:0:0:
448,30,185794,1,2,1:2:0:0:
435,107,185994,1,0,1:0:0:0:
224,16,186194,5,2,1:2:0:0:
304,11,186394,1,0,0:0:0:0:
235,190,186594,2,0,P|135:201|85:205,1,143.999995605469,2|0,1:2|0:0,0:0:0:0:
91,204,186994,1,10,0:0:0:0:
9,72,187194,5,0,1:0:0:0:
151,104,187394,5,2,1:2:0:0:
294,136,187594,5,0,1:0:0:0:
41,304,187794,6,0,B|107:330|107:330|176:290,1,143.999995605469,6|0,1:0|0:0,0:0:0:0:
234,340,188194,2,0,P|290:333|361:326,1,95.9999970703126,2|0,1:0|0:0,0:0:0:0:
422,97,188594,5,10,0:0:0:0:
414,176,188794,1,0,0:0:0:0:
276,251,188994,5,2,1:2:0:0:
268,172,189194,1,2,1:2:0:0:
91,45,189394,6,0,P|35:89|38:180,1,143.999995605469,2|0,0:1|0:0,0:0:0:0:
96,199,189794,2,0,P|104:263|105:310,1,95.9999970703126,2|0,1:0|0:0,0:0:0:0:
181,100,190194,5,10,0:0:0:0:
258,92,190394,1,0,0:0:0:0:
366,241,190594,2,0,P|356:336|351:401,1,143.999995605469,2|0,1:2|0:0,0:0:0:0:
432,347,190994,6,0,P|439:286|444:232,1,95.9999970703126,6|0,1:0|0:0,0:0:0:0:
360,0,191394,1,2,1:0:0:0:
336,3,191494,1,0,3:0:0:0:
312,6,191594,1,0,3:0:0:0:
288,9,191694,1,0,3:0:0:0:
264,13,191794,2,0,P|188:4|126:-3,1,95.9999970703126,10|0,3:2|0:0,0:0:0:0:
312,168,192194,2,0,P|388:159|450:152,1,95.9999970703126,2|2,1:2|1:2,0:0:0:0:
130,313,192594,6,0,B|107:352|107:352|90:215,1,167.999994873047,2|0,0:1|0:0,0:0:0:0:
13,180,192994,1,0,1:0:0:0:
17,141,193094,1,0,3:0:0:0:
36,107,193194,1,0,3:0:0:0:
67,82,193294,1,0,3:0:0:0:
104,71,193394,2,0,P|201:84|254:91,1,143.999995605469,10|0,3:1|0:0,0:0:0:0:
246,90,193794,1,2,1:0:0:0:
229,252,193994,1,8,0:0:0:0:
383,22,194194,6,0,B|337:77|337:77|361:150,1,143.999995605469,6|0,1:0|0:0,0:0:0:0:
421,199,194594,2,0,P|407:271|396:327,1,95.9999970703126,2|0,1:0|0:0,0:0:0:0:
511,82,194994,5,10,0:0:0:0:
434,99,195194,1,0,0:0:0:0:
258,212,195394,5,2,1:2:0:0:
335,229,195594,1,2,1:2:0:0:
214,19,195794,6,0,B|125:30|168:57|72:71,1,143.999995605469,2|0,0:1|0:0,0:0:0:0:
0,79,196194,2,0,P|16:144|22:187,1,95.9999970703126,2|0,1:0|0:0,0:0:0:0:
130,346,196594,5,10,0:0:0:0:
118,268,196794,1,0,0:0:0:0:
225,129,196994,2,0,P|327:142|390:157,1,143.999995605469,2|0,1:2|0:0,0:0:0:0:
352,227,197394,6,0,P|299:216|246:210,1,95.9999970703126,6|0,1:0|0:0,0:0:0:0:
446,166,197794,2,0,P|455:114|462:60,1,95.9999970703126,2|0,1:0|0:0,0:0:0:0:
167,53,198194,6,0,B|197:184|122:122|163:264|163:264|159:218|184:191,1,287.999991210938,10|0,0:1|1:0,0:0:0:0:
357,62,198994,2,0,P|251:39|231:-10,1,143.999995605469,2|0,0:1|0:0,0:0:0:0:
237,15,199394,1,2,1:0:0:0:
442,57,199594,1,8,0:0:0:0:
440,80,199694,1,8,0:0:0:0:
437,103,199794,1,10,0:0:0:0:
269,348,199994,5,0,1:0:0:0:
298,277,200194,5,2,1:0:0:0:
345,339,200394,5,0,1:0:0:0:
512,210,200594,6,0,B|447:184|447:184|386:230,1,143.999995605469,6|0,1:0|0:0,0:0:0:0:
316,200,200994,2,0,P|238:189|189:184,1,95.9999970703126,2|0,1:0|0:0,0:0:0:0:
87,310,201394,5,10,0:0:0:0:
163,297,201594,1,0,0:0:0:0:
76,156,201794,5,2,1:2:0:0:
0,143,201994,1,2,1:2:0:0:
134,0,202194,6,0,P|222:27|250:82,1,143.999995605469,2|0,0:1|0:0,0:0:0:0:
275,141,202594,2,0,P|349:125|399:117,1,95.9999970703126,2|0,1:0|0:0,0:0:0:0:
170,92,202994,5,10,0:0:0:0:
184,170,203194,1,0,0:0:0:0:
327,280,203394,2,0,P|314:377|311:408,1,95.9999970703126,2|10,1:2|0:0,0:0:0:0:
464,168,203794,6,0,P|458:120|439:10,1,143.999995605469,6|0,1:0|0:0,0:0:0:0:
442,25,204194,2,0,P|375:32|322:40,1,95.9999970703126,2|0,1:0|0:0,0:0:0:0:
258,240,204594,2,0,P|191:247|138:255,1,95.9999970703126,10|0,0:0|0:0,0:0:0:0:
229,46,204994,1,2,1:2:0:0:
238,122,205194,1,2,1:2:0:0:
31,148,205394,5,2,0:1:0:0:
48,292,205594,1,0,1:0:0:0:
146,54,205794,5,0,1:0:0:0:
121,58,205894,1,0,1:0:0:0:
97,62,205994,1,0,1:0:0:0:
73,66,206094,1,0,1:0:0:0:
49,70,206194,1,10,1:0:0:0:
307,163,206394,5,8,0:0:0:0:
87,216,206594,5,10,0:1:0:0:
188,376,206794,5,8,0:0:0:0:
243,319,206994,6,0,P|252:217|258:149,1,167.999994873047,2|2,0:0|0:0,0:0:0:0:
190,37,207794,2,0,P|213:39|251:42,1,55.9999982910157,2|2,0:0|0:0,0:0:0:0:
323,54,208194,1,2,0:0:0:0:
443,177,208594,6,0,B|370:170|399:202|319:195,1,111.999996582031,2|2,0:0|0:0,0:0:0:0:
173,227,209194,1,2,0:0:0:0:
173,227,209394,2,0,P|163:276|150:362,1,111.999996582031,2|2,0:0|0:0,0:0:0:0:
24,218,210194,6,0,B|14:182|14:182|23:141,2,71.9999978027344,2|2|2,0:0|0:0|0:0,0:0:0:0:
256,192,211494,12,0,214594,0:0:0:0:
