osu file format v14

[General]
AudioFilename: audio.mp3
AudioLeadIn: 0
PreviewTime: 54851
Countdown: 0
SampleSet: Soft
StackLeniency: 0.7
Mode: 0
LetterboxInBreaks: 0
WidescreenStoryboard: 0

[Editor]
Bookmarks: 30837
DistanceSpacing: 1.1
BeatDivisor: 6
GridSize: 16
TimelineZoom: 1.9

[Metadata]
Title:Prover (TV Size)
TitleUnicode:Prover (TV Size)
Artist:milet
ArtistUnicode:milet
Creator:-Eresh
Version:Normal
Source:Fate/Grand Order: Absolute Demonic Front - Babylonia
Tags:ミレイ fgo f/go -絶対魔獣戦線バビロニア- zettai majuu sensen delight works delightworks ディライトワークス type moon typemoon japanese pop jpop j-pop anime ending cour 2 2nd
BeatmapID:2647068
BeatmapSetID:1089551

[Difficulty]
HPDrainRate:2
CircleSize:3
OverallDifficulty:4
ApproachRate:4.7
SliderMultiplier:1.2
SliderTickRate:1

[Events]
//Background and Video events
0,0,"ybBRASf.jpg",0,0
Video,-360,"580ayv.mp4"
//Break Periods
//Storyboard Layer 0 (Background)
//Storyboard Layer 1 (Fail)
//Storyboard Layer 2 (Pass)
//Storyboard Layer 3 (Foreground)
//Storyboard Layer 4 (Overlay)
//Storyboard Sound Samples

[TimingPoints]
225,769.230769230769,4,2,1,30,1,0
225,-100,4,2,1,30,0,0
1507,-100,4,2,1,5,0,0
1763,-100,4,2,1,40,0,0
3045,-100,4,2,1,5,0,0
3301,-100,4,2,1,30,0,0
4583,-100,4,2,1,5,0,0
4840,-100,4,2,1,30,0,0
6378,-100,4,2,1,40,0,0
6891,-100,4,2,1,5,0,0
7148,-100,4,2,1,40,0,0
18686,-100,4,2,1,50,0,0
30994,-100,4,2,1,45,0,0
43301,-100,4,2,1,55,0,0
49455,-100,4,2,1,65,0,0
55609,-100,4,2,1,80,0,1
57148,-100,4,2,1,80,0,0
58686,-100,4,2,1,80,0,1
60224,-100,4,2,1,80,0,0
61763,-100,4,2,1,80,0,1
66378,-100,4,2,1,80,0,0
67917,-100,4,2,1,80,0,1
69455,-100,4,2,1,80,0,0
70994,-100,4,2,1,80,0,1
72532,-100,4,2,1,80,0,0
74071,-100,4,2,1,70,0,0
80224,-100,4,2,1,50,0,0
83301,-100,4,2,1,20,0,0

[Colours]
Combo1 : 254,164,41
Combo2 : 242,41,19
Combo3 : 234,204,185

[HitObjects]
8,109,225,6,0,P|98:121|190:190,1,200,2|0,0:0|0:0,0:0:0:0:
203,144,1763,2,0,P|293:132|360:47,1,200,2|0,0:0|0:0,0:0:0:0:
367,8,3301,2,0,P|414:-13|514:76,1,200,2|0,0:0|0:0,0:0:0:0:
482,101,4840,2,0,L|470:224,1,120,2|0,0:0|0:0,0:0:0:0:
390,258,6122,1,2,0:0:0:0:
359,290,6378,6,0,P|364:319|375:374,1,80,6|0,3:0|0:0,0:0:0:0:
330,378,7148,2,0,P|282:370|245:352,1,80,2|2,0:0|0:0,0:0:0:0:
240,315,7917,2,0,L|201:280,1,40,2|2,0:0|0:0,0:0:0:0:
217,244,8430,2,0,P|173:255|95:276,1,120,2|2,0:0|0:0,0:0:0:0:
70,305,9455,1,2,0:0:0:0:
39,281,9712,2,0,P|33:245|62:199,1,80,2|2,0:0|0:0,0:0:0:0:
137,183,10737,1,2,0:0:0:0:
174,206,10994,2,0,P|185:149|74:56,1,200,2|2,0:0|0:0,0:0:0:0:
57,83,12532,6,0,P|56:38|125:0,1,120,2|2,0:0|0:0,0:0:0:0:
223,71,14071,2,0,L|263:61,1,40,2|2,0:0|0:0,0:0:0:0:
289,28,14583,2,0,P|314:18|409:63,1,120,2|2,0:0|0:0,0:0:0:0:
441,50,15609,1,2,0:0:0:0:
423,90,15866,2,0,P|416:122|410:187,1,80,2|2,0:0|0:0,0:0:0:0:
479,233,16891,1,2,0:0:0:0:
479,233,17148,2,0,P|486:258|497:325,1,80,2|2,0:0|0:0,0:0:0:0:
477,351,17917,2,0,L|514:388,2,40,6|2|2,0:1|0:0|0:0,0:0:0:0:
438,329,18686,6,0,P|388:331|328:370,1,120,6|2,3:0|0:0,0:0:0:0:
273,307,19968,1,2,0:0:0:0:
273,307,20224,2,0,P|222:318|191:333,1,80,2|0,0:0|0:0,0:0:0:0:
155,344,20994,2,0,L|160:384,2,40,2|2|2,0:0|0:0|0:0,0:0:0:0:
120,316,21763,2,0,P|75:273|86:213,1,120,2|2,0:0|0:0,0:0:0:0:
132,149,23045,1,2,0:0:0:0:
132,149,23301,2,0,P|186:137|224:133,1,80,2|0,0:0|0:0,0:0:0:0:
236,98,24071,2,0,L|228:58,2,40,2|2|2,0:0|0:0|0:0,0:0:0:0:
274,118,24840,6,0,P|325:110|352:47,1,120,2|2,0:0|0:0,0:0:0:0:
428,5,26122,1,2,0:0:0:0:
428,5,26378,2,0,P|453:19|493:55,1,80,2|0,0:0|0:0,0:0:0:0:
499,96,27148,2,0,L|510:135,2,40,2|2|2,0:0|0:0|0:0,0:0:0:0:
457,94,27917,2,0,P|429:106|395:146,1,80,2|0,0:0|0:0,0:0:0:0:
394,186,28686,2,0,L|426:211,2,40,2|2|2,0:0|0:0|0:0,0:0:0:0:
356,163,29455,2,0,L|225:200,1,120,2|2,0:0|0:0,0:0:0:0:
133,118,30994,6,0,P|78:133|49:202,1,120,6|2,0:3|0:0,0:0:0:0:
144,276,32532,2,0,L|193:266,2,40,2|2|2,0:0|0:0|0:0,0:0:0:0:
123,315,33301,2,0,P|78:304|41:303,1,80,2|2,0:0|0:0,0:0:0:0:
11,272,34071,2,0,P|10:250|16:228,1,40,2|2,0:0|0:0,0:0:0:0:
35,194,34583,1,2,0:0:0:0:
14,154,34840,2,0,P|18:126|38:69,1,80,2|2,0:0|0:0,0:0:0:0:
66,47,35609,2,0,P|105:29|274:12,1,200,2|2,0:0|0:0,0:0:0:0:
289,42,37148,6,0,P|336:33|412:22,1,120,6|2,0:3|0:0,0:0:0:0:
466,87,38430,1,2,0:0:0:0:
426,105,38686,2,0,L|385:112,2,40,2|2|2,0:0|0:0|0:0,0:0:0:0:
459,134,39455,2,0,P|460:159|445:225,1,80,2|2,0:0|0:0,0:0:0:0:
418,243,40224,2,0,P|423:262|426:283,1,40,2|2,0:0|0:0,0:0:0:0:
408,323,40737,1,2,0:0:0:0:
372,350,40994,2,0,P|345:342|285:332,1,80,2|2,0:0|0:0,0:0:0:0:
253,349,41763,1,2,0:0:0:0:
170,288,42532,2,0,L|178:248,1,40,6|2,0:1|0:0,0:0:0:0:
212,221,43045,1,2,0:0:0:0:
212,221,43301,6,0,P|204:177|187:133,1,80,6|0,0:3|0:0,0:0:0:0:
149,131,44071,2,0,P|142:92|176:54,1,80,10|2,0:0|0:0,0:0:0:0:
205,39,44840,2,0,L|195:-2,2,40,2|2|2,0:0|0:0|0:0,0:0:0:0:
248,44,45609,2,0,L|336:29,1,80,10|2,0:0|3:0,0:0:0:0:
370,33,46378,2,0,P|392:24|410:23,1,40,6|2,0:3|0:0,0:0:0:0:
452,29,46891,1,2,0:0:0:0:
489,52,47148,2,0,P|505:91|505:135,1,80,10|2,0:0|0:0,0:0:0:0:
465,144,47917,1,2,0:0:0:0:
475,258,48686,2,0,L|526:272,2,40,14|2|2,0:1|0:0|0:0,0:0:0:0:
436,278,49455,6,0,L|354:303,1,80,6|2,0:3|0:0,0:0:0:0:
324,327,50224,2,0,P|286:335|246:315,1,80,10|2,0:0|0:0,0:0:0:0:
214,291,50994,2,0,L|173:304,2,40,2|2|2,0:0|0:0|0:0,0:0:0:0:
240,255,51763,2,0,P|246:199|232:172,1,80,10|2,0:0|3:0,0:0:0:0:
200,153,52532,2,0,L|150:141,1,40,6|2,0:3|0:0,0:0:0:0:
118,132,53045,1,2,0:0:0:0:
85,161,53301,2,0,P|64:199|65:237,1,80,10|2,0:0|0:0,0:0:0:0:
90,271,54071,2,0,P|154:289|204:309,1,120,2|10,0:0|0:0,0:0:0:0:
325,359,55609,6,0,P|375:350|457:333,1,120,6|10,3:0|0:0,0:0:0:0:
442,336,57917,2,0,L|453:378,2,40,2|2|2,0:0|0:0|0:0,0:0:0:0:
455,293,58686,2,0,P|469:245|444:173,1,120,6|10,3:0|0:0,0:0:0:0:
449,179,60994,2,0,L|476:146,2,40,2|2|2,0:0|0:0|0:0,0:0:0:0:
404,178,61763,6,0,P|348:160|330:105,1,120,6|14,3:0|0:1,0:0:0:0:
366,23,63045,1,2,0:0:0:0:
325,6,63301,2,0,P|299:7|283:9,1,40,2|2,0:0|0:0,0:0:0:0:
245,28,63814,1,2,0:0:0:0:
204,45,64071,2,0,P|149:34|124:16,1,80,10|2,0:0|3:0,0:0:0:0:
85,26,64840,2,0,P|82:47|82:67,1,40,6|2,0:3|0:0,0:0:0:0:
90,109,65353,1,2,0:0:0:0:
71,148,65609,2,0,P|79:179|83:231,1,80,10|2,0:0|0:0,0:0:0:0:
80,270,66378,2,0,P|69:298|59:360,1,80,2|2,0:0|0:0,0:0:0:0:
96,370,67148,2,0,P|118:376|146:375,1,40,14|2,0:1|0:0,0:0:0:0:
176,360,67660,1,2,0:0:0:0:
219,355,67917,6,0,P|259:340|353:332,1,120,6|10,0:3|0:0,0:0:0:0:
335,330,69968,1,2,0:0:0:0:
367,345,70224,2,0,P|365:371|361:387,2,40,6|2|2,0:1|0:0|3:0,0:0:0:0:
363,300,70994,2,0,P|382:261|390:179,1,120,6|10,3:0|0:0,0:0:0:0:
390,186,73301,2,0,P|383:161|375:144,1,40,6|2,0:1|0:0,0:0:0:0:
352,112,73814,1,2,0:0:0:0:
311,93,74071,6,0,P|283:94|199:137,1,120,6|10,0:3|0:0,0:0:0:0:
181,219,75353,1,2,0:0:0:0:
181,219,75609,1,2,0:0:0:0:
103,177,76122,2,0,P|93:146|93:136,1,40,2|10,0:0|0:0,0:0:0:0:
81,96,76635,2,0,P|95:68|109:54,1,40,2|2,0:0|3:0,0:0:0:0:
137,36,77148,2,0,L|270:55,1,120,4|8,3:0|0:0,0:0:0:0:
304,175,78686,2,0,L|432:157,1,120,2|10,0:0|0:0,0:0:0:0:
453,78,79968,1,2,0:0:0:0:
453,78,80224,6,0,P|490:99|512:171,1,120,6|2,0:1|0:0,0:0:0:0:
492,255,81507,1,2,0:0:0:0:
492,255,81763,1,2,0:0:0:0:
414,225,82276,1,2,0:0:0:0:
414,225,82532,2,0,P|398:238|385:253,1,40,2|2,0:0|0:0,0:0:0:0:
369,294,83045,1,2,0:0:0:0:
325,285,83301,6,0,L|201:268,2,120,6|2|2,0:1|0:0|0:0,0:0:0:0:
256,192,84968,12,0,88622,0:0:0:0:
