osu file format v14

[General]
AudioFilename: audio.mp3
AudioLeadIn: 0
PreviewTime: 54851
Countdown: 0
SampleSet: Soft
StackLeniency: 0.7
Mode: 0
LetterboxInBreaks: 0
WidescreenStoryboard: 0

[Editor]
Bookmarks: 30837
DistanceSpacing: 1.2
BeatDivisor: 12
GridSize: 16
TimelineZoom: 1.9

[Metadata]
Title:Prover (TV Size)
TitleUnicode:Prover (TV Size)
Artist:milet
ArtistUnicode:milet
Creator:-Eresh
Version:Insane
Source:Fate/Grand Order: Absolute Demonic Front - Babylonia
Tags:ミレイ fgo f/go -絶対魔獣戦線バビロニア- zettai majuu sensen delight works delightworks ディライトワークス type moon typemoon japanese pop jpop j-pop anime ending cour 2 2nd
BeatmapID:2630188
BeatmapSetID:1089551

[Difficulty]
HPDrainRate:5
CircleSize:4
OverallDifficulty:8.3
ApproachRate:8.7
SliderMultiplier:1.8
SliderTickRate:1

[Events]
//Background and Video events
0,0,"ybBRASf.jpg",0,0
Video,-360,"580ayv.mp4"
//Break Periods
//Storyboard Layer 0 (Background)
//Storyboard Layer 1 (Fail)
//Storyboard Layer 2 (Pass)
//Storyboard Layer 3 (Foreground)
//Storyboard Layer 4 (Overlay)
//Storyboard Sound Samples

[TimingPoints]
225,769.230769230769,4,2,1,30,1,0
225,-125,4,2,1,30,0,0
1507,-125,4,2,1,5,0,0
1763,-125,4,2,1,40,0,0
3045,-125,4,2,1,5,0,0
3301,-125,4,2,1,30,0,0
4583,-125,4,2,1,5,0,0
4840,-125,4,2,1,30,0,0
6378,-142.857142857143,4,2,1,40,0,0
6891,-142.857142857143,4,2,1,5,0,0
7148,-142.857142857143,4,2,1,40,0,0
13045,-142.857142857143,4,2,1,5,0,0
13301,-142.857142857143,4,2,1,40,0,0
18686,-142.857142857143,4,2,1,50,0,0
30994,-166.666666666667,4,2,1,45,0,0
34071,-142.857142857143,4,2,1,45,0,0
34263,-142.857142857143,4,2,1,5,0,0
34327,-125,4,2,1,45,0,0
34519,-125,4,2,1,5,0,0
34583,-111.111111111111,4,2,1,45,0,0
34776,-111.111111111111,4,2,1,5,0,0
34840,-166.666666666667,4,2,1,45,0,0
37148,-125,4,2,1,45,0,0
40224,-111.111111111111,4,2,1,45,0,0
40417,-111.111111111111,4,2,1,5,0,0
40481,-105.263157894737,4,2,1,45,0,0
40673,-105.263157894737,4,2,1,5,0,0
40737,-100,4,2,1,45,0,0
40930,-100,4,2,1,5,0,0
40994,-125,4,2,1,45,0,0
42532,-111.111111111111,4,2,1,45,0,0
43301,-200,4,2,1,55,0,0
44071,-83.3333333333333,4,2,1,55,0,0
44840,-100,4,2,1,55,0,0
45609,-83.3333333333333,4,2,1,55,0,0
46378,-66.6666666666667,4,2,1,55,0,0
46571,-66.6666666666667,4,2,1,5,0,0
46635,-66.6666666666667,4,2,1,55,0,0
46827,-66.6666666666667,4,2,1,5,0,0
46891,-66.6666666666667,4,2,1,55,0,0
47083,-66.6666666666667,4,2,1,5,0,0
47148,-83.3333333333333,4,2,1,55,0,0
47917,-100,4,2,1,55,0,0
48686,-83.3333333333333,4,2,1,55,0,0
49455,-100,4,2,1,65,0,0
50224,-66.6666666666667,4,2,1,65,0,0
50994,-76.9230769230769,4,2,1,65,0,0
51763,-66.6666666666667,4,2,1,65,0,0
52532,-55.5555555555556,4,2,1,65,0,0
52724,-55.5555555555556,4,2,1,5,0,0
52789,-55.5555555555556,4,2,1,65,0,0
52981,-55.5555555555556,4,2,1,5,0,0
53045,-55.5555555555556,4,2,1,65,0,0
53237,-55.5555555555556,4,2,1,5,0,0
53301,-66.6666666666667,4,2,1,65,0,0
54071,-83.3333333333333,4,2,1,65,0,0
54583,-90.9090909090909,4,2,1,65,0,0
54840,-76.9230769230769,4,2,1,70,0,0
55096,-71.4285714285714,4,2,1,75,0,0
55353,-66.6666666666667,4,2,1,65,0,0
55609,-50,4,2,1,80,0,1
56378,-55.5555555555556,4,2,1,80,0,1
57148,-62.5,4,2,1,80,0,0
58686,-50,4,2,1,80,0,1
59455,-55.5555555555556,4,2,1,80,0,1
60224,-333.333333333333,4,2,1,80,0,0
60994,-200,4,2,1,80,0,0
61250,-125,4,2,1,80,0,0
61507,-76.9230769230769,4,2,1,80,0,0
61763,-62.5,4,2,1,80,0,1
62532,-50,4,2,1,80,0,1
63301,-55.5555555555556,4,2,1,80,0,1
64071,-50,4,2,1,80,0,1
64840,-45.4545454545455,4,2,1,80,0,1
65032,-45.4545454545455,4,2,1,5,0,1
65096,-45.4545454545455,4,2,1,80,0,1
65289,-45.4545454545455,4,2,1,5,0,1
65353,-45.4545454545455,4,2,1,80,0,1
65545,-45.4545454545455,4,2,1,5,0,1
65609,-58.8235294117647,4,2,1,80,0,1
66378,-66.6666666666667,4,2,1,80,0,0
67148,-58.8235294117647,4,2,1,80,0,0
67917,-50,4,2,1,80,0,1
68686,-55.5555555555556,4,2,1,80,0,1
69455,-200,4,2,1,80,0,0
70224,-100,4,2,1,80,0,0
70481,-83.3333333333333,4,2,1,80,0,0
70737,-66.6666666666667,4,2,1,80,0,0
70994,-50,4,2,1,80,0,1
71763,-55.5555555555556,4,2,1,80,0,1
72532,-166.666666666667,4,2,1,80,0,0
73301,-62.5,4,2,1,80,0,0
74071,-71.4285714285714,4,2,1,70,0,0
75609,-66.6666666666667,4,2,1,65,0,0
76891,-50,4,2,1,75,0,0
77148,-83.3333333333333,4,2,1,80,0,0
77917,-83.3333333333333,4,2,1,70,0,0
78686,-100,4,2,1,60,0,0
80224,-142.857142857143,4,2,1,50,0,0
83301,-142.857142857143,4,2,1,20,0,0

[Colours]
Combo1 : 254,164,41
Combo2 : 242,41,19
Combo3 : 234,204,185

[HitObjects]
52,176,225,6,0,B|27:125|-21:143|-21:143|-4:202|85:151|118:236,1,264,2|0,0:0|0:0,0:0:0:0:
100,305,1763,2,0,B|130:204|243:153|243:153|233:181|240:216,1,264,2|0,0:0|0:0,0:0:0:0:
301,317,3301,2,0,B|357:269|335:203|317:233|307:178|367:123|367:123|419:152,1,264,2|0,0:0|0:0,0:0:0:0:
490,93,4840,2,0,P|439:66|353:17,1,144,2|0,0:0|0:0,0:0:0:0:
364,24,6122,1,2,0:0:0:0:
244,27,6378,6,0,P|209:39|155:56,1,83.9999974365235,6|0,3:0|0:0,0:0:0:0:
68,40,7148,2,0,B|62:85|62:85|88:125,1,83.9999974365235,2|2,0:0|0:0,0:0:0:0:
205,147,7917,1,2,0:0:0:0:
150,236,8173,1,2,0:0:0:0:
311,219,8430,2,0,B|298:170|285:78,1,125.999996154785,2|2,0:0|0:0,0:0:0:0:
315,68,9455,5,2,0:0:0:0:
388,105,9712,2,0,P|426:91|440:76,1,41.9999987182618,2|0,0:0|0:0,0:0:0:0:
279,0,10224,2,0,P|320:-8|362:11,1,83.9999974365235,2|2,0:0|0:0,0:0:0:0:
237,122,10994,2,0,P|127:96|115:94,1,125.999996154785,2|0,0:0|0:0,0:0:0:0:
114,93,12276,5,2,0:0:0:0:
45,174,12532,2,0,B|71:209|71:209|54:259,1,83.9999974365235,2|0,0:0|0:0,0:0:0:0:
6,328,13301,2,0,P|61:353|86:346,1,83.9999974365235,2|0,0:0|0:0,0:0:0:0:
132,286,14071,1,2,0:0:0:0:
237,315,14327,1,2,0:0:0:0:
342,344,14583,2,0,L|472:320,1,125.999996154785,2|2,0:0|0:0,0:0:0:0:
465,321,15609,5,2,0:0:0:0:
409,241,15866,2,0,P|403:214|400:183,1,41.9999987182618,2|0,0:0|0:0,0:0:0:0:
424,62,16378,2,0,P|445:84|445:148,1,83.9999974365235,2|2,0:0|0:0,0:0:0:0:
294,92,17148,2,0,P|334:104|373:119,1,83.9999974365235,2|2,0:0|0:0,0:0:0:0:
371,119,17917,2,0,L|345:125,1,20.9999993591309,6|0,0:1|0:0,0:0:0:0:
273,180,18173,2,0,L|253:185,1,20.9999993591309,2|0,0:0|0:0,0:0:0:0:
175,241,18430,2,0,L|154:245,1,20.9999993591309,2|0,0:0|0:0,0:0:0:0:
62,323,18686,6,0,P|114:333|183:353,1,104.999996795654,6|0,3:0|0:0,0:0:0:0:
231,379,19455,2,0,P|280:366|319:354,1,83.9999974365235,2|2,0:0|0:0,0:0:0:0:
311,356,20224,5,2,0:0:0:0:
386,384,20353,2,0,P|391:359|381:327,1,41.9999987182618,2|0,0:0|0:0,0:0:0:0:
314,259,20737,1,2,0:0:0:0:
202,284,20994,5,2,0:0:0:0:
144,188,21250,1,2,0:0:0:0:
222,93,21507,1,2,0:0:0:0:
330,151,21763,2,0,P|370:146|417:139,1,83.9999974365235,2|0,0:0|0:0,0:0:0:0:
507,90,22532,2,0,B|479:55|451:67|451:67|470:76|480:91,1,83.9999974365235,2|2,0:0|0:0,0:0:0:0:
496,173,23301,5,2,0:0:0:0:
433,207,23430,2,0,P|413:228|401:249,1,41.9999987182618,2|0,0:0|0:0,0:0:0:0:
499,259,23814,5,2,0:0:0:0:
431,131,24071,1,2,0:0:0:0:
311,196,24327,1,2,0:0:0:0:
386,311,24583,1,2,0:0:0:0:
406,238,24840,6,0,P|368:233|322:228,1,83.9999974365235,2|0,0:0|0:0,0:0:0:0:
470,188,25609,2,0,P|485:244|480:270,1,83.9999974365235,2|2,0:0|0:0,0:0:0:0:
311,246,26378,1,2,0:0:0:0:
263,298,26507,2,0,P|244:274|241:233,1,62.9999980773926,2|0,0:0|0:0,0:0:0:0:
184,184,27019,1,2,0:0:0:0:
252,161,27148,2,0,P|279:154|299:147,1,41.9999987182618,2|2,0:0|0:0,0:0:0:0:
192,97,27660,1,2,0:0:0:0:
248,0,27917,6,0,B|276:33|276:33|265:73,1,83.9999974365235,2|0,0:0|0:0,0:0:0:0:
184,184,28558,1,2,0:0:0:0:
116,205,28686,2,0,L|70:194,1,41.9999987182618,2|2,0:0|0:0,0:0:0:0:
252,161,29199,1,2,0:0:0:0:
156,269,29455,2,0,P|226:251|286:236,1,125.999996154785,2|2,0:0|0:0,0:0:0:0:
278,237,30737,5,2,0:0:0:0:
183,298,30994,2,0,P|215:306|278:323,1,89.9999972534181,6|0,0:3|0:0,0:0:0:0:
348,364,31763,2,0,P|363:322|350:280,1,89.9999972534181,2|0,0:0|0:0,0:0:0:0:
275,238,32532,5,2,0:0:0:0:
372,195,32789,1,2,0:0:0:0:
329,98,33045,1,2,0:0:0:0:
232,141,33301,2,0,P|184:123|168:118,1,53.9999983520508,2|0,0:0|0:0,0:0:0:0:
131,25,33814,2,0,P|155:34|163:36,1,17.9999994506836,2|0,0:0|0:0,0:0:0:0:
250,64,34071,6,0,P|240:88|236:102,1,31.4999990386963,2|0,0:0|0:0,0:0:0:0:
211,183,34327,2,0,P|186:173|173:170,1,36,2|0,0:0|0:0,0:0:0:0:
92,144,34583,2,0,P|101:119|106:105,1,40.4999987640381,2|0,0:0|0:0,0:0:0:0:
58,17,34840,2,0,P|45:50|28:87,1,71.9999978027344,2|2,0:0|0:0,0:0:0:0:
19,84,35609,2,0,P|3:129|19:191,1,107.999996704102,2|0,0:0|0:0,0:0:0:0:
16,186,36891,5,2,0:0:0:0:
115,278,37148,2,0,P|183:261|237:247,1,120,6|0,0:3|0:0,0:0:0:0:
310,292,37917,2,0,P|322:246|315:210,1,72,2|0,0:0|0:0,0:0:0:0:
261,159,38430,1,2,0:0:0:0:
349,132,38686,5,2,0:0:0:0:
209,80,38942,1,2,0:0:0:0:
170,214,39199,1,2,0:0:0:0:
309,255,39455,2,0,P|379:240|399:233,1,72,2|0,0:0|0:0,0:0:0:0:
392,228,39968,2,0,P|382:201|377:187,1,24,2|0,0:0|0:0,0:0:0:0:
307,134,40224,6,0,L|317:94,1,40.4999987640381,2|0,0:0|0:0,0:0:0:0:
322,0,40481,2,0,L|352:29,1,42.7499988584519,2|0,0:0|0:0,0:0:0:0:
435,83,40737,2,0,L|392:95,1,45,2|0,0:0|0:0,0:0:0:0:
294,144,40994,2,0,P|269:138|199:126,1,96,2|2,0:0|0:0,0:0:0:0:
191,117,41763,2,0,P|140:122|89:78,1,120,2|0,0:0|0:0,0:0:0:0:
165,17,42532,2,0,L|159:54,1,26.9999991760254,6|0,0:1|0:0,0:0:0:0:
277,78,42789,2,0,L|271:115,1,26.9999991760254,2|0,0:0|0:0,0:0:0:0:
389,139,43045,2,0,L|383:176,1,26.9999991760254,2|0,0:0|0:0,0:0:0:0:
501,200,43301,6,0,L|486:285,1,75,6|0,0:3|0:0,0:0:0:0:
494,363,44071,2,0,P|437:350|402:296,1,107.999996704102,10|0,0:0|0:0,0:0:0:0:
366,242,44583,2,0,P|371:209|372:197,1,35.9999989013672,2|0,0:0|0:0,0:0:0:0:
356,122,44840,6,0,P|341:128|328:133,1,30,2|0,0:0|0:0,0:0:0:0:
256,190,45096,2,0,P|268:200|280:209,1,30,2|0,0:0|0:0,0:0:0:0:
258,304,45353,2,0,P|244:310|230:315,1,30,2|0,0:0|0:0,0:0:0:0:
165,247,45609,2,0,P|146:197|158:145,1,107.999996704102,10|0,0:0|0:0,0:0:0:0:
208,89,46122,2,0,L|250:99,1,35.9999989013672,2|0,3:0|0:0,0:0:0:0:
356,122,46378,6,0,P|358:88|345:58,1,67.5000025749208,6|0,0:3|0:0,0:0:0:0:
428,0,46635,2,0,P|425:33|439:64,1,67.5000025749208,2|0,0:0|0:0,0:0:0:0:
494,133,46891,2,0,P|463:140|429:173,1,67.5000025749208,2|0,0:0|0:0,0:0:0:0:
400,234,47148,2,0,P|411:283|419:348,1,107.999996704102,10|0,0:0|0:0,0:0:0:0:
340,365,47660,2,0,P|334:330|331:321,1,35.9999989013672,2|0,0:0|0:0,0:0:0:0:
241,273,47917,6,0,P|172:286|86:312,1,150,2|0,0:0|0:0,0:0:0:0:
48,377,48686,2,0,P|26:358|19:342,1,35.9999989013672,14|0,0:1|0:0,0:0:0:0:
117,244,48942,2,0,P|131:254|142:268,1,35.9999989013672,2|0,0:0|0:0,0:0:0:0:
4,252,49199,2,0,L|17:216,1,35.9999989013672,2|0,0:0|0:0,0:0:0:0:
128,101,49455,6,0,B|217:116|181:157|266:175,1,150,6|0,0:3|0:0,0:0:0:0:
272,46,50224,2,0,B|241:22|192:50|196:99|217:124,1,135.000005149842,10|0,0:0|0:0,0:0:0:0:
266,185,50737,2,0,P|294:183|311:172,1,45.0000017166138,2|0,0:0|0:0,0:0:0:0:
390,107,50994,6,0,P|386:87|382:69,1,38.9999982147218,2|0,0:0|0:0,0:0:0:0:
470,53,51250,2,0,P|474:72|479:91,1,38.9999982147218,2|0,0:0|0:0,0:0:0:0:
476,191,51507,2,0,P|503:181|523:175,1,38.9999982147218,2|0,0:0|0:0,0:0:0:0:
375,233,51763,2,0,P|326:252|244:291,1,135.000005149842,10|0,0:0|0:0,0:0:0:0:
304,358,52276,2,0,P|333:344|351:337,1,45.0000017166138,2|0,3:0|0:0,0:0:0:0:
202,369,52532,6,0,P|172:344|157:306,1,80.9999975280763,6|0,0:3|0:0,0:0:0:0:
163,224,52789,2,0,P|156:262|130:294,1,80.9999975280763,2|0,0:0|0:0,0:0:0:0:
56,330,53045,2,0,P|92:316|133:322,1,80.9999975280763,2|0,0:0|0:0,0:0:0:0:
251,287,53301,2,0,P|254:258|222:148,1,135.000005149842,10|0,0:0|0:0,0:0:0:0:
150,73,53814,2,0,P|183:82|205:83,1,45.0000017166138,2|0,0:0|0:0,0:0:0:0:
326,13,54071,6,0,P|381:10|426:56,1,107.999996704102,2|0,0:0|0:0,0:0:0:0:
478,103,54583,2,0,P|469:140|467:147,1,33.0000010070801,2|0,0:0|0:0,0:0:0:0:
389,146,54840,2,0,P|398:175|401:195,1,38.9999982147218,10|0,0:0|0:0,0:0:0:0:
472,268,55096,2,0,P|502:276|533:277,1,41.9999987182618,2|0,0:0|0:0,0:0:0:0:
353,330,55353,2,0,P|323:338|292:339,1,45.0000017166138,2|0,0:0|0:0,0:0:0:0:
494,362,55609,6,0,B|427:279|309:271|309:271|266:295|279:359,1,300,6|0,3:0|0:0,0:0:0:0:
202,379,56378,2,0,B|170:329|193:213|298:183|298:183|340:185,1,269.999991760254,10|0,0:0|0:0,0:0:0:0:
390,213,57148,1,2,0:0:0:0:
390,213,57917,2,0,P|395:163|382:132,1,48,2|0,0:0|0:0,0:0:0:0:
328,54,58173,2,0,P|323:104|336:135,1,48,2|0,0:0|0:0,0:0:0:0:
235,167,58430,2,0,P|240:117|227:86,1,48,2|0,0:0|0:0,0:0:0:0:
86,50,58686,6,0,B|36:21|1:72|1:72|23:154|102:177|179:122,1,300,6|0,3:0|0:0,0:0:0:0:
224,24,59455,2,0,B|144:76|193:155|220:117|233:202|198:247|198:247|136:228,1,269.999991760254,10|0,0:0|0:0,0:0:0:0:
128,311,60224,2,0,P|158:319|174:325,1,44.999998626709,2|0,0:0|0:0,0:0:0:0:
271,354,60994,2,0,L|265:327,1,15,2|0,0:0|0:0,0:0:0:0:
337,300,61250,2,0,L|331:273,1,24,2|0,0:0|0:0,0:0:0:0:
403,246,61507,2,0,L|394:207,1,38.9999982147218,2|0,0:0|0:0,0:0:0:0:
482,101,61763,6,0,P|394:124|248:156,1,240,6|0,3:0|0:0,0:0:0:0:
103,64,62532,2,0,B|126:24|173:29|215:85|153:155,1,180,14|0,0:1|0:0,0:0:0:0:
94,198,63045,2,0,L|13:180,1,60,2|0,0:0|0:0,0:0:0:0:
155,267,63301,6,0,P|185:225|183:208,1,53.9999983520508,2|0,0:0|0:0,0:0:0:0:
227,109,63558,2,0,P|248:155|264:162,1,53.9999983520508,2|0,0:0|0:0,0:0:0:0:
327,250,63814,2,0,P|275:245|261:255,1,53.9999983520508,2|0,0:0|0:0,0:0:0:0:
187,341,64071,2,0,P|260:354|371:387,1,180,10|0,0:0|0:0,0:0:0:0:
334,239,64583,2,0,P|282:234|264:241,1,60,2|0,3:0|0:0,0:0:0:0:
413,318,64840,6,0,L|427:191,1,99.0000030212403,6|0,0:3|0:0,0:0:0:0:
323,140,65096,2,0,L|334:239,1,99.0000030212403,2|0,0:0|0:0,0:0:0:0:
447,223,65353,2,0,L|461:96,1,99.0000030212403,2|0,0:0|0:0,0:0:0:0:
319,66,65609,2,0,B|283:53|239:80|258:99|224:142|174:132,1,153.000002918243,10|0,0:0|0:0,0:0:0:0:
146,60,66122,2,0,P|166:45|201:36,1,51.0000009727478,2|0,0:0|0:0,0:0:0:0:
187,220,66378,6,0,P|123:197|58:178,1,135.000005149842,2|0,0:0|0:0,0:0:0:0:
55,48,66891,2,0,P|66:80|76:102,1,45.0000017166138,2|0,0:0|0:0,0:0:0:0:
146,60,67148,2,0,P|135:28|125:6,1,51.0000009727478,14|0,0:1|0:0,0:0:0:0:
59,179,67404,2,0,P|102:165|120:160,1,51.0000009727478,2|0,0:0|0:0,0:0:0:0:
192,133,67660,2,0,P|235:147|253:152,1,51.0000009727478,2|0,0:0|0:0,0:0:0:0:
401,223,67917,6,0,B|483:200|519:96|460:26|460:26|404:55,1,300,6|0,0:3|0:0,0:0:0:0:
321,34,68686,2,0,B|310:107|382:157|379:114|426:143|427:233|427:233|378:213,1,269.999991760254,10|0,0:0|0:0,0:0:0:0:
321,200,69455,2,0,P|297:207|271:213,1,45,2|0,0:0|0:0,0:0:0:0:
252,282,69968,6,0,L|256:305,1,15,2|0,0:0|0:0,0:0:0:0:
169,253,70224,2,0,L|174:284,1,30,6|0,0:1|0:0,0:0:0:0:
86,224,70481,2,0,L|92:259,1,35.9999989013672,2|0,0:0|0:0,0:0:0:0:
3,195,70737,2,0,L|10:238,1,45.0000017166138,2|0,3:0|0:0,0:0:0:0:
44,62,70994,6,0,P|42:72|5:269,1,180,6|0,3:0|0:0,0:0:0:0:
67,295,71507,2,0,L|77:357,1,60,2|0,0:0|0:0,0:0:0:0:
256,273,71763,2,0,B|208:300|129:260|161:247|76:178|10:238,1,269.999991760254,10|0,0:0|0:0,0:0:0:0:
83,384,72532,2,0,L|66:290,1,89.9999972534181,2|0,0:1|0:0,0:0:0:0:
9,238,73301,2,0,P|-11:269|-11:298,1,48,6|0,0:1|0:0,0:0:0:0:
143,268,73558,2,0,P|126:235|101:220,1,48,2|0,0:0|0:0,0:0:0:0:
37,148,73814,2,0,L|27:88,1,48,2|0,0:0|0:0,0:0:0:0:
107,22,74071,6,0,P|168:37|322:71,1,209.999993591309,6|0,0:3|0:0,0:0:0:0:
434,27,74840,2,0,B|430:0|363:-3|363:-3|398:22|405:42,1,125.999996154785,10|0,0:0|0:0,0:0:0:0:
451,167,75353,1,2,0:0:0:0:
481,160,75481,1,2,0:0:0:0:
511,153,75609,2,0,P|453:133|347:116,1,135.000005149842,2|0,0:0|0:0,0:0:0:0:
329,176,76122,2,0,L|341:233,1,45.0000017166138,2|0,0:0|0:0,0:0:0:0:
477,260,76378,2,0,P|437:246|407:261,1,45.0000017166138,10|0,0:0|0:0,0:0:0:0:
262,290,76635,2,0,P|249:312|245:343,1,45.0000017166138,2|0,0:0|0:0,0:0:0:0:
407,319,76891,2,0,P|458:332|477:340,1,60,2|0,3:0|0:0,0:0:0:0:
274,282,77148,6,0,P|206:258|126:228,1,143.999995605469,4|0,3:0|0:0,0:0:0:0:
268,68,77917,2,0,B|292:94|314:105|314:105|289:134|263:203,1,143.999995605469,10|0,0:0|0:0,0:0:0:0:
104,47,78686,2,0,P|156:6|226:21,1,120,2|2,0:0|0:0,0:0:0:0:
103,213,79455,1,10,0:0:0:0:
23,63,79712,1,2,0:0:0:0:
176,146,79968,1,2,0:0:0:0:
17,271,80224,1,6,0:1:0:0:
17,271,80994,6,0,P|101:285|114:288,1,83.9999974365235,2|2,0:0|0:0,0:0:0:0:
170,329,81635,1,2,0:0:0:0:
170,329,81763,1,2,0:0:0:0:
294,230,82276,1,2,0:0:0:0:
322,336,82532,1,2,0:0:0:0:
186,230,82789,1,2,0:0:0:0:
255,102,83045,1,2,0:0:0:0:
204,0,83301,6,0,P|213:52|228:136,1,125.999996154785,6|2,0:1|0:0,0:0:0:0:
232,132,84583,1,2,0:0:0:0:
232,132,84840,1,2,0:0:0:0:
256,192,84968,12,0,88622,0:0:0:0:
