osu file format v14

[General]
AudioFilename: audio.mp3
AudioLeadIn: 0
PreviewTime: 54851
Countdown: 0
SampleSet: Soft
StackLeniency: 0.7
Mode: 0
LetterboxInBreaks: 0
WidescreenStoryboard: 0

[Editor]
Bookmarks: 30837
DistanceSpacing: 2.3
BeatDivisor: 6
GridSize: 16
TimelineZoom: 1.9

[Metadata]
Title:Prover (TV Size)
TitleUnicode:Prover (TV Size)
Artist:milet
ArtistUnicode:milet
Creator:-Eresh
Version:Advanced
Source:Fate/Grand Order: Absolute Demonic Front - Babylonia
Tags:ミレイ fgo f/go -絶対魔獣戦線バビロニア- zettai majuu sensen delight works delightworks ディライトワークス type moon typemoon japanese pop jpop j-pop anime ending cour 2 2nd
BeatmapID:2634742
BeatmapSetID:1089551

[Difficulty]
HPDrainRate:3
CircleSize:3.3
OverallDifficulty:5
ApproachRate:5
SliderMultiplier:1.1
SliderTickRate:1

[Events]
//Background and Video events
0,0,"ybBRASf.jpg",0,0
Video,-360,"580ayv.mp4"
//Break Periods
//Storyboard Layer 0 (Background)
//Storyboard Layer 1 (Fail)
//Storyboard Layer 2 (Pass)
//Storyboard Layer 3 (Foreground)
//Storyboard Layer 4 (Overlay)
//Storyboard Sound Samples

[TimingPoints]
225,769.230769230769,4,2,1,30,1,0
225,-100,4,2,1,30,0,0
1507,-100,4,2,1,5,0,0
1763,-100,4,2,1,40,0,0
3045,-100,4,2,1,5,0,0
3301,-100,4,2,1,30,0,0
4583,-100,4,2,1,5,0,0
4840,-100,4,2,1,30,0,0
6378,-100,4,2,1,40,0,0
6891,-100,4,2,1,5,0,0
7148,-100,4,2,1,40,0,0
13045,-100,4,2,1,5,0,0
13302,-100,4,2,1,40,0,0
18686,-100,4,2,1,50,0,0
30994,-100,4,2,1,45,0,0
43301,-100,4,2,1,55,0,0
49455,-100,4,2,1,65,0,0
55609,-100,4,2,1,80,0,1
57148,-100,4,2,1,80,0,0
58686,-100,4,2,1,80,0,1
60224,-100,4,2,1,80,0,0
61763,-100,4,2,1,80,0,1
66378,-100,4,2,1,80,0,0
67917,-100,4,2,1,80,0,1
69455,-100,4,2,1,80,0,0
70994,-100,4,2,1,80,0,1
72532,-100,4,2,1,80,0,0
74071,-100,4,2,1,70,0,0
80224,-100,4,2,1,50,0,0
83301,-100,4,2,1,20,0,0

[Colours]
Combo1 : 254,164,41
Combo2 : 242,41,19
Combo3 : 234,204,185

[HitObjects]
131,346,225,6,0,P|121:298|126:155,1,183.333333333333,2|0,0:0|0:0,0:0:0:0:
68,106,1763,2,0,P|86:59|209:29,1,183.333333333333,2|0,0:0|0:0,0:0:0:0:
275,64,3301,2,0,B|324:84|379:65|345:49|412:13|458:43,1,183.333333333333,2|0,0:0|0:0,0:0:0:0:
424,115,4840,2,0,P|411:144|388:232,1,110,2|0,0:0|0:0,0:0:0:0:
389,219,6122,1,2,0:0:0:0:
450,282,6378,6,0,P|464:330|468:357,1,73.3333333333333,6|0,3:0|0:0,0:0:0:0:
389,376,7148,2,0,P|375:328|371:301,1,73.3333333333333,2|2,0:0|0:0,0:0:0:0:
322,240,7917,1,2,0:0:0:0:
322,240,8173,1,2,0:0:0:0:
322,240,8430,2,0,P|278:235|201:221,1,110,2|2,0:0|0:0,0:0:0:0:
149,174,9455,5,2,0:0:0:0:
203,114,9712,2,0,P|246:107|284:102,1,73.3333333333333,2|2,0:0|0:0,0:0:0:0:
413,20,10737,1,2,0:0:0:0:
380,94,10994,2,0,P|380:120|411:278,1,183.333333333333,2|2,0:0|0:0,0:0:0:0:
368,343,12532,6,0,P|341:328|306:301,1,73.3333333333333,2|0,0:0|0:0,0:0:0:0:
270,230,13301,2,0,P|241:207|209:189,1,73.3333333333333,2|0,0:0|0:0,0:0:0:0:
157,253,14071,1,2,0:0:0:0:
157,253,14327,1,2,0:0:0:0:
157,253,14583,2,0,P|102:269|54:234,1,110,2|2,0:0|0:0,0:0:0:0:
31,167,15609,5,2,0:0:0:0:
92,114,15866,2,0,P|126:119|171:131,1,73.3333333333333,2|2,0:0|0:0,0:0:0:0:
318,84,16891,1,2,0:0:0:0:
315,164,17148,2,0,P|281:159|236:147,1,73.3333333333333,2|2,0:0|0:0,0:0:0:0:
212,74,17917,2,0,P|197:45|191:30,1,36.6666666666667,6|2,0:1|0:0,0:0:0:0:
117,62,18430,1,2,0:0:0:0:
36,54,18686,6,0,P|3:76|-14:146,1,110,6|2,3:0|0:0,0:0:0:0:
80,271,19968,1,2,0:0:0:0:
143,221,20224,2,0,L|166:214,1,18.3333333333333,2|2,0:0|0:0,0:0:0:0:
274,256,20737,1,0,0:0:0:0:
327,316,20994,2,0,P|354:309|367:306,2,36.6666666666667,2|2|2,0:0|0:0|0:0,0:0:0:0:
250,340,21763,5,2,0:0:0:0:
491,321,22532,2,0,P|476:294|449:255,1,73.3333333333333,2|2,0:0|0:0,0:0:0:0:
405,192,23301,2,0,L|406:159,1,18.3333333333333,2|2,0:0|0:0,0:0:0:0:
458,64,23814,1,0,0:0:0:0:
377,54,24071,2,0,P|370:83|365:97,2,36.6666666666667,2|2|2,0:0|0:0|0:0,0:0:0:0:
299,32,24840,6,0,P|252:35|187:52,1,110,2|2,0:0|0:0,0:0:0:0:
70,157,26122,1,2,0:0:0:0:
30,86,26378,2,0,L|37:62,1,18.3333333333333,2|2,0:0|0:0,0:0:0:0:
158,228,27148,2,0,P|136:263|132:273,2,36.6666666666667,2|2|2,0:0|0:0|0:0,0:0:0:0:
160,147,27917,6,0,P|189:142|238:134,1,73.3333333333333,2|0,0:0|0:0,0:0:0:0:
306,165,28686,2,0,P|324:176|342:184,2,36.6666666666667,2|2|2,0:0|0:0|0:0,0:0:0:0:
295,84,29455,2,0,P|322:47|393:34,1,110,2|2,0:0|0:0,0:0:0:0:
489,151,30737,1,2,0:0:0:0:
489,151,30994,6,0,P|483:183|469:266,1,110,6|2,0:3|0:0,0:0:0:0:
470,259,32532,1,2,0:0:0:0:
391,279,32789,1,2,0:0:0:0:
313,299,33045,1,2,0:0:0:0:
235,320,33301,2,0,P|196:310|155:296,1,73.3333333333333,2|2,0:0|0:0,0:0:0:0:
87,273,34071,6,0,P|58:278|39:282,2,36.6666666666667,2|2|2,0:0|0:0|0:0,0:0:0:0:
147,219,34840,2,0,P|150:188|134:138,1,73.3333333333333,2|2,0:0|0:0,0:0:0:0:
70,105,35609,2,0,P|65:71|186:29,1,183.333333333333,2|2,0:0|0:0,0:0:0:0:
231,80,37148,6,0,P|303:73|328:44,1,110,6|2,0:3|0:0,0:0:0:0:
325,47,38430,1,2,0:0:0:0:
396,84,38686,1,2,0:0:0:0:
417,161,38942,1,2,0:0:0:0:
384,234,39199,1,2,0:0:0:0:
313,272,39455,2,0,P|279:263|240:250,1,73.3333333333333,2|2,0:0|0:0,0:0:0:0:
162,260,40224,6,0,P|150:278|140:304,2,36.6666666666667,2|2|2,0:0|0:0|0:0,0:0:0:0:
119,190,40994,2,0,P|98:168|45:156,1,73.3333333333333,2|2,0:0|0:0,0:0:0:0:
16,224,41763,2,0,P|6:262|9:303,1,73.3333333333333,2|0,0:0|0:0,0:0:0:0:
60,356,42532,2,0,P|96:359|110:361,1,36.6666666666667,6|2,0:1|0:0,0:0:0:0:
165,316,43045,1,2,0:0:0:0:
236,352,43301,6,0,P|261:345|311:331,1,73.3333333333333,6|0,0:3|0:0,0:0:0:0:
386,345,44071,2,0,P|426:310|430:288,1,73.3333333333333,10|2,0:0|0:0,0:0:0:0:
375,231,44840,2,0,P|367:200|366:188,1,36.6666666666667,2|2,0:0|0:0,0:0:0:0:
407,125,45353,1,2,0:0:0:0:
343,75,45609,2,0,P|299:82|264:91,1,73.3333333333333,10|2,0:0|3:0,0:0:0:0:
193,112,46378,5,6,0:3:0:0:
129,162,46635,1,2,0:0:0:0:
136,242,46891,1,2,0:0:0:0:
199,291,47148,2,0,P|236:284|276:277,1,73.3333333333333,10|2,0:0|0:0,0:0:0:0:
321,214,47917,2,0,P|376:223|394:242,1,73.3333333333333,2|0,0:0|0:0,0:0:0:0:
389,314,48686,2,0,L|345:324,1,36.6666666666667,14|2,0:1|0:0,0:0:0:0:
283,363,49199,1,2,0:0:0:0:
207,336,49455,6,0,P|187:329|126:319,1,73.3333333333333,6|2,0:3|0:0,0:0:0:0:
72,369,50224,2,0,P|59:345|59:293,1,73.3333333333333,10|2,0:0|0:0,0:0:0:0:
114,242,50994,2,0,P|146:232|162:227,1,36.6666666666667,2|2,0:0|0:0,0:0:0:0:
207,175,51507,1,2,0:0:0:0:
266,229,51763,2,0,P|288:234|339:238,1,73.3333333333333,10|2,0:0|3:0,0:0:0:0:
386,172,52532,5,6,0:3:0:0:
393,91,52789,1,2,0:0:0:0:
341,29,53045,1,2,0:0:0:0:
261,19,53301,2,0,P|230:27|186:36,1,73.3333333333333,10|2,0:0|0:0,0:0:0:0:
143,101,54071,2,0,P|121:81|110:30,1,73.3333333333333,2|2,0:0|0:0,0:0:0:0:
29,23,54840,2,0,P|27:52|31:68,1,36.6666666666667,10|2,0:0|0:0,0:0:0:0:
64,131,55353,1,2,0:0:0:0:
41,208,55609,6,0,P|35:251|53:328,1,110,6|10,3:0|0:0,0:0:0:0:
47,315,57917,1,2,0:0:0:0:
126,324,58173,1,2,0:0:0:0:
206,333,58430,1,2,0:0:0:0:
285,343,58686,6,0,P|337:325|401:307,1,110,6|10,3:0|0:0,0:0:0:0:
389,309,60994,1,2,0:0:0:0:
423,236,61250,1,2,0:0:0:0:
407,156,61507,1,2,0:0:0:0:
339,111,61763,6,0,P|289:122|219:142,1,110,6|14,3:0|0:1,0:0:0:0:
232,137,63045,1,2,0:0:0:0:
162,177,63301,2,0,P|136:165|120:156,1,36.6666666666667,2|2,0:0|0:0,0:0:0:0:
63,114,63814,1,2,0:0:0:0:
116,53,64071,2,0,P|150:41|198:29,1,73.3333333333333,10|2,0:0|3:0,0:0:0:0:
263,53,64840,5,6,0:3:0:0:
336,85,65096,1,2,0:0:0:0:
373,156,65353,1,2,0:0:0:0:
355,234,65609,2,0,P|341:286|337:309,1,73.3333333333333,10|2,0:0|0:0,0:0:0:0:
415,326,66378,2,0,P|429:274|433:251,1,73.3333333333333,2|2,0:0|0:0,0:0:0:0:
412,176,67148,2,0,P|405:142|406:129,1,36.6666666666667,14|2,0:1|0:0,0:0:0:0:
449,73,67660,1,2,0:0:0:0:
382,27,67917,6,0,P|329:22|267:35,1,110,6|10,0:3|0:0,0:0:0:0:
273,32,69968,1,2,0:0:0:0:
206,77,70224,1,6,0:1:0:0:
128,99,70481,1,2,0:0:0:0:
51,73,70737,1,2,3:0:0:0:
10,3,70994,6,0,P|47:-8|111:20,1,110,6|10,3:0|0:0,0:0:0:0:
101,26,73301,1,6,0:1:0:0:
92,106,73558,1,2,0:0:0:0:
84,185,73814,1,2,0:0:0:0:
76,266,74071,6,0,P|86:295|110:377,1,110,6|10,0:3|0:0,0:0:0:0:
17,365,75353,2,0,L|0:369,2,18.3333333333333,2|2|2,0:0|0:0|0:0,0:0:0:0:
108,371,76122,1,2,0:0:0:0:
188,366,76379,1,10,0:0:0:0:
244,308,76635,1,2,0:0:0:0:
239,227,76891,1,2,3:0:0:0:
174,178,77148,2,0,P|166:142|150:66,1,110,4|10,3:0|0:0,0:0:0:0:
388,26,78686,2,0,P|396:62|412:138,1,110,2|10,0:0|0:0,0:0:0:0:
324,271,79968,1,2,0:0:0:0:
324,271,80224,6,0,P|284:271|209:252,1,110,6|2,0:1|0:0,0:0:0:0:
182,336,81507,2,0,L|173:362,2,18.3333333333333,2|2|2,0:0|0:0|0:0,0:0:0:0:
216,254,82276,1,2,0:0:0:0:
171,217,82533,1,2,0:0:0:0:
114,223,82789,1,2,0:0:0:0:
77,265,83045,1,2,0:0:0:0:
72,321,83301,6,0,P|106:331|188:358,2,110,6|2|2,0:1|0:0|0:0,0:0:0:0:
256,192,84968,12,0,88622,0:0:0:0:
