osu file format v14

[General]
AudioFilename: fly high.mp3
AudioLeadIn: 0
PreviewTime: 60733
Countdown: 0
SampleSet: Soft
StackLeniency: 0.2
Mode: 0
LetterboxInBreaks: 0
WidescreenStoryboard: 0

[Editor]
DistanceSpacing: 1.3
BeatDivisor: 4
GridSize: 4
TimelineZoom: 2.899999

[Metadata]
Title:Fly High
TitleUnicode:Fly High
Artist:milet
ArtistUnicode:milet
Creator:Kyouren
Version:GANBATTE
Source:NHKウィンタースポーツ
Tags:NHK winter sports theme song Broadcasts visions TomoLow ミレイ Mirei jpop j-pop pop japanese japan teaser short version ver ver. gokugohan12468 kittyadventure Aurorance Ducky- AlwaysChoke -_ascended_- ascended -ascended- sport broadcast female vocal vocals vocalist テーマソング
BeatmapID:3446999
BeatmapSetID:1686549

[Difficulty]
HPDrainRate:5
CircleSize:4
OverallDifficulty:8
ApproachRate:9
SliderMultiplier:1.8
SliderTickRate:1

[Events]
//Background and Video events
0,0,"96416227_p0.jpg",0,0
//Break Periods
//Storyboard Layer 0 (Background)
//Storyboard Layer 1 (Fail)
//Storyboard Layer 2 (Pass)
//Storyboard Layer 3 (Foreground)
//Storyboard Layer 4 (Overlay)
//Storyboard Sound Samples

[TimingPoints]
3865,618.556701030928,4,2,2,20,1,0
8813,-117.647058823529,4,2,2,45,0,0
8968,-117.647058823529,4,2,2,45,0,0
9122,-117.647058823529,4,2,2,35,0,0
12988,-176.991150442478,4,2,2,35,0,0
13761,-117.647058823529,4,2,2,35,0,0
18710,-117.647058823529,4,2,2,45,0,0
28607,-100,4,2,2,55,0,0
29535,-100,4,2,2,45,0,0
29844,-117.647058823529,4,2,2,45,0,0
32937,-100,4,2,2,55,0,0
34483,-100,4,2,2,45,0,0
34792,-117.647058823529,4,2,2,45,0,0
35875,-100,4,2,2,55,0,0
36957,-100,4,2,2,45,0,0
37267,-117.647058823529,4,2,2,45,0,0
37885,-100,4,2,2,55,0,0
38194,-100,4,2,2,45,0,0
38504,-83.3333333333333,4,2,2,65,0,0
57834,-1000,4,2,2,50,0,0
58297,-1000,4,2,2,50,0,0
59380,-1000,4,2,2,5,0,0
59535,-66.6666666666667,4,2,2,55,0,0
59612,-66.6666666666667,4,2,2,15,0,0
60153,-66.6666666666667,4,2,2,55,0,0
60230,-66.6666666666667,4,2,2,15,0,0
60772,-50,4,2,3,75,0,1
60926,-50,4,2,2,75,0,1
61236,-50,4,2,1,75,0,1
70050,-66.6666666666667,4,2,1,75,0,0
70669,-50,4,2,3,75,0,1
70823,-50,4,2,2,75,0,1
71133,-50,4,2,1,75,0,1
79947,-66.6666666666667,4,2,1,75,0,0
80566,-50,4,2,3,85,0,1
80720,-50,4,2,2,85,0,1
80875,-50,4,2,1,85,0,1
89225,-50,4,2,1,85,0,1
89844,-50,4,2,1,85,0,0
90462,-50,4,2,3,85,0,1
90617,-50,4,2,2,85,0,1
90771,-50,4,2,1,85,0,1
100205,-50,4,2,1,65,0,0
100978,-50,4,2,1,65,0,0

[Colours]
Combo1 : 117,227,197
Combo2 : 173,255,95
Combo3 : 17,254,176
Combo4 : 113,173,223

[HitObjects]
70,70,8813,6,0,L|146:75,1,76.5000014591217,6|0,2:3|2:2,0:0:0:0:
220,40,9277,2,0,P|238:72|236:110,1,76.5000014591217,2|0,2:2|2:2,0:0:0:0:
175,170,9741,1,2,2:2:0:0:
175,170,10050,6,0,P|156:202|158:240,1,76.5000014591217,2|0,2:2|2:2,0:0:0:0:
125,315,10514,2,0,P|169:281|225:284,1,114.750002188683,2|0,2:2|2:2,0:0:0:0:
415,290,11287,6,0,P|434:258|432:220,1,76.5000014591217,2|0,2:2|2:2,0:0:0:0:
350,200,11751,2,0,P|330:232|333:270,1,76.5000014591217,2|0,2:2|2:2,0:0:0:0:
415,290,12215,1,2,2:2:0:0:
350,200,12524,6,0,P|360:164|348:127,1,76.5000014591217,2|0,2:2|2:2,0:0:0:0:
260,130,12988,2,0,P|249:166|261:202,1,76.5000014591217,2|0,2:2|2:2,0:0:0:0:
220,280,13607,5,2,2:2:0:0:
155,225,13761,2,0,L|78:232,1,76.5000014591217,2|0,2:2|2:2,0:0:0:0:
120,150,14225,2,0,L|43:157,1,76.5000014591217,2|0,2:2|2:2,0:0:0:0:
0,90,14689,1,2,2:2:0:0:
0,90,14999,6,0,L|7:13,1,76.5000014591217,2|0,2:2|2:2,0:0:0:0:
120,150,15462,2,0,L|131:35,1,114.750002188683,2|0,2:2|2:2,0:0:0:0:
340,190,16236,6,0,P|326:154|337:118,1,76.5000014591217,2|0,2:2|2:2,0:0:0:0:
425,115,16700,2,0,P|438:150|427:186,1,76.5000014591217,2|0,2:2|2:2,0:0:0:0:
390,265,17163,2,0,P|408:266|425:275,1,38.2500007295609,2|0,2:2|2:2,0:0:0:0:
315,305,17473,6,0,P|323:342|315:379,1,76.5000014591217,2|2,2:2|2:2,0:0:0:0:
240,260,18091,2,0,P|191:289|135:291,1,114.750002188683,2|0,2:2|2:2,0:0:0:0:
55,260,18710,6,0,P|42:224|50:187,1,76.5000014591217,2|0,3:2|2:2,0:0:0:0:
115,125,19174,2,0,P|151:116|187:129,1,76.5000014591217,2|0,2:2|2:2,0:0:0:0:
275,145,19638,2,0,P|272:126|275:107,1,38.2500007295609,2|0,2:2|2:2,0:0:0:0:
255,25,19947,6,0,P|296:63|352:68,1,114.750002188683,2|2,2:2|2:2,0:0:0:0:
425,25,20566,1,2,2:2:0:0:
495,80,20720,2,0,P|464:102|451:137,1,76.5000014591217,2|0,2:2|2:2,0:0:0:0:
470,230,21184,6,0,P|434:216|396:221,1,76.5000014591217,2|0,2:2|2:2,0:0:0:0:
325,185,21648,2,0,P|303:215|300:253,1,76.5000014591217,2|0,2:2|2:2,0:0:0:0:
240,310,22112,2,0,P|237:328|241:347,1,38.2500007295609,2|0,2:2|2:2,0:0:0:0:
175,245,22421,6,0,P|122:266|65:270,1,114.750002188683,2|2,2:2|2:2,0:0:0:0:
5,215,23040,1,2,2:2:0:0:
55,145,23194,2,0,L|52:107,1,38.2500007295609,2|0,2:2|2:2,0:0:0:0:
130,80,23504,5,2,2:2:0:0:
130,80,23658,2,0,L|136:156,1,76.5000014591217,2|0,2:2|2:2,0:0:0:0:
210,60,24122,2,0,L|216:136,1,76.5000014591217,2|0,2:2|2:2,0:0:0:0:
290,45,24586,2,0,L|293:83,1,38.2500007295609,2|0,2:2|2:2,0:0:0:0:
370,20,24895,6,0,L|379:134,1,114.750002188683,2|2,2:2|2:2,0:0:0:0:
450,180,25514,1,2,2:2:0:0:
395,245,25669,2,0,P|363:265|325:270,1,76.5000014591217,2|0,2:2|2:2,0:0:0:0:
230,240,26133,6,0,P|243:275|241:313,1,76.5000014591217,2|0,2:2|2:2,0:0:0:0:
160,290,26596,2,0,P|144:324|115:349,1,76.5000014591217,2|0,2:2|2:2,0:0:0:0:
80,275,27060,2,0,P|61:281|42:282,1,38.2500007295609,2|0,2:2|2:2,0:0:0:0:
50,195,27370,6,0,P|39:158|49:121,1,76.5000014591217,2|2,2:2|2:2,0:0:0:0:
205,25,27988,2,0,P|206:44|205:63,1,38.2500007295609,2|2,2:2|2:2,0:0:0:0:
125,65,28297,2,0,P|123:45|124:26,1,38.2500007295609,2|2,2:2|2:2,0:0:0:0:
255,130,28607,6,0,L|344:119,1,90,6|0,2:3|2:2,0:0:0:0:
350,35,29071,2,0,L|439:45,1,90,6|0,2:3|2:2,0:0:0:0:
490,115,29535,1,2,2:2:0:0:
490,115,29844,6,0,B|494:185|468:165|472:227,1,114.750002188683,2|2,2:2|2:2,0:0:0:0:
425,295,30462,1,2,2:2:0:0:
425,295,30617,2,0,P|411:282|393:275,1,38.2500007295609,2|0,2:2|2:2,0:0:0:0:
320,240,30926,1,2,2:2:0:0:
265,175,31081,6,0,P|227:180|200:206,1,76.5000014591217,2|0,2:2|2:2,0:0:0:0:
110,245,31545,2,0,P|123:209|114:173,1,76.5000014591217,2|0,2:2|2:2,0:0:0:0:
45,125,32009,1,2,2:2:0:0:
45,125,32318,6,0,L|54:10,1,114.750002188683,2|2,2:2|2:2,0:0:0:0:
54,10,32937,5,6,2:3:0:0:
114,173,33091,2,0,P|157:165|186:132,1,90,6|2,2:3|2:2,0:0:0:0:
200,30,33555,6,0,P|231:61|274:69,1,90,6|0,2:3|2:2,0:0:0:0:
380,45,34019,2,0,P|357:82|363:126,1,90,6|0,2:3|2:2,0:0:0:0:
425,185,34483,1,2,2:2:0:0:
425,185,34792,6,0,P|376:212|355:265,1,114.750002188683,2|2,2:2|2:2,0:0:0:0:
295,325,35411,1,2,2:2:0:0:
225,275,35566,2,0,P|206:268|193:255,1,38.2500007295609,2|0,2:2|2:2,0:0:0:0:
180,110,35875,5,6,2:3:0:0:
145,185,36029,2,0,P|107:209|63:213,1,90,6|0,2:3|2:2,0:0:0:0:
50,130,36493,2,0,P|19:97|13:53,1,90,6|0,2:3|2:2,0:0:0:0:
90,20,36957,1,2,2:2:0:0:
90,20,37267,6,0,B|145:25|145:25|145:28|145:28|202:32,1,114.750002188683,2|0,2:2|2:2,0:0:0:0:
280,10,37885,1,6,2:3:0:0:
310,190,38040,1,6,2:3:0:0:
235,150,38194,2,0,L|242:105,1,45,2|0,2:2|2:2,0:0:0:0:
380,140,38504,6,0,B|402:189|402:189|381:239,1,107.999996704102,6|0,2:3|2:2,0:0:0:0:
310,280,38968,2,0,P|362:282|396:322,1,107.999996704102,6|0,2:3|2:2,0:0:0:0:
235,235,39432,2,0,L|182:242,1,53.9999983520508,6|0,2:3|2:2,0:0:0:0:
0,190,39741,6,0,B|52:197|52:197|53:200|53:200|105:207,1,107.999996704102,2|0,2:2|2:2,0:0:0:0:
181,242,40205,1,0,2:2:0:0:
90,120,40359,2,0,P|130:85|182:90,1,107.999996704102,2|0,2:2|2:2,0:0:0:0:
350,75,40823,5,6,2:3:0:0:
260,35,40978,2,0,L|267:142,1,107.999996704102,6|0,2:3|2:2,0:0:0:0:
310,225,41442,2,0,P|350:190|402:195,1,107.999996704102,6|0,2:3|2:2,0:0:0:0:
225,220,41906,2,0,L|221:273,1,53.9999983520508,6|0,2:3|2:2,0:0:0:0:
245,350,42215,6,0,P|205:315|153:320,1,107.999996704102,2|0,2:2|2:2,0:0:0:0:
80,360,42679,1,2,3:2:0:0:
50,235,42834,1,6,2:3:0:0:
5,310,42988,1,6,2:3:0:0:
50,235,43143,2,0,L|46:181,1,53.9999983520508,2|0,2:2|2:2,0:0:0:0:
5,110,43452,6,0,P|54:92|104:110,1,107.999996704102,6|2,2:3|2:2,0:0:0:0:
190,145,43916,2,0,L|182:37,1,107.999996704102,6|0,2:3|2:2,0:0:0:0:
274,185,44380,2,0,P|254:202|244:227,1,53.9999983520508,6|2,2:3|2:2,0:0:0:0:
430,245,44689,6,0,P|378:232|329:251,1,107.999996704102,2|0,2:2|2:2,0:0:0:0:
335,335,45153,2,0,P|386:347|435:328,1,107.999996704102,2|0,2:2|2:2,0:0:0:0:
430,245,45617,2,0,L|426:191,1,53.9999983520508,2|6,2:2|2:3,0:0:0:0:
266,77,45926,6,0,L|274:185,1,107.999996704102,6|2,2:3|2:2,0:0:0:0:
455,115,46390,2,0,P|402:110|359:141,1,107.999996704102,6|2,2:3|2:2,0:0:0:0:
210,240,46854,2,0,P|183:235|160:221,1,53.9999983520508,2|0,2:2|2:2,0:0:0:0:
75,215,47163,6,0,P|60:192|56:165,1,53.9999983520508,2|0,2:2|2:2,0:0:0:0:
0,105,47473,2,0,P|5:78|21:56,1,53.9999983520508,2|2,2:2|3:2,0:0:0:0:
150,10,47782,1,6,2:3:0:0:
266,77,47937,1,6,2:3:0:0:
335,25,48091,2,0,P|347:48|352:75,1,53.9999983520508,2|0,2:2|2:2,0:0:0:0:
300,250,48401,6,0,L|407:241,1,107.999996704102,6|0,2:3|2:2,0:0:0:0:
480,190,48865,2,0,P|500:238|488:290,1,107.999996704102,6|0,2:3|2:2,0:0:0:0:
304,302,49328,2,0,P|296:276|300:249,1,53.9999983520508,6|0,2:3|2:2,0:0:0:0:
175,280,49638,6,0,P|191:330|235:360,1,107.999996704102,2|2,2:2|2:2,0:0:0:0:
304,302,50102,1,0,2:2:0:0:
265,115,50256,2,0,P|229:154|225:207,1,107.999996704102,2|2,2:2|2:2,0:0:0:0:
5,190,50720,5,6,2:3:0:0:
45,115,50875,2,0,B|98:111|98:111|98:108|98:108|149:103,1,107.999996704102,6|0,2:3|2:2,0:0:0:0:
195,30,51339,2,0,B|224:27|246:13|246:13|262:28|294:35,1,107.999996704102,6|0,2:3|2:2,0:0:0:0:
380,25,51803,2,0,L|375:78,1,53.9999983520508,6|0,2:3|2:2,0:0:0:0:
482,69,52112,6,0,L|374:79,1,107.999996704102,2|0,2:2|2:2,0:0:0:0:
315,135,52576,1,2,3:2:0:0:
450,155,52730,2,0,L|396:159,1,53.9999983520508,6|0,2:3|2:2,0:0:0:0:
250,194,53040,1,2,2:2:0:0:
375,79,53194,1,2,2:2:0:0:
195,30,53349,6,0,L|186:137,1,107.999996704102,6|2,2:3|2:2,0:0:0:0:
250,194,53813,2,0,P|197:186|153:215,1,107.999996704102,6|0,2:3|2:2,0:0:0:0:
70,245,54277,2,0,P|74:218|68:192,1,53.9999983520508,6|2,2:3|2:2,0:0:0:0:
5,300,54586,6,0,P|57:293|102:320,1,107.999996704102,2|2,2:2|2:2,0:0:0:0:
180,360,55050,2,0,P|225:332|277:339,1,107.999996704102,2|0,2:2|2:2,0:0:0:0:
360,370,55514,2,0,P|356:343|362:317,1,53.9999983520508,2|6,2:2|2:3,0:0:0:0:
500,220,55823,6,0,P|454:247|402:240,1,107.999996704102,6|2,2:3|2:2,0:0:0:0:
310,140,56287,2,0,P|325:191|312:242,1,107.999996704102,6|0,2:3|2:2,0:0:0:0:
278,339,56751,2,0,P|261:317|237:307,1,53.9999983520508,6|2,2:3|2:2,0:0:0:0:
140,360,57060,6,0,P|153:308|137:257,1,107.999996704102,2|2,2:2|2:2,0:0:0:0:
70,310,57524,1,2,3:2:0:0:
100,140,57679,5,6,2:3:0:0:
137,257,57834,2,0,L|141:212,1,45,6|0,2:3|2:2,0:0:0:0:
100,140,59535,6,0,L|102:105,7,33.7500012874604,2|2|2|2|2|2|2|2,2:2|2:2|2:2|2:2|2:2|2:2|2:2|2:2,0:0:0:0:
85,115,60153,6,0,L|87:80,6,33.7500012874604,2|2|2|2|2|2|2,2:2|2:2|2:2|2:2|2:2|2:2|2:2,0:0:0:0:
19,204,60772,6,0,B|120:191|120:191|147:205|153:234|137:257,1,180,6|0,2:3|2:2,0:0:0:0:
55,290,61236,1,0,1:1:0:0:
190,130,61390,2,0,P|214:94|257:94,1,90,8|0,2:2|2:2,0:0:0:0:
395,65,61700,1,2,1:2:0:0:
315,25,61854,1,10,2:2:0:0:
305,165,62009,5,2,1:2:0:0:
390,150,62163,1,8,2:2:0:0:
257,94,62318,2,0,P|215:82|201:41,1,90,2|0,2:2|2:2,0:0:0:0:
305,165,62627,2,0,P|217:182|140:229,1,180,10|0,2:2|1:1,0:0:0:0:
100,300,63091,1,0,1:1:0:0:
56,117,63246,6,0,B|122:128|128:84|125:78|129:73|137:33|201:41,1,180,6|0,2:3|2:2,0:0:0:0:
282,7,63710,1,0,1:1:0:0:
282,7,63787,1,0,1:1:0:0:
282,7,63865,2,0,B|301:46|301:46|281:88,1,90,8|0,2:2|2:2,0:0:0:0:
215,145,64174,1,0,1:1:0:0:
365,105,64328,1,8,2:2:0:0:
281,88,64483,5,0,1:1:0:0:
380,190,64638,1,8,2:2:0:0:
245,225,64792,2,0,B|226:264|226:264|246:306,1,90,0|0,1:1|2:2,0:0:0:0:
500,360,65102,5,8,2:2:0:0:
510,280,65256,1,0,1:1:0:0:
430,270,65411,1,2,1:2:0:0:
420,350,65566,1,2,1:2:0:0:
246,306,65720,6,0,L|156:313,1,90,4|0,2:3|2:2,0:0:0:0:
0,220,66029,5,2,2:2:0:0:
60,160,66184,1,2,1:2:0:0:
80,245,66339,2,0,L|72:334,1,90,8|0,2:2|2:2,0:0:0:0:
281,88,66648,5,2,1:2:0:0:
220,30,66803,1,10,2:2:0:0:
155,85,66957,5,0,1:1:0:0:
335,25,67112,1,8,2:2:0:0:
325,160,67267,2,0,L|333:249,1,90,2|2,2:2|2:2,0:0:0:0:
215,145,67576,2,0,L|223:234,1,90,8|0,2:2|2:2,0:0:0:0:
175,300,67885,5,2,1:2:0:0:
333,249,68040,1,2,1:2:0:0:
215,145,68194,6,0,P|171:137|130:154,1,90,4|0,2:3|2:2,0:0:0:0:
65,215,68504,1,2,2:2:0:0:
40,10,68658,1,2,1:2:0:0:
5,85,68813,2,0,P|48:92|89:75,1,90,8|0,2:2|2:2,0:0:0:0:
245,15,69122,5,2,1:2:0:0:
215,145,69277,1,10,2:2:0:0:
180,70,69432,5,0,1:1:0:0:
300,150,69586,1,8,2:2:0:0:
155,210,69741,2,0,B|136:249|136:249|156:291,1,90,2|0,1:2|2:2,0:0:0:0:
385,335,70050,6,0,B|378:333|378:333|295:343,2,90.0000034332277,10|2|2,2:2|1:2|1:2,0:0:0:0:
495,200,70669,6,0,B|394:187|394:187|367:201|361:230|377:253,1,180,6|0,2:3|2:2,0:0:0:0:
455,285,71133,1,0,1:1:0:0:
300,120,71287,2,0,P|343:117|369:82,1,90,8|0,2:2|2:2,0:0:0:0:
245,50,71596,1,2,1:2:0:0:
275,200,71751,1,10,2:2:0:0:
300,120,71906,5,2,1:2:0:0:
160,40,72060,1,8,2:2:0:0:
85,80,72215,2,0,B|67:121|67:121|81:163,1,90,2|0,2:2|2:2,0:0:0:0:
50,245,72524,2,0,B|36:235|15:231|15:231|155:209,1,180,10|0,2:2|1:1,0:0:0:0:
220,270,72988,1,0,1:1:0:0:
452,107,73143,6,0,P|429:33|369:81,1,180,6|0,2:3|2:2,0:0:0:0:
487,207,73607,1,0,1:1:0:0:
487,207,73684,1,0,1:1:0:0:
487,207,73761,2,0,P|443:195|398:193,1,90,8|0,2:2|2:2,0:0:0:0:
325,155,74071,1,0,1:1:0:0:
285,335,74225,1,8,2:2:0:0:
240,185,74380,5,0,1:1:0:0:
220,270,74535,1,8,2:2:0:0:
155,215,74689,2,0,P|111:226|66:228,1,90,0|0,1:1|2:2,0:0:0:0:
0,20,74999,5,8,2:2:0:0:
80,30,75153,1,0,1:1:0:0:
160,40,75308,1,2,1:2:0:0:
240,50,75462,1,2,1:2:0:0:
67,228,75617,6,0,P|56:184|54:139,1,90,4|0,2:3|2:2,0:0:0:0:
54,139,75926,5,2,2:2:0:0:
35,335,76081,1,2,1:2:0:0:
110,370,76236,2,0,P|121:326|139:285,1,90,8|0,2:2|2:2,0:0:0:0:
139,285,76545,5,2,1:2:0:0:
67,228,76700,1,10,2:2:0:0:
160,40,76854,5,0,1:1:0:0:
190,120,77009,1,8,2:2:0:0:
265,165,77163,2,0,P|307:179|352:182,1,90,2|2,2:2|2:2,0:0:0:0:
139,285,77473,2,0,P|181:299|226:302,1,90,8|0,2:2|2:2,0:0:0:0:
54,142,77782,5,2,1:2:0:0:
190,120,77937,1,2,1:2:0:0:
326,98,78091,6,0,B|341:57|341:57|323:14,1,90,4|0,2:3|2:2,0:0:0:0:
250,60,78401,1,2,2:2:0:0:
290,255,78555,1,2,1:2:0:0:
226,302,78710,2,0,P|181:300|140:285,1,90,8|0,2:2|2:2,0:0:0:0:
298,332,79019,5,2,1:2:0:0:
290,255,79174,1,10,2:2:0:0:
326,98,79328,5,0,1:1:0:0:
335,180,79483,1,8,2:2:0:0:
400,130,79638,2,0,P|445:128|486:113,1,90,2|0,1:2|2:2,0:0:0:0:
250,60,79947,6,0,P|205:57|163:41,2,90.0000034332277,10|2|2,2:2|1:2|1:2,0:0:0:0:
326,98,80566,6,0,P|237:102|161:149,1,180,6|2,2:3|2:2,0:0:0:0:
125,230,81029,1,2,1:2:0:0:
15,70,81184,2,0,P|15:114|32:156,1,90,8|0,2:2|2:2,0:0:0:0:
210,220,81493,5,2,1:2:0:0:
90,310,81648,1,10,2:2:0:0:
125,230,81803,1,0,1:1:0:0:
5,320,81957,1,8,2:2:0:0:
140,380,82112,2,0,L|229:368,1,90,2|0,2:2|2:2,0:0:0:0:
325,375,82421,6,0,P|307:288|340:205,1,180,10|2,2:2|1:2,0:0:0:0:
415,165,82885,1,2,1:2:0:0:
255,15,83040,6,0,P|244:58|252:102,1,90,4|0,2:3|2:2,0:0:0:0:
325,60,83349,1,2,2:2:0:0:
255,15,83504,1,2,1:2:0:0:
195,165,83658,2,0,P|151:155|106:160,1,90,8|0,2:2|2:2,0:0:0:0:
55,230,83968,5,0,1:1:0:0:
85,75,84122,1,8,2:2:0:0:
107,160,84277,1,2,1:2:0:0:
5,45,84432,1,8,2:2:0:0:
167,19,84586,2,0,P|211:9|256:15,1,90,2|0,1:2|2:2,0:0:0:0:
496,37,84895,2,0,P|413:71|325:60,1,180,10|0,2:2|1:1,0:0:0:0:
255,15,85359,1,0,1:1:0:0:
425,154,85514,6,0,P|416:244|435:331,1,180,4|2,2:3|2:2,0:0:0:0:
265,345,85978,1,2,1:2:0:0:
330,295,86133,2,0,P|333:250|323:206,1,90,8|0,2:2|2:2,0:0:0:0:
120,185,86442,5,2,1:2:0:0:
265,130,86596,1,10,2:2:0:0:
205,195,86751,1,0,1:1:0:0:
265,45,86906,1,8,2:2:0:0:
190,10,87060,2,0,L|100:20,1,90,2|0,2:2|2:2,0:0:0:0:
264,130,87370,6,0,P|353:116|436:147,1,180,10|2,2:2|1:2,0:0:0:0:
480,220,87834,1,2,1:2:0:0:
490,85,87988,6,0,P|480:41|491:-1,1,90,4|0,2:3|2:2,0:0:0:0:
480,220,88297,1,2,2:2:0:0:
436,147,88452,1,2,1:2:0:0:
395,225,88607,2,0,P|385:268|396:311,1,90,8|0,2:2|2:2,0:0:0:0:
174,304,88916,5,0,1:1:0:0:
149,126,89070,1,8,2:2:0:0:
72,228,89225,5,0,1:1:0:0:
161,215,89380,1,0,1:1:0:0:
250,203,89534,1,10,2:2:0:0:
395,225,89689,5,0,1:1:0:0:
312,142,89844,1,10,2:2:0:0:
395,59,89999,1,0,2:2:0:0:
477,142,90153,1,2,1:2:0:0:
395,140,90308,1,0,1:1:0:0:
250,20,90462,6,0,P|166:52|77:63,1,180,6|2,2:3|2:2,0:0:0:0:
5,25,90926,1,2,1:2:0:0:
180,130,91081,2,0,P|185:174|184:219,1,90,8|0,2:2|2:2,0:0:0:0:
130,285,91390,5,2,1:2:0:0:
45,295,91545,1,10,2:2:0:0:
184,220,91700,1,0,1:1:0:0:
265,240,91854,1,8,2:2:0:0:
300,315,92009,2,0,P|344:306|388:302,1,90,2|0,2:2|2:2,0:0:0:0:
480,345,92318,6,0,P|469:256|486:167,1,180,10|2,2:2|1:2,0:0:0:0:
430,110,92782,1,2,1:2:0:0:
255,15,92937,6,0,P|256:59|246:103,1,90,4|0,2:3|2:2,0:0:0:0:
180,160,93246,1,2,2:2:0:0:
170,80,93401,1,2,1:2:0:0:
20,175,93555,2,0,P|58:151|100:137,1,90,8|0,2:2|2:2,0:0:0:0:
265,185,93865,5,0,1:1:0:0:
205,240,94019,1,8,2:2:0:0:
246,103,94174,1,2,1:2:0:0:
325,120,94328,1,8,2:2:0:0:
395,85,94483,2,0,P|379:126|387:170,1,90,2|0,1:2|2:2,0:0:0:0:
470,240,94792,2,0,P|386:268|338:342,1,180,10|0,2:2|1:1,0:0:0:0:
415,375,95256,1,0,1:1:0:0:
205,240,95411,6,0,P|124:203|35:211,1,180,4|2,2:3|2:2,0:0:0:0:
15,295,95875,1,2,1:2:0:0:
57,127,96029,2,0,P|50:82|25:45,1,90,8|0,2:2|2:2,0:0:0:0:
35,211,96339,5,2,1:2:0:0:
135,180,96493,1,10,2:2:0:0:
205,240,96648,1,0,1:1:0:0:
304,209,96802,1,8,2:2:0:0:
375,255,96957,2,0,B|393:214|393:214|379:172,1,90,2|0,2:2|2:2,0:0:0:0:
425,325,97267,6,0,P|337:311|260:355,1,180,10|2,2:2|1:2,0:0:0:0:
180,365,97730,1,2,1:2:0:0:
36,211,97885,6,0,P|80:211|121:193,1,90,4|0,2:3|2:2,0:0:0:0:
170,115,98194,1,2,2:2:0:0:
255,85,98349,1,2,1:2:0:0:
340,110,98504,2,0,P|363:196|356:285,1,180,8|0,2:2|1:1,0:0:0:0:
170,115,98968,5,8,2:2:0:0:
320,25,99122,1,0,1:1:0:0:
400,40,99277,2,0,P|436:65|461:103,1,90,0|2,1:1|2:2,0:0:0:0:
255,85,99586,1,0,1:1:0:0:
340,198,99741,2,0,P|347:154|340:110,1,90,10|0,2:2|2:2,0:0:0:0:
185,30,100050,1,2,1:2:0:0:
255,235,100205,5,2,1:2:0:0:
