osu file format v14

[General]
AudioFilename: fly high.mp3
AudioLeadIn: 0
PreviewTime: 60733
Countdown: 0
SampleSet: Soft
StackLeniency: 0.2
Mode: 0
LetterboxInBreaks: 0
WidescreenStoryboard: 1

[Editor]
Bookmarks: 8813,39741
DistanceSpacing: 1
BeatDivisor: 4
GridSize: 4
TimelineZoom: 1.499999

[Metadata]
Title:Fly High
TitleUnicode:Fly High
Artist:milet
ArtistUnicode:milet
Creator:Kyouren
Version:AURORANCE'S NORMAL
Source:NHKウィンタースポーツ
Tags:NHK winter sports theme song Broadcasts visions TomoLow ミレイ Mirei jpop j-pop pop japanese japan teaser short version ver ver. gokugohan12468 kittyadventure Aurorance Ducky- AlwaysChoke -_ascended_- ascended -ascended- sport broadcast female vocal vocals vocalist テーマソング
BeatmapID:3758063
BeatmapSetID:1686549

[Difficulty]
HPDrainRate:3
CircleSize:3.5
OverallDifficulty:4
ApproachRate:5.5
SliderMultiplier:1.85
SliderTickRate:1

[Events]
//Background and Video events
0,0,"96416227_p0.jpg",0,0
//Break Periods
//Storyboard Layer 0 (Background)
//Storyboard Layer 1 (Fail)
//Storyboard Layer 2 (Pass)
//Storyboard Layer 3 (Foreground)
//Storyboard Layer 4 (Overlay)
//Storyboard Sound Samples

[TimingPoints]
3865,618.556701030928,4,2,2,20,1,0
3865,-100,4,2,2,20,0,0
8813,-100,4,2,2,45,0,0
8968,-100,4,2,2,45,0,0
9122,-100,4,2,2,35,0,0
18710,-100,4,2,2,45,0,0
28607,-100,4,2,2,55,0,0
29535,-100,4,2,2,45,0,0
32937,-100,4,2,2,55,0,0
34483,-100,4,2,2,45,0,0
35875,-100,4,2,2,55,0,0
36957,-100,4,2,2,45,0,0
37885,-100,4,2,2,55,0,0
38194,-100,4,2,2,45,0,0
38504,-100,4,2,2,65,0,0
57834,-100,4,2,2,50,0,0
58297,-100,4,2,2,50,0,0
59380,-100,4,2,2,35,0,0
59535,-100,4,2,2,55,0,0
59612,-100,4,2,2,15,0,0
60153,-100,4,2,2,55,0,0
60230,-100,4,2,2,15,0,0
60772,-90.9090909090909,4,2,3,75,0,0
60926,-90.9090909090909,4,2,2,75,0,0
61236,-90.9090909090909,4,2,1,75,0,0
70669,-90.9090909090909,4,2,3,75,0,0
70823,-90.9090909090909,4,2,2,75,0,0
71133,-90.9090909090909,4,2,1,75,0,0
80566,-90.9090909090909,4,2,3,85,0,0
80720,-90.9090909090909,4,2,2,85,0,0
80875,-90.9090909090909,4,2,1,85,0,0
89225,-90.9090909090909,4,2,1,85,0,0
89844,-90.9090909090909,4,2,1,85,0,0
90462,-90.9090909090909,4,2,3,85,0,0
90617,-90.9090909090909,4,2,2,85,0,0
90771,-90.9090909090909,4,2,1,85,0,0
100205,-90.9090909090909,4,2,1,65,0,0
100978,-90.9090909090909,4,2,1,65,0,0

[Colours]
Combo1 : 117,227,197
Combo2 : 173,255,95
Combo3 : 17,254,176
Combo4 : 113,173,223

[HitObjects]
51,156,8813,5,6,2:3:0:0:
184,195,9277,1,2,2:2:0:0:
380,73,10050,1,2,2:2:0:0:
279,168,10514,1,2,2:2:0:0:
83,291,11287,5,2,2:2:0:0:
216,330,11751,1,2,2:2:0:0:
423,228,12524,1,2,2:2:0:0:
290,267,12988,1,2,2:2:0:0:
97,138,13761,6,0,P|165:169|197:171,1,92.5,2|0,2:2|2:2,0:0:0:0:
227,179,14225,1,2,2:2:0:0:
420,52,14999,2,0,P|352:83|279:90,1,138.75,2|2,2:2|2:2,0:0:0:0:
70,14,16236,6,0,P|131:40|158:121,1,138.75,2|2,2:2|2:2,0:0:0:0:
348,236,17473,2,0,P|303:255|283:314,1,92.5,2|2,2:2|2:2,0:0:0:0:
316,378,18091,2,0,P|385:356|465:365,1,138.75,2|0,2:2|2:2,0:0:0:0:
495,373,18710,5,2,3:2:0:0:
470,236,19174,1,2,2:2:0:0:
445,99,19638,2,0,P|401:93|342:67,1,92.5,2|2,2:2|2:2,0:0:0:0:
234,9,20411,2,0,P|208:18|188:19,1,46.25,2|2,2:2|2:2,0:0:0:0:
152,46,20720,2,0,P|175:90|185:157,1,92.5,2|0,2:2|2:2,0:0:0:0:
165,173,21184,5,2,2:2:0:0:
29,147,21648,1,2,2:2:0:0:
74,278,22112,2,0,P|127:264|177:272,1,92.5,2|2,2:2|2:2,0:0:0:0:
344,325,23040,1,2,2:2:0:0:
344,325,23194,2,0,P|348:270|371:219,1,92.5,2|2,2:2|2:2,0:0:0:0:
403,216,23658,5,2,2:2:0:0:
361,83,24122,1,2,2:2:0:0:
487,25,24586,2,0,P|485:75|499:116,1,92.5,2|2,2:2|2:2,0:0:0:0:
403,216,25359,2,0,L|341:205,1,46.25,2|2,2:2|2:2,0:0:0:0:
319,181,25669,2,0,P|276:195|213:193,1,92.5,2|0,2:2|2:2,0:0:0:0:
190,169,26133,5,2,2:2:0:0:
250,44,26596,1,2,2:2:0:0:
111,56,27060,2,0,P|72:31|8:29,1,92.5,2|2,2:2|2:2,0:0:0:0:
38,117,27679,1,2,2:2:0:0:
93,191,27988,2,0,P|141:175|199:175,1,92.5,2|2,2:2|2:2,0:0:0:0:
262,220,28607,6,0,L|247:333,1,92.5,6|0,2:3|2:2,0:0:0:0:
282,344,29071,2,0,L|387:300,1,92.5,6|0,2:3|2:2,0:0:0:0:
379,264,29535,2,0,P|355:219|354:163,1,92.5,2|2,2:2|2:2,0:0:0:0:
274,62,30308,2,0,L|219:74,1,46.25,2|2,2:2|2:2,0:0:0:0:
197,105,30617,2,0,P|154:89|90:84,1,92.5,2|2,2:2|2:2,0:0:0:0:
67,105,31081,5,2,2:2:0:0:
117,234,31545,1,2,2:2:0:0:
36,347,32009,2,0,P|29:306|0:254,1,92.5,2|2,2:2|2:2,0:0:0:0:
31,81,32937,1,6,2:3:0:0:
31,81,33091,1,6,2:3:0:0:
159,126,33555,6,0,L|272:111,1,92.5,6|0,2:3|2:2,0:0:0:0:
283,146,34019,2,0,L|239:251,1,92.5,6|0,2:3|2:2,0:0:0:0:
209,258,34483,2,0,P|213:303|236:343,1,92.5,2|2,2:2|2:2,0:0:0:0:
370,378,35256,2,0,L|427:369,1,46.25,2|2,2:2|2:2,0:0:0:0:
451,341,35566,1,2,2:2:0:0:
391,277,35875,1,6,2:3:0:0:
391,277,36029,1,6,2:3:0:0:
485,175,36493,6,0,L|472:73,1,92.5,6|0,2:3|2:2,0:0:0:0:
434,57,36957,2,0,P|388:64|363:102,1,92.5,2|2,2:2|2:2,0:0:0:0:
325,185,37576,1,0,0:0:0:0:
384,255,37885,2,0,L|376:314,1,46.25,6|6,2:3|2:3,0:0:0:0:
343,331,38194,1,2,2:2:0:0:
255,299,38504,6,0,B|231:290|207:296|190:310|190:310|170:295|145:291|125:299,2,138.75,6|6|6,2:3|2:3|2:3,0:0:0:0:
307,222,39741,2,0,P|292:178|291:132,1,92.5,2|0,2:2|2:2,0:0:0:0:
311,42,40359,1,2,2:2:0:0:
227,1,40669,2,0,L|163:13,1,46.25,0|6,2:2|2:3,0:0:0:0:
156,48,40978,6,0,P|112:33|53:43,1,92.5,6|0,2:3|2:2,0:0:0:0:
41,78,41442,2,0,P|49:121|87:167,1,92.5,6|0,2:3|2:2,0:0:0:0:
123,162,41906,1,6,2:3:0:0:
207,200,42215,2,0,P|231:264|239:334,1,138.75,2|2,2:2|3:2,0:0:0:0:
277,360,42834,2,0,L|343:345,1,46.25,6|6,2:3|2:3,0:0:0:0:
352,314,43143,1,2,2:2:0:0:
433,358,43452,6,0,P|484:325|484:276,1,92.5,6|2,2:3|2:2,0:0:0:0:
464,257,43916,2,0,P|465:174|486:115,1,138.75,6|6,2:3|2:3,0:0:0:0:
449,89,44535,2,0,B|379:64|389:142|317:117,1,138.75,2|0,2:2|2:2,0:0:0:0:
276,109,45153,1,2,2:2:0:0:
260,247,45617,1,2,2:2:0:0:
260,247,45772,6,0,P|271:293|287:335,1,92.5,6|0,2:3|0:0,0:0:0:0:
251,364,46236,1,2,2:2:0:0:
251,364,46390,2,0,P|187:338|110:342,1,138.75,6|2,2:3|2:2,0:0:0:0:
28,364,47163,1,2,2:2:0:0:
1,275,47473,1,2,2:2:0:0:
73,217,47782,2,0,L|130:225,1,46.25,6|6,2:3|2:3,0:0:0:0:
159,246,48091,1,2,2:2:0:0:
233,191,48401,6,0,B|253:183|278:187|298:202|298:202|315:188|339:182|363:191,2,138.75,6|6|6,2:3|2:3|2:3,0:0:0:0:
121,43,49947,1,2,2:2:0:0:
86,129,50256,1,2,2:2:0:0:
133,212,50566,2,0,L|157:281,1,46.25,2|6,2:2|2:3,0:0:0:0:
130,298,50875,6,0,P|84:299|31:337,1,92.5,6|0,2:3|2:2,0:0:0:0:
9,292,51339,2,0,P|30:253|23:186,1,92.5,6|0,2:3|2:2,0:0:0:0:
60,170,51803,1,6,2:3:0:0:
129,109,52112,2,0,P|191:104|224:165,1,138.75,2|2,2:2|3:2,0:0:0:0:
218,210,52730,1,6,2:3:0:0:
262,291,53040,2,0,L|318:301,1,46.25,2|2,0:0|0:0,0:0:0:0:
349,280,53349,6,0,P|404:284|440:307,1,92.5,6|2,2:3|2:2,0:0:0:0:
477,284,53813,2,0,P|450:225|468:149,1,138.75,6|6,2:3|2:3,0:0:0:0:
490,116,54432,1,2,2:2:0:0:
406,12,54895,1,2,2:2:0:0:
406,12,55050,2,0,L|261:39,1,138.75,2|2,2:2|2:2,0:0:0:0:
215,112,55823,6,0,P|242:154|235:215,1,92.5,6|2,2:3|2:2,0:0:0:0:
209,228,56287,2,0,L|69:211,1,138.75,6|6,2:3|2:3,0:0:0:0:
38,244,56906,2,0,P|40:290|66:328,1,92.5,2|0,2:2|0:0,0:0:0:0:
107,356,57370,1,2,2:2:0:0:
107,356,57524,1,2,3:2:0:0:
256,192,57679,12,2,59535,2:2:0:0:
418,27,60772,6,0,P|392:95|371:181,1,152.625004657746,6|0,2:3|1:1,0:0:0:0:
392,219,61390,1,8,2:2:0:0:
320,292,61700,1,2,1:2:0:0:
320,292,61854,1,10,2:2:0:0:
320,292,62009,2,0,P|267:272|208:266,1,101.750003105164,2|2,1:2|2:2,0:0:0:0:
121,278,62627,2,0,P|56:252|47:163,1,152.625004657746,10|0,2:2|1:1,0:0:0:0:
77,140,63246,6,0,B|148:117|157:183|225:161,1,152.625004657746,6|0,2:3|1:1,0:0:0:0:
258,126,63865,1,8,2:2:0:0:
307,214,64174,2,0,L|363:205,2,50.8750015525818,0|8|0,1:1|2:2|1:1,0:0:0:0:
271,250,64638,2,0,P|209:288|209:372,1,152.625004657746,8|8,2:2|2:2,0:0:0:0:
103,344,65411,1,2,1:2:0:0:
103,344,65566,1,2,1:2:0:0:
103,344,65720,5,4,2:3:0:0:
22,290,66029,1,2,2:2:0:0:
22,290,66184,2,0,L|2:230,1,50.8750015525818,2|8,1:2|2:2,0:0:0:0:
76,166,66648,1,2,1:2:0:0:
76,166,66803,2,0,L|137:179,1,50.8750015525818,10|0,2:2|1:1,0:0:0:0:
215,235,67267,1,2,2:2:0:0:
215,235,67422,2,0,L|276:221,1,50.8750015525818,2|8,2:2|2:2,0:0:0:0:
341,157,67885,1,2,1:2:0:0:
341,157,68040,1,2,1:2:0:0:
341,157,68194,5,4,2:3:0:0:
269,91,68504,1,2,2:2:0:0:
269,91,68659,2,0,L|207:77,1,50.8750015525818,2|8,1:2|2:2,0:0:0:0:
137,28,69122,1,2,1:2:0:0:
137,28,69277,2,0,L|75:41,1,50.8750015525818,10|0,2:2|1:1,0:0:0:0:
14,110,69741,1,2,1:2:0:0:
97,168,70050,6,0,P|104:205|87:252,2,67.8333354034424,10|2|2,2:2|1:2|1:2,0:0:0:0:
146,131,70669,6,0,B|217:113|216:185|288:169,1,152.625004657746,6|0,2:3|1:1,0:0:0:0:
327,138,71287,1,8,2:2:0:0:
413,209,71596,1,2,1:2:0:0:
413,209,71750,1,10,2:2:0:0:
413,209,71905,2,0,P|431:267|405:322,1,101.750003105164,2|2,1:2|2:2,0:0:0:0:
336,363,72524,2,0,P|270:354|260:259,1,152.625004657746,10|0,2:2|1:1,0:0:0:0:
284,243,73143,6,0,P|267:172|196:159,1,152.625004657746,6|0,2:3|1:1,0:0:0:0:
160,195,73761,1,8,2:2:0:0:
106,108,74071,2,0,L|46:100,2,50.8750015525818,0|8|0,1:1|2:2|1:1,0:0:0:0:
142,71,74535,2,0,L|242:57,1,101.750003105164,8|0,2:2|2:2,0:0:0:0:
288,81,74999,1,8,2:2:0:0:
371,22,75308,1,2,1:2:0:0:
371,22,75462,1,2,1:2:0:0:
371,22,75617,5,4,2:3:0:0:
468,65,75926,1,2,2:2:0:0:
468,65,76081,2,0,L|458:139,1,50.8750015525818,2|8,1:2|2:2,0:0:0:0:
396,195,76545,1,2,1:2:0:0:
396,195,76700,2,0,L|406:269,1,50.8750015525818,10|0,2:2|1:1,0:0:0:0:
331,316,77163,1,2,2:2:0:0:
331,316,77318,2,0,L|261:287,1,50.8750015525818,2|8,2:2|2:2,0:0:0:0:
230,222,77782,1,2,1:2:0:0:
230,222,77937,1,2,1:2:0:0:
230,222,78091,5,4,2:3:0:0:
141,269,78401,1,2,2:2:0:0:
141,269,78555,2,0,L|59:283,1,50.8750015525818,2|8,1:2|2:2,0:0:0:0:
20,211,79019,1,2,1:2:0:0:
20,211,79173,2,0,L|42:113,1,50.8750015525818,10|0,2:2|1:1,0:0:0:0:
105,91,79638,1,2,1:2:0:0:
206,80,79947,6,0,P|214:43|199:1,2,67.8333354034424,10|2|2,2:2|1:2|1:2,0:0:0:0:
256,114,80566,5,6,2:3:0:0:
200,199,80875,1,2,2:2:0:0:
200,199,81029,2,0,P|177:277|217:345,1,152.625004657746,2|2,1:2|1:2,0:0:0:0:
253,360,81648,2,0,P|332:340|370:272,1,152.625004657746,10|2,2:2|2:2,0:0:0:0:
379,181,82421,1,10,2:2:0:0:
328,98,82730,1,2,1:2:0:0:
328,98,82884,6,0,P|364:25|440:2,1,152.625004657746,2|2,1:2|2:2,0:0:0:0:
477,15,83503,2,0,P|521:82|503:159,1,152.625004657746,2|0,1:2|1:1,0:0:0:0:
479,192,84122,1,8,0:0:0:0:
479,192,84277,1,2,1:2:0:0:
385,151,84586,1,2,1:2:0:0:
295,199,84895,1,10,2:2:0:0:
208,245,85205,1,0,1:1:0:0:
208,245,85359,1,0,1:1:0:0:
208,245,85514,5,4,2:3:0:0:
118,209,85823,1,2,2:2:0:0:
118,209,85978,2,0,P|93:143|24:80,1,152.625004657746,2|2,1:2|1:2,0:0:0:0:
55,40,86596,2,0,P|123:51|211:22,1,152.625004657746,10|2,2:2|2:2,0:0:0:0:
301,50,87370,1,10,2:2:0:0:
345,144,87679,1,2,1:2:0:0:
345,144,87834,6,0,P|319:209|249:270,1,152.625004657746,2|2,1:2|2:2,0:0:0:0:
279,312,88452,2,0,P|348:301|436:331,1,152.625004657746,2|0,1:2|1:1,0:0:0:0:
471,358,89071,1,8,2:2:0:0:
471,358,89225,1,0,1:1:0:0:
503,261,89535,1,10,2:2:0:0:
437,183,89844,1,10,2:2:0:0:
473,93,90153,1,2,1:2:0:0:
473,93,90308,1,0,1:1:0:0:
473,93,90462,5,6,2:3:0:0:
411,18,90772,1,2,2:2:0:0:
411,18,90926,2,0,P|340:15|293:99,1,152.625004657746,2|2,1:2|1:2,0:0:0:0:
306,124,91545,2,0,P|261:182|188:180,1,152.625004657746,10|2,2:2|2:2,0:0:0:0:
94,142,92318,1,10,2:2:0:0:
49,235,92627,1,2,1:2:0:0:
49,235,92781,6,0,P|95:288|188:263,1,152.625004657746,2|2,1:2|2:2,0:0:0:0:
197,237,93400,2,0,P|269:227|319:282,1,152.625004657746,2|0,1:2|1:1,0:0:0:0:
364,316,94019,1,8,0:0:0:0:
364,316,94173,1,2,1:2:0:0:
443,251,94483,1,2,1:2:0:0:
377,173,94792,1,10,2:2:0:0:
463,116,95102,1,0,1:1:0:0:
463,116,95256,1,0,1:1:0:0:
463,116,95411,5,4,2:3:0:0:
400,43,95720,1,2,2:2:0:0:
400,43,95875,2,0,B|331:60|330:-7|238:19,1,152.625004657746,2|2,1:2|1:2,0:0:0:0:
214,47,96493,2,0,B|191:122|258:123|241:192,1,152.625004657746,10|2,2:2|2:2,0:0:0:0:
149,237,97267,1,10,2:2:0:0:
200,327,97576,1,2,1:2:0:0:
200,327,97730,6,0,B|269:310|270:377|362:351,1,152.625004657746,2|2,1:2|2:2,0:0:0:0:
382,319,98349,2,0,B|404:243|337:242|354:173,1,152.625004657746,2|0,1:2|1:1,0:0:0:0:
389,79,99122,1,0,1:1:0:0:
294,43,99432,5,2,2:2:0:0:
231,123,99741,2,0,P|177:111|114:103,1,101.750003105164,10|2,2:2|1:2,0:0:0:0:
91,72,100205,1,2,1:2:0:0:
