osu file format v14

[General]
AudioFilename: audio.mp3
AudioLeadIn: 0
PreviewTime: 32248
Countdown: 0
SampleSet: Soft
StackLeniency: 0.5
Mode: 0
LetterboxInBreaks: 0
WidescreenStoryboard: 1

[Editor]
Bookmarks: 17498
DistanceSpacing: 1.3
BeatDivisor: 8
GridSize: 32
TimelineZoom: 1.6

[Metadata]
Title:Drown (TV Size)
TitleUnicode:Drown (TV Size)
Artist:milet
ArtistUnicode:milet
Creator:Napoli
Version:Normal
Source:ヴィンランド・サガ
Tags:vinland saga anime ending 2 two second 2nd japanese english pop jpop pisapou eyes
BeatmapID:3600063
BeatmapSetID:1752985

[Difficulty]
HPDrainRate:4
CircleSize:3.4
OverallDifficulty:4
ApproachRate:6
SliderMultiplier:2
SliderTickRate:1

[Events]
//Background and Video events
0,0,"drownds.jpg",0,0
Video,490,"drownvideo.mp4"
//Break Periods
//Storyboard Layer 0 (Background)
//Storyboard Layer 1 (Fail)
//Storyboard Layer 2 (Pass)
//Storyboard Layer 3 (Foreground)
//Storyboard Layer 4 (Overlay)
//Storyboard Sound Samples

[TimingPoints]
1491,666.666666666667,4,2,1,45,1,0
1491,-138.888888888889,4,2,1,45,0,0
12157,-138.888888888889,4,2,2,45,0,0
33491,-108.695652173913,4,2,1,75,0,0
54824,-98.0392156862745,4,2,1,75,0,1
76157,-108.695652173913,4,2,2,60,0,0
86824,-138.888888888889,4,2,1,50,0,0

[Colours]
Combo1 : 255,255,128
Combo2 : 192,192,192

[HitObjects]
178,65,1491,6,0,P|108:44|39:27,2,144.000003515625,2|0|0,1:2|1:2|1:2,0:0:0:0:
238,136,3157,1,2,2:2:0:0:
305,70,3491,2,0,P|339:59|374:51,1,72.0000017578125,2|2,1:2|2:2,0:0:0:0:
455,96,4157,6,0,L|444:166,1,72.0000017578125,0|0,1:2|0:0,0:0:0:0:
507,236,4824,2,0,L|496:306,1,72.0000017578125,0|0,1:2|0:0,0:0:0:0:
414,354,5491,2,0,L|343:343,1,72.0000017578125,0|0,1:2|0:0,0:0:0:0:
285,269,6157,2,0,P|289:251|294:234,1,36.0000008789063,2|2,1:2|2:2,0:0:0:0:
323,197,6491,1,2,2:2:0:0:
276,115,6824,6,0,B|218:99|218:99|198:104|198:104|135:88,1,144.000003515625,2|0,1:2|1:2,0:0:0:0:
58,27,7824,2,0,P|37:55|36:91,1,72.0000017578125,2|0,2:2|1:2,0:0:0:0:
80,174,8491,1,2,2:2:0:0:
122,260,8824,2,0,L|117:295,1,36.0000008789063,2|0,1:2|0:0,0:0:0:0:
86,330,9157,1,2,2:2:0:0:
166,378,9491,6,0,L|238:367,1,72.0000017578125,0|2,1:2|2:2,0:0:0:0:
316,317,10157,2,0,L|388:306,1,72.0000017578125,0|0,1:2|0:0,0:0:0:0:
465,254,10824,2,0,L|454:182,1,72.0000017578125,0|0,1:2|0:0,0:0:0:0:
481,93,11491,1,2,1:2:0:0:
407,34,11824,1,2,2:2:0:0:
333,92,12157,6,0,P|282:83|192:58,2,144.000003515625,0|0|0,1:2|1:2|1:2,0:0:0:0:
407,148,13824,1,2,2:2:0:0:
434,237,14157,2,0,P|426:272|414:306,1,72.0000017578125,2|0,1:2|0:0,0:0:0:0:
332,349,14824,6,0,L|260:338,1,72.0000017578125,0|0,1:2|0:0,0:0:0:0:
176,379,15491,2,0,L|104:368,1,72.0000017578125,0|0,1:2|0:0,0:0:0:0:
50,292,16157,2,0,L|61:220,1,72.0000017578125,0|0,1:2|0:0,0:0:0:0:
92,186,16657,1,2,2:2:0:0:
92,186,16824,2,0,P|127:186|156:207,1,72.0000017578125,2|0,1:2|0:0,0:0:0:0:
208,291,17491,5,2,1:2:0:0:
208,291,17657,2,0,P|243:291|272:270,1,72.0000017578125,2|0,2:2|0:0,0:0:0:0:
299,231,18157,2,0,P|306:196|318:162,1,72.0000017578125,2|0,1:2|0:0,0:0:0:0:
396,111,18824,2,0,P|389:76|377:42,1,72.0000017578125,2|0,1:2|0:0,0:0:0:0:
289,7,19491,2,0,P|253:14|219:26,1,72.0000017578125,2|0,1:2|0:0,0:0:0:0:
186,58,19991,1,2,2:2:0:0:
186,58,20157,6,0,B|124:42|124:42|104:47|104:47|46:31,2,144.000003515625,2|0|0,1:2|1:2|1:2,0:0:0:0:
243,131,21824,1,2,2:2:0:0:
329,95,22157,2,0,L|401:84,1,72.0000017578125,2|2,1:2|2:2,0:0:0:0:
484,124,22824,6,0,P|484:159|463:188,1,72.0000017578125,2|0,1:2|0:0,0:0:0:0:
408,264,23491,1,0,1:2:0:0:
322,228,23824,2,0,P|271:237|181:262,1,144.000003515625,2|2,2:2|2:2,0:0:0:0:
126,336,24824,1,2,1:2:0:0:
41,296,25157,2,0,L|41:258,1,36.0000008789063,2|2,2:2|2:2,0:0:0:0:
77,229,25491,6,0,L|102:81,2,144.000003515625,0|0|0,1:2|1:2|1:2,0:0:0:0:
129,306,27157,1,2,2:2:0:0:
213,264,27491,2,0,P|246:251|282:244,1,72.0000017578125,2|2,1:2|2:2,0:0:0:0:
357,189,28157,6,0,P|357:154|336:125,1,72.0000017578125,2|0,1:2|0:0,0:0:0:0:
259,70,28824,1,0,1:2:0:0:
207,149,29157,2,0,B|149:165|149:165|129:160|129:160|67:176,1,144.000003515625,2|2,2:2|2:2,0:0:0:0:
15,253,30157,1,0,1:2:0:0:
93,304,30491,2,0,L|98:339,1,36.0000008789063,2|2,2:2|2:2,0:0:0:0:
133,370,30824,6,0,P|195:361|215:291,1,144.000003515625,0|0,1:2|0:0,0:0:0:0:
479,48,33491,6,0,B|418:40|416:99|415:102|415:103|419:164|359:158,1,183.999993823242,6|2,1:2|3:2,0:0:0:0:
284,211,34491,1,0,1:2:0:0:
210,164,34824,1,8,3:2:0:0:
210,164,34991,2,0,P|206:141|198:120,2,45.9999984558106,2|2|2,2:2|2:2|2:2,0:0:0:0:
179,198,35491,2,0,L|163:287,1,91.9999969116212,2|2,3:2|2:2,0:0:0:0:
135,376,36157,6,0,B|213:355|213:355|238:362|238:362|311:341,1,183.999993823242,2|0,3:2|3:2,0:0:0:0:
357,261,37157,1,0,1:2:0:0:
428,319,37491,1,8,3:2:0:0:
478,241,37824,1,2,2:2:0:0:
468,195,37991,1,2,2:2:0:0:
458,150,38157,2,0,L|441:59,1,91.9999969116212,2|2,3:2|2:2,0:0:0:0:
358,18,38824,6,0,P|298:26|279:93,1,137.999995367432,2|2,1:2|2:2,0:0:0:0:
224,220,39824,2,0,P|164:211|144:143,1,137.999995367432,2|2,1:2|2:2,0:0:0:0:
107,10,40824,1,2,3:2:0:0:
15,10,41157,1,2,2:2:0:0:
21,101,41491,6,0,P|46:188|68:278,1,183.999993823242,2|0,3:2|3:2,0:0:0:0:
8,349,42491,1,0,1:2:0:0:
97,369,42824,2,0,L|186:352,1,91.9999969116212,8|2,3:2|2:2,0:0:0:0:
228,384,43324,1,2,2:2:0:0:
228,384,43491,2,0,L|317:367,1,91.9999969116212,2|2,3:2|1:2,0:0:0:0:
360,285,44157,6,0,B|367:223|307:222|305:221|303:219|242:225|249:165,1,183.999993823242,6|2,1:2|3:2,0:0:0:0:
296,86,45157,1,0,1:2:0:0:
390,85,45491,1,8,3:2:0:0:
390,85,45657,2,0,L|383:129,2,45.9999984558106,2|2|2,2:2|2:2|2:2,0:0:0:0:
419,49,46157,2,0,P|463:49|500:75,1,91.9999969116212,2|2,3:2|2:2,0:0:0:0:
507,168,46824,6,0,B|486:246|486:246|493:272|493:272|472:345,1,183.999993823242,2|0,3:2|3:2,0:0:0:0:
382,366,47824,1,0,1:2:0:0:
335,286,48157,1,8,3:2:0:0:
399,219,48491,2,0,L|394:167,1,45.9999984558106,2|2,2:2|2:2,0:0:0:0:
351,156,48824,6,0,L|368:15,1,137.999995367432,2|2,3:2|2:2,0:0:0:0:
410,2,49491,1,2,1:2:0:0:
232,50,50157,6,0,L|249:191,1,137.999995367432,2|2,3:2|2:2,0:0:0:0:
225,227,50824,1,10,3:2:0:0:
110,371,51491,6,0,L|127:230,1,137.999995367432,2|2,3:2|2:2,0:0:0:0:
106,193,52157,6,0,P|26:204|1:293,2,183.999993823242,2|8|8,3:2|3:2|3:2,0:0:0:0:
177,134,53824,1,2,2:2:0:0:
248,187,54157,2,0,P|292:176|336:162,1,91.9999969116212,2|2,3:2|1:2,0:0:0:0:
386,169,54657,1,0,1:2:0:0:
386,169,54824,6,0,P|357:265|332:365,1,204.000001245117,6|2,1:2|1:2,0:0:0:0:
231,381,55824,1,2,2:2:0:0:
178,299,56157,1,8,1:2:0:0:
178,299,56324,2,0,L|128:305,2,51.0000003112793,2|2|2,2:2|2:2|2:2,0:0:0:0:
216,265,56824,2,0,P|216:215|186:174,1,102.000000622559,2|2,1:2|2:2,0:0:0:0:
113,101,57491,6,0,B|200:77|200:77|228:85|228:85|309:61,1,204.000001245117,2|2,1:2|1:2,0:0:0:0:
401,17,58491,1,0,3:2:0:0:
485,73,58824,2,0,L|467:172,1,102.000000622559,8|2,1:2|2:2,0:0:0:0:
428,196,59324,1,2,2:2:0:0:
428,196,59491,2,0,L|408:298,1,102.000000622559,2|2,1:2|2:2,0:0:0:0:
338,369,60157,6,0,P|271:359|250:284,1,153.000000933838,2|2,1:2|2:2,0:0:0:0:
197,141,61157,2,0,P|130:150|109:225,1,153.000000933838,0|2,3:2|2:2,0:0:0:0:
110,377,62157,1,2,1:2:0:0:
13,344,62491,1,2,2:2:0:0:
3,242,62824,6,0,L|11:140,1,102.000000622559,2|0,1:2|0:0,0:0:0:0:
111,123,63491,2,0,L|119:21,1,102.000000622559,2|2,1:2|3:2,0:0:0:0:
169,4,63991,1,0,0:0:0:0:
169,4,64157,2,0,P|218:4|259:33,1,102.000000622559,8|2,1:2|2:2,0:0:0:0:
278,134,64824,2,0,P|318:163|368:163,1,102.000000622559,2|2,1:2|1:2,0:0:0:0:
463,126,65491,6,0,B|471:193|405:194|402:196|401:197|333:192|340:258,1,204.000001245117,6|2,1:2|1:2,0:0:0:0:
273,335,66491,1,0,3:2:0:0:
194,279,66824,1,8,1:2:0:0:
194,279,66991,2,0,P|169:283|145:291,2,51.0000003112793,2|2|2,2:2|2:2|2:2,0:0:0:0:
226,239,67491,2,0,P|214:189|198:141,1,102.000000622559,2|2,1:2|2:2,0:0:0:0:
122,72,68157,6,0,B|208:49|208:49|237:56|237:56|318:34,1,204.000001245117,2|0,1:2|1:2,0:0:0:0:
420,50,69157,1,0,3:2:0:0:
392,148,69491,1,8,1:2:0:0:
290,137,69824,2,0,L|284:186,1,51.0000003112793,2|2,2:2|2:2,0:0:0:0:
327,213,70157,6,0,L|347:364,1,153.000000933838,2|2,1:2|2:2,0:0:0:0:
397,374,70824,1,2,1:2:0:0:
227,266,71491,6,0,L|247:114,1,153.000000933838,2|2,1:2|2:2,0:0:0:0:
216,74,72157,1,10,1:2:0:0:
16,31,72824,6,0,L|36:182,1,153.000000933838,2|2,1:2|2:2,0:0:0:0:
79,210,73491,6,0,L|64:310,1,102.000000622559,2|0,1:2|0:0,0:0:0:0:
95,358,73991,1,0,3:2:0:0:
95,358,74157,2,0,P|144:358|185:328,1,102.000000622559,8|0,1:2|1:2,0:0:0:0:
211,285,74657,1,2,1:2:0:0:
211,285,74824,2,0,P|260:285|301:314,1,102.000000622559,10|0,3:2|0:0,0:0:0:0:
379,381,75491,1,2,1:2:0:0:
465,326,75824,1,2,2:2:0:0:
388,275,76157,6,0,L|396:183,1,91.9999969116212,6|2,1:2|2:2,0:0:0:0:
351,102,76824,2,0,P|307:116|263:126,1,91.9999969116212,2|2,1:2|2:2,0:0:0:0:
193,65,77491,2,0,P|149:50|105:40,1,91.9999969116212,2|2,1:2|2:2,0:0:0:0:
14,58,78157,1,2,1:2:0:0:
18,150,78491,1,2,2:2:0:0:
107,170,78824,6,0,L|115:260,1,91.9999969116212,0|2,1:2|2:2,0:0:0:0:
146,348,79491,2,0,P|190:348|227:321,1,91.9999969116212,2|2,1:2|2:2,0:0:0:0:
271,239,80157,2,0,P|315:239|352:265,1,91.9999969116212,2|2,1:2|2:2,0:0:0:0:
414,335,80824,1,2,1:2:0:0:
500,304,81157,1,2,2:2:0:0:
437,235,81491,6,0,L|453:142,1,91.9999969116212,6|2,1:2|2:2,0:0:0:0:
410,62,82157,2,0,P|366:76|321:86,1,91.9999969116212,2|2,1:2|2:2,0:0:0:0:
249,144,82824,2,0,P|205:129|160:119,1,91.9999969116212,2|2,1:2|2:2,0:0:0:0:
75,153,83491,1,2,1:2:0:0:
86,244,83824,1,2,2:2:0:0:
177,253,84157,6,0,P|266:226|354:204,1,183.999993823242,2|0,1:2|1:2,0:0:0:0:
416,135,85157,1,0,0:0:0:0:
487,193,85491,2,0,L|467:329,1,137.999995367432,2|0,1:2|0:0,0:0:0:0:
433,361,86157,2,0,P|389:354|363:318,1,91.9999969116212,2|0,1:2|0:0,0:0:0:0:
270,332,86824,5,6,1:2:0:0:
256,192,87157,12,2,89157,2:2:0:0:
