osu file format v14

[General]
AudioFilename: audio.mp3
AudioLeadIn: 0
PreviewTime: 32248
Countdown: 0
SampleSet: Soft
StackLeniency: 0.5
Mode: 0
LetterboxInBreaks: 0
WidescreenStoryboard: 0

[Editor]
DistanceSpacing: 2.2
BeatDivisor: 8
GridSize: 32
TimelineZoom: 2.799999

[Metadata]
Title:Drown (TV Size)
TitleUnicode:Drown (TV Size)
Artist:milet
ArtistUnicode:milet
Creator:Napoli
Version:Insane
Source:ヴィンランド・サガ
Tags:vinland saga anime ending 2 two second 2nd japanese english pop jpop pisapou eyes
BeatmapID:3587415
BeatmapSetID:1752985

[Difficulty]
HPDrainRate:6
CircleSize:4
OverallDifficulty:7.5
ApproachRate:9
SliderMultiplier:2.1
SliderTickRate:1

[Events]
//Background and Video events
0,0,"drownds.jpg",0,0
Video,490,"drownvideo.mp4"
//Break Periods
//Storyboard Layer 0 (Background)
//Storyboard Layer 1 (Fail)
//Storyboard Layer 2 (Pass)
//Storyboard Layer 3 (Foreground)
//Storyboard Layer 4 (Overlay)
//Storyboard Sound Samples

[TimingPoints]
1491,666.666666666667,4,2,1,45,1,0
1491,-121.951219512195,4,2,1,45,0,0
12157,-98.0392156862744,4,2,2,45,0,0
33491,-49.5049504950495,4,2,1,75,0,0
34157,-81.9672131147541,4,2,1,75,0,0
36157,-49.5049504950495,4,2,1,75,0,0
36824,-81.9672131147541,4,2,1,75,0,0
41491,-61.583577712612,4,2,1,75,0,0
42157,-81.9672131147541,4,2,1,75,0,0
44157,-54.9450549450549,4,2,1,75,0,0
44824,-81.9672131147541,4,2,1,75,0,0
46824,-49.5049504950495,4,2,1,75,0,0
47491,-81.9672131147541,4,2,1,75,0,0
49491,-54.9450549450549,4,2,1,75,0,0
50157,-81.9672131147541,4,2,1,75,0,0
50824,-54.9450549450549,4,2,1,75,0,0
51491,-81.9672131147541,4,2,1,75,0,0
52157,-54.9450549450549,4,2,1,75,0,0
53491,-61.583577712612,4,2,1,75,0,0
54824,-41.3223140495868,4,2,1,75,0,1
55491,-54.9450549450549,4,2,1,75,0,1
57491,-41.3223140495868,4,2,1,75,0,1
57824,-54.9450549450549,4,2,1,75,0,1
58824,-41.3223140495868,4,2,1,75,0,1
59157,-54.9450549450549,4,2,1,75,0,1
60157,-41.3223140495868,4,2,1,75,0,1
60824,-54.9450549450549,4,2,1,75,0,1
62824,-41.3223140495868,4,2,1,75,0,1
63491,-54.9450549450549,4,2,1,75,0,1
65491,-41.3223140495868,4,2,1,75,0,1
66157,-54.9450549450549,4,2,1,75,0,1
68157,-41.3223140495868,4,2,1,75,0,1
68824,-54.9450549450549,4,2,1,75,0,1
70824,-41.3223140495868,4,2,1,75,0,1
71491,-54.9450549450549,4,2,1,75,0,1
72157,-45.045045045045,4,2,1,75,0,1
72824,-54.9450549450549,4,2,1,75,0,1
73491,-41.3223140495868,4,2,1,75,0,1
74824,-54.9450549450549,4,2,1,75,0,1
76157,-65.7894736842105,4,2,2,60,0,0
86824,-65.7894736842105,4,2,1,40,0,0
87491,-65.7894736842105,4,2,1,50,0,0
88157,-65.7894736842105,4,2,1,60,0,0
88824,-65.7894736842105,4,2,1,70,0,0

[Colours]
Combo1 : 255,255,128
Combo2 : 192,192,192

[HitObjects]
470,45,1491,6,0,B|427:40|426:81|426:83|425:84|429:126|386:122,1,129.150001970673,2|2,1:2|2:2,0:0:0:0:
323,193,2157,2,0,P|285:165|289:128,1,86.1000013137818,0|2,1:2|2:2,0:0:0:0:
162,35,2824,1,0,1:2:0:0:
162,35,3157,2,0,P|170:54|176:75,1,43.0500006568909,2|0,2:2|0:0,0:0:0:0:
124,155,3491,1,2,1:2:0:0:
215,289,3824,1,2,2:2:0:0:
215,289,4157,6,0,L|300:276,1,86.1000013137818,0|0,1:2|0:0,0:0:0:0:
171,374,4824,2,0,L|86:361,1,86.1000013137818,0|0,1:2|0:0,0:0:0:0:
68,197,5491,6,0,P|82:158|123:154,1,86.1000013137818,0|0,1:2|0:0,0:0:0:0:
207,206,5991,1,2,2:2:0:0:
207,206,6157,2,0,L|214:163,1,43.0500006568909,2|2,1:2|2:2,0:0:0:0:
297,119,6491,2,0,L|304:76,1,43.0500006568909,2|0,2:2|0:0,0:0:0:0:
152,30,6824,6,0,B|156:11|120:-5|59:-5|12:35|10:55,1,172.200002627564,2|0,1:2|1:2,0:0:0:0:
68,197,7824,2,0,L|55:281,1,86.1000013137818,2|0,2:2|1:2,0:0:0:0:
55,282,8491,1,2,2:2:0:0:
149,260,8824,2,0,P|169:267|189:275,1,43.0500006568909,2|0,1:2|0:0,0:0:0:0:
242,355,9157,6,0,P|285:341|292:303,2,86.1000013137818,2|0|2,2:2|1:2|2:2,0:0:0:0:
248,195,10157,2,0,P|258:155|298:144,1,86.1000013137818,0|0,1:2|0:0,0:0:0:0:
430,260,10824,6,0,P|388:248|348:231,1,86.1000013137818,0|0,1:2|0:0,0:0:0:0:
298,144,11324,1,2,2:2:0:0:
298,144,11491,2,0,P|303:123|313:103,1,43.0500006568909,2|2,1:2|2:2,0:0:0:0:
208,60,11824,2,0,P|217:79|222:100,1,43.0500006568909,2|2,2:2|2:2,0:0:0:0:
163,178,12157,6,0,B|124:167|124:167|104:172|104:172|60:160,1,107.100000653687,0|0,1:2|0:0,0:0:0:0:
4,253,12657,1,2,2:2:0:0:
4,253,12824,2,0,L|56:243,1,53.5500003268433,0|0,1:2|0:0,0:0:0:0:
130,302,13157,2,0,P|131:356|91:380,2,107.100000653687,2|0|2,2:2|1:2|2:2,0:0:0:0:
169,159,14157,2,0,P|144:162|135:185,1,53.5500003268433,2|0,1:2|0:0,0:0:0:0:
40,204,14491,2,0,P|35:228|55:243,1,53.5500003268433,0|2,0:0|2:2,0:0:0:0:
130,302,14824,6,0,L|235:286,1,107.100000653687,0|0,1:2|0:0,0:0:0:0:
370,381,15491,2,0,L|475:365,1,107.100000653687,0|0,1:2|0:0,0:0:0:0:
512,207,16157,6,0,P|461:211|442:258,1,107.100000653687,0|0,1:2|0:0,0:0:0:0:
353,288,16657,1,2,2:2:0:0:
353,288,16824,1,2,1:2:0:0:
299,207,16991,2,0,P|250:187|198:173,1,107.100000653687,2|2,2:2|2:2,0:0:0:0:
111,213,17491,1,2,1:2:0:0:
63,128,17658,2,0,P|114:114|164:93,1,107.100000653687,2|0,2:2|0:0,0:0:0:0:
285,113,18157,5,2,1:2:0:0:
299,207,18324,1,2,2:2:0:0:
469,217,18657,1,2,2:2:0:0:
410,292,18824,1,2,1:2:0:0:
469,217,18991,2,0,L|442:114,1,107.100000653687,2|0,2:2|0:0,0:0:0:0:
349,55,19491,2,0,P|298:65|286:114,1,107.100000653687,2|0,1:2|0:0,0:0:0:0:
206,164,19991,1,2,2:2:0:0:
133,108,20157,6,0,P|84:88|32:74,1,107.100000653687,2|0,1:2|0:0,0:0:0:0:
192,34,20824,2,0,P|243:20|293:0,1,107.100000653687,0|0,1:2|0:0,0:0:0:0:
206,164,21491,6,0,L|215:217,1,53.5500003268433,0|0,1:2|0:0,0:0:0:0:
164,300,21824,2,0,P|110:291|93:248,2,107.100000653687,2|2|2,2:2|1:2|2:2,0:0:0:0:
272,378,22824,6,0,B|330:361|330:361|360:369|360:369|426:351,1,160.65000098053,2|2,1:2|2:2,0:0:0:0:
449,256,23491,1,0,1:2:0:0:
383,108,23824,2,0,P|312:106|291:183,1,160.65000098053,2|0,2:2|0:0,0:0:0:0:
219,245,24491,2,0,P|172:246|158:195,1,107.100000653687,2|2,2:2|1:2,0:0:0:0:
22,274,25157,1,2,2:2:0:0:
22,274,25324,1,2,2:2:0:0:
18,363,25491,6,0,P|68:342|119:327,1,107.100000653687,0|0,1:2|0:0,0:0:0:0:
286,294,26157,2,0,P|335:314|386:329,1,107.100000653687,0|0,1:2|0:0,0:0:0:0:
461,185,26824,6,0,P|435:187|426:211,1,53.5500003268433,0|0,1:2|0:0,0:0:0:0:
332,222,27157,1,2,2:2:0:0:
332,222,27491,2,0,L|340:168,1,53.5500003268433,2|0,1:2|0:0,0:0:0:0:
265,111,27824,2,0,L|273:57,1,53.5500003268433,2|0,2:2|0:0,0:0:0:0:
153,14,28157,6,0,B|165:28|164:49|164:49|135:15|84:14,1,107.100000653687,2|0,1:2|0:0,0:0:0:0:
48,113,28657,1,2,2:2:0:0:
48,113,28824,2,0,L|99:99,1,53.5500003268433,0|0,1:2|0:0,0:0:0:0:
158,174,29157,2,0,B|211:167|212:218|212:221|213:222|208:274|262:269,1,160.65000098053,2|0,2:2|0:0,0:0:0:0:
317,349,29824,2,0,P|362:315|357:270,1,107.100000653687,2|0,2:2|1:2,0:0:0:0:
314,76,30491,1,2,2:2:0:0:
371,155,30657,1,2,2:2:0:0:
371,155,30824,6,0,P|264:162|157:174,1,214.200001307373,0|0,1:2|0:0,0:0:0:0:
510,155,33491,6,0,B|541:-7|379:-38|316:30|334:112|404:151|463:91,1,371.174992637215,6|0,1:2|0:0,0:0:0:0:
436,107,34157,6,0,P|405:116|396:144,1,64.0499973612214,2|0,3:2|0:0,0:0:0:0:
495,283,34491,1,0,1:2:0:0:
495,283,34824,6,0,P|486:252|473:222,1,64.0499973612214,8|2,3:2|2:2,0:0:0:0:
396,228,35157,1,2,2:2:0:0:
369,300,35324,1,2,2:2:0:0:
300,236,35491,2,0,P|269:233|254:259,1,64.0499973612214,2|0,3:2|0:0,0:0:0:0:
211,325,35824,2,0,P|180:328|165:302,1,64.0499973612214,2|0,2:2|0:0,0:0:0:0:
29,132,36157,6,0,B|36:98|36:98|42:78|75:62|94:90|90:111|90:111|47:361,1,371.174992637215,2|0,3:2|0:0,0:0:0:0:
52,364,36824,6,0,P|83:367|98:341,1,64.0499973612214,0|0,3:2|0:0,0:0:0:0:
181,222,37157,1,0,1:2:0:0:
181,222,37491,6,0,L|170:158,1,64.0499973612214,8|0,3:2|0:0,0:0:0:0:
233,112,37824,1,2,2:2:0:0:
281,175,37991,1,2,2:2:0:0:
336,96,38157,2,0,P|367:93|382:119,1,64.0499973612214,2|0,3:2|0:0,0:0:0:0:
461,110,38491,2,0,P|473:138|453:160,1,64.0499973612214,2|0,2:2|0:0,0:0:0:0:
297,354,38824,6,0,P|342:334|478:289,1,192.149992083664,2|2,1:2|2:2,0:0:0:0:
452,160,39491,2,0,P|421:164|409:192,1,64.0499973612214,0|0,3:2|0:0,0:0:0:0:
337,254,39824,2,0,P|278:240|260:181,1,128.099994722443,2|8,1:2|3:2,0:0:0:0:
274,41,40324,6,0,B|220:31|220:31|202:36|202:36|148:26,1,128.099994722443,2|0,2:2|0:0,0:0:0:0:
336,94,40824,2,0,L|399:84,1,64.0499973612214,2|0,3:2|0:0,0:0:0:0:
447,22,41157,2,0,L|510:12,1,64.0499973612214,2|0,2:2|0:0,0:0:0:0:
502,212,41491,6,0,B|426:174|397:253|395:255|392:257|369:340|293:302,1,255.750006271771,2|0,3:2|0:0,0:0:0:0:
282,184,42157,6,0,P|311:194|319:223,1,64.0499973612214,0|0,3:2|0:0,0:0:0:0:
438,331,42491,2,0,P|467:321|475:292,1,64.0499973612214,0|0,1:2|0:0,0:0:0:0:
502,212,42824,1,8,3:2:0:0:
502,212,42991,1,2,2:2:0:0:
486,117,43157,1,2,2:2:0:0:
399,83,43324,1,2,2:2:0:0:
282,184,43491,6,0,P|251:187|236:161,1,64.0499973612214,2|0,3:2|0:0,0:0:0:0:
216,65,43824,2,0,P|185:62|170:88,1,64.0499973612214,2|0,1:2|1:2,0:0:0:0:
50,355,44157,6,0,B|86:371|128:306|148:190|86:87|48:77,1,334.425011226426,6|0,1:2|0:0,0:0:0:0:
44,82,44824,6,0,P|59:108|90:104,1,64.0499973612214,2|0,3:2|0:0,0:0:0:0:
236,161,45157,1,0,1:2:0:0:
236,161,45491,6,0,P|223:190|214:221,1,64.0499973612214,8|2,3:2|2:2,0:0:0:0:
271,279,45824,1,2,2:2:0:0:
323,220,45991,1,2,2:2:0:0:
383,298,46158,2,0,P|414:301|429:275,1,64.0499973612214,2|0,3:2|0:0,0:0:0:0:
506,298,46491,2,0,P|518:269|498:247,1,64.0499973612214,2|0,2:2|0:0,0:0:0:0:
512,0,46824,6,0,B|402:-54|360:59|357:62|353:64|320:184|210:129,1,371.174992637215,2|0,3:2|0:0,0:0:0:0:
207,123,47491,6,0,P|236:133|244:162,1,64.0499973612214,0|0,3:2|0:0,0:0:0:0:
309,209,47824,2,0,P|308:239|283:256,1,64.0499973612214,0|0,1:2|0:0,0:0:0:0:
198,325,48157,1,8,3:2:0:0:
198,325,48491,2,0,B|171:319|171:319|162:322|162:322|135:316,1,64.0499973612214,2|2,2:2|2:2,0:0:0:0:
309,209,48824,6,0,P|337:215|345:245,1,64.0499973612214,2|0,3:2|0:0,0:0:0:0:
370,263,49074,2,0,P|371:292|345:309,1,64.0499973612214,2|0,2:2|0:0,0:0:0:0:
330,338,49324,2,0,P|315:342|303:333,1,32.0249986806107,2|0,2:2|0:0,0:0:0:0:
198,325,49491,6,0,P|224:215|276:49,1,286.65000962265,2|2,1:2|2:2,0:0:0:0:
190,0,50157,6,0,P|161:6|153:36,1,64.0499973612214,2|0,3:2|0:0,0:0:0:0:
167,117,50407,2,0,P|175:88|153:67,1,64.0499973612214,2|0,2:2|0:0,0:0:0:0:
97,54,50657,2,0,P|106:64|122:60,1,32.0249986806107,2|0,2:2|0:0,0:0:0:0:
275,49,50824,6,0,P|277:184|404:229,1,286.65000962265,10|0,3:2|0:0,0:0:0:0:
450,344,51491,6,0,P|444:314|414:307,1,64.0499973612214,2|0,3:2|0:0,0:0:0:0:
403,229,51741,2,0,P|372:224|357:249,1,64.0499973612214,2|0,2:2|0:0,0:0:0:0:
279,239,51991,2,0,P|272:252|282:264,1,32.0249986806107,2|0,2:2|0:0,0:0:0:0:
373,384,52157,6,0,P|305:354|102:287,1,286.65000962265,2|0,3:2|3:2,0:0:0:0:
21,337,52824,5,8,3:2:0:0:
97,191,52991,1,0,3:2:0:0:
11,242,53157,1,0,1:2:0:0:
103,287,53324,1,0,1:2:0:0:
196,227,53491,2,0,P|184:185|169:147,1,85.2500020905904,8|0,3:2|0:0,0:0:0:0:
293,0,53824,6,0,P|348:-1|357:59,1,127.875003135886,2|0,2:2|0:0,0:0:0:0:
291,98,54157,2,0,P|281:115|274:136,1,42.6250010452952,2|0,3:2|0:0,0:0:0:0:
321,197,54324,1,0,0:0:0:0:
226,369,54491,1,2,1:2:0:0:
282,319,54657,2,0,P|274:298|264:280,1,42.6250010452952,0|0,1:2|0:0,0:0:0:0:
124,201,54824,6,0,B|117:163|81:162|89:188|-1:210|-2:83|63:50|188:26|278:198|155:282,1,444.674987447377,6|0,1:2|0:0,0:0:0:0:
88,333,55491,6,0,P|103:290|147:283,1,95.5500032075501,2|0,1:2|0:0,0:0:0:0:
325,384,55824,1,2,2:2:0:0:
447,343,55991,1,2,2:2:0:0:
476,162,56157,2,0,P|461:119|417:112,1,95.5500032075501,8|2,1:2|2:2,0:0:0:0:
264,280,56491,5,2,2:2:0:0:
340,305,56657,1,2,2:2:0:0:
319,143,56824,2,0,L|304:48,1,95.5500032075501,2|0,1:2|0:0,0:0:0:0:
476,162,57157,2,0,L|461:257,1,95.5500032075501,2|0,2:2|0:0,0:0:0:0:
242,193,57491,6,0,B|179:186|178:248|177:250|176:252|181:315|118:308,1,190.574994620304,2|0,1:2|0:0,0:0:0:0:
64,249,57824,6,0,P|108:260|113:305,1,95.5500032075501,2|0,2:2|0:0,0:0:0:0:
65,384,58157,1,2,1:2:0:0:
5,200,58324,2,0,P|29:161|73:170,1,95.5500032075501,2|0,2:2|3:2,0:0:0:0:
113,304,58657,1,2,2:2:0:0:
337,243,58824,6,0,B|325:164|325:164|342:135|342:135|326:56,1,190.574994620304,8|0,1:2|0:0,0:0:0:0:
261,7,59157,6,0,P|276:50|320:57,1,95.5500032075501,2|2,2:2|2:2,0:0:0:0:
415,203,59491,2,0,P|460:202|480:162,1,95.5500032075501,2|0,1:2|0:0,0:0:0:0:
446,0,59824,2,0,P|435:22|413:90,1,95.5500032075501,2|0,2:2|0:0,0:0:0:0:
456,302,60157,6,0,B|481:330|478:372|478:372|422:304|319:302,1,254.099992827072,2|0,1:2|0:0,0:0:0:0:
194,384,60657,1,2,2:2:0:0:
244,219,60824,2,0,P|229:176|185:169,1,95.5500032075501,0|0,1:2|0:0,0:0:0:0:
158,76,61157,2,0,P|112:76|92:116,1,95.5500032075501,0|0,3:2|0:0,0:0:0:0:
101,384,61491,6,0,P|73:292|36:204,1,191.1000064151,8|0,1:2|0:0,0:0:0:0:
92,117,61991,1,0,0:0:0:0:
184,269,62157,2,0,P|229:262|244:219,1,95.5500032075501,2|0,1:2|0:0,0:0:0:0:
339,231,62491,2,0,P|346:186|309:158,1,95.5500032075501,2|0,2:2|0:0,0:0:0:0:
512,146,62824,6,0,P|485:205|426:384,1,254.099992827072,2|0,1:2|0:0,0:0:0:0:
452,85,63324,1,0,0:0:0:0:
452,85,63491,2,0,P|407:70|378:103,1,95.5500032075501,2|0,1:2|0:0,0:0:0:0:
276,8,63824,2,0,P|247:46|270:83,1,95.5500032075501,2|0,3:2|0:0,0:0:0:0:
283,289,64157,5,8,1:2:0:0:
309,158,64324,1,2,2:2:0:0:
339,231,64491,1,2,2:2:0:0:
188,289,64657,1,2,2:2:0:0:
56,211,64824,2,0,L|41:306,1,95.5500032075501,2|0,1:2|0:0,0:0:0:0:
159,116,65157,2,0,L|144:21,1,95.5500032075501,2|0,1:2|1:2,0:0:0:0:
188,289,65491,6,0,B|210:333|283:342|305:276|264:242|264:242|233:221|236:153|300:143|355:160|311:219|347:273|438:238|438:181|401:135|353:175,1,444.674987447377,6|0,1:2|0:0,0:0:0:0:
423,95,66157,6,0,P|383:118|387:163,1,95.5500032075501,2|0,1:2|0:0,0:0:0:0:
469,349,66491,2,0,P|469:302|428:283,1,95.5500032075501,0|0,3:2|0:0,0:0:0:0:
260,342,66824,1,8,1:2:0:0:
151,196,66991,5,2,2:2:0:0:
236,149,67157,1,2,2:2:0:0:
188,289,67324,1,2,2:2:0:0:
107,114,67491,2,0,L|12:129,1,95.5500032075501,2|0,1:2|0:0,0:0:0:0:
175,32,67824,2,0,L|270:47,1,95.5500032075501,2|0,2:2|0:0,0:0:0:0:
423,217,68157,6,0,B|463:209|463:209|487:202|506:162|473:140|448:144|448:144|148:196,1,444.674987447377,2|0,1:2|0:0,0:0:0:0:
183,269,68824,6,0,P|143:246|147:201,1,95.5500032075501,0|0,1:2|0:0,0:0:0:0:
293,317,69157,2,0,P|296:362|256:384,1,95.5500032075501,0|0,3:2|0:0,0:0:0:0:
434,305,69491,1,8,1:2:0:0:
434,305,69824,6,0,B|442:265|442:265|438:251|438:251|446:212,1,95.5500032075501,2|2,2:2|2:2,0:0:0:0:
227,0,70157,6,0,L|241:93,1,95.5500032075501,2|0,1:2|0:0,0:0:0:0:
101,122,70407,2,0,L|189:156,1,95.5500032075501,2|0,2:2|0:0,0:0:0:0:
202,253,70657,2,0,L|238:222,1,47.7750016037751,2|0,2:2|0:0,0:0:0:0:
343,176,70824,6,0,B|413:131|364:16|187:72|223:266|335:351|475:332,1,381.149989240609,2|2,1:2|2:2,0:0:0:0:
0,277,71491,6,0,P|20:238|66:238,1,95.5500032075501,2|0,1:2|0:0,0:0:0:0:
170,161,71741,2,0,P|193:197|170:238,1,95.5500032075501,2|0,2:2|0:0,0:0:0:0:
152,347,71991,2,0,P|130:347|118:327,1,47.7750016037751,2|0,2:2|0:0,0:0:0:0:
118,297,72157,6,0,B|67:193|173:153|176:151|178:147|291:116|239:12,1,349.650008536377,10|0,1:2|0:0,0:0:0:0:
446,39,72824,6,0,L|351:53,1,95.5500032075501,2|0,1:2|0:0,0:0:0:0:
333,153,73074,2,0,L|426:169,1,95.5500032075501,2|0,2:2|0:0,0:0:0:0:
348,269,73324,2,0,L|299:276,1,47.7750016037751,2|0,2:2|0:0,0:0:0:0:
257,126,73491,6,0,B|350:142|350:142|402:118|402:118|504:136,1,254.099992827072,2|0,1:2|0:0,0:0:0:0:
478,233,73991,5,0,3:2:0:0:
478,233,74157,1,8,1:2:0:0:
446,39,74324,1,0,3:2:0:0:
502,135,74491,1,0,1:2:0:0:
348,269,74657,1,2,1:2:0:0:
160,207,74824,6,0,P|175:168|190:115,1,95.5500032075501,10|2,3:2|2:2,0:0:0:0:
255,69,75074,2,0,P|311:75|305:150,1,143.325004811325
63,246,75491,6,0,P|78:285|93:338,1,95.5500032075501,2|2,1:2|3:2,0:0:0:0:
164,368,75741,2,0,P|220:362|214:287,1,143.325004811325
39,170,76157,6,0,P|94:153|188:115,1,159.599998051758,6|2,1:2|2:2,0:0:0:0:
215,0,76657,1,2,2:2:0:0:
314,76,76824,6,0,P|316:113|283:131,1,79.7999990258789,2|0,1:2|0:0,0:0:0:0:
316,255,77157,2,0,P|281:268|253:243,1,79.7999990258789,2|0,2:2|0:0,0:0:0:0:
148,314,77491,2,0,P|124:285|140:251,1,79.7999990258789,2|0,1:2|0:0,0:0:0:0:
39,170,77824,2,0,P|58:138|96:143,1,79.7999990258789,2|0,2:2|0:0,0:0:0:0:
316,255,78157,5,2,1:2:0:0:
407,162,78324,1,2,2:2:0:0:
316,255,78491,2,0,B|322:288|322:288|319:299|319:299|325:332,1,79.7999990258789,2|0,2:2|0:0,0:0:0:0:
140,250,78824,6,0,B|152:183|152:183|146:161|146:161|158:94,1,159.599998051758,0|2,1:2|2:2,0:0:0:0:
72,16,79324,1,2,2:2:0:0:
230,61,79491,6,0,L|308:49,1,79.7999990258789,2|0,1:2|0:0,0:0:0:0:
388,140,79824,2,0,L|309:128,1,79.7999990258789,2|0,2:2|0:0,0:0:0:0:
230,219,80157,2,0,L|308:207,1,79.7999990258789,2|0,1:2|0:0,0:0:0:0:
388,298,80491,1,2,2:2:0:0:
388,298,80824,5,2,1:2:0:0:
260,384,80991,1,2,2:2:0:0:
388,298,81157,2,0,B|422:291|422:291|433:294|433:294|466:288,1,79.7999990258789,2|0,2:2|0:0,0:0:0:0:
230,219,81491,6,0,P|213:164|175:70,1,159.599998051758,6|2,1:2|2:2,0:0:0:0:
64,35,81991,1,2,2:2:0:0:
207,0,82157,6,0,P|243:-8|266:21,1,79.7999990258789,2|0,1:2|0:0,0:0:0:0:
391,0,82491,2,0,P|410:32|389:63,1,79.7999990258789,2|0,2:2|0:0,0:0:0:0:
447,174,82824,2,0,P|422:202|385:192,1,79.7999990258789,2|0,1:2|0:0,0:0:0:0:
298,281,83157,2,0,P|263:266|261:228,1,79.7999990258789,2|0,2:2|0:0,0:0:0:0:
392,303,83491,5,2,1:2:0:0:
280,384,83657,1,2,2:2:0:0:
392,303,83824,2,0,B|426:296|426:296|437:299|437:299|470:293,1,79.7999990258789,2|0,2:2|0:0,0:0:0:0:
307,158,84157,6,0,B|240:146|240:146|218:152|218:152|151:140,1,159.599998051758,2|0,1:2|0:0,0:0:0:0:
0,55,84824,2,0,P|-2:18|31:0,1,79.7999990258789,0|0,1:2|0:0,0:0:0:0:
74,97,85157,1,0,0:0:0:0:
362,8,85491,5,2,1:2:0:0:
362,8,85657,2,0,P|331:81|306:157,1,159.599998051758,2|0,2:2|0:0,0:0:0:0:
219,227,86157,1,2,1:2:0:0:
219,227,86324,2,0,P|152:218|153:136,1,159.599998051758,2|0,2:2|0:0,0:0:0:0:
305,157,86824,5,6,1:2:0:0:
309,172,87157,1,2,2:2:0:0:
313,187,87491,1,2,2:2:0:0:
321,216,87824,1,2,2:2:0:0:
392,251,88157,1,2,2:2:0:0:
469,195,88490,1,2,2:2:0:0:
421,79,88824,1,2,2:2:0:0:
263,93,89157,1,2,2:2:0:0:
