osu file format v14

[General]
AudioFilename: audio.mp3
AudioLeadIn: 0
PreviewTime: 75822
Countdown: 0
SampleSet: Soft
StackLeniency: 0.4
Mode: 0
LetterboxInBreaks: 0
WidescreenStoryboard: 0

[Editor]
DistanceSpacing: 0.8
BeatDivisor: 6
GridSize: 32
TimelineZoom: 2.899999

[Metadata]
Title:Yurame
TitleUnicode:ゆらめ
Artist:mifumei
ArtistUnicode:ミフメイ
Creator:KnightC0re
Version:Serenity
Source:シンクロニカ
Tags:synchronica ミズイロ mizuiro 山内祐介 Yusuke Yuusuke Yamauchi オリジナル original 太鼓の達人 Taiko no Tatsujin ニジイロVer.2021 Nijiiro Rainbow Version electronic instrumental verychill milr_
BeatmapID:4090507
BeatmapSetID:1971451

[Difficulty]
HPDrainRate:6.2
CircleSize:4.5
OverallDifficulty:8.7
ApproachRate:9.3
SliderMultiplier:2.5
SliderTickRate:1

[Events]
//Background and Video events
0,0,"50572078_p0e.png",0,0
//Break Periods
//Storyboard Layer 0 (Background)
//Storyboard Layer 1 (Fail)
//Storyboard Layer 2 (Pass)
//Storyboard Layer 3 (Foreground)
//Storyboard Layer 4 (Overlay)
//Storyboard Sound Samples

[TimingPoints]
3426,495.867768595041,4,2,1,40,1,0
4913,-100,4,2,1,30,0,0
5409,-100,4,2,1,25,0,0
5905,-100,4,2,1,20,0,0
7888,-100,4,2,1,40,0,0
9376,-100,4,2,1,30,0,0
9872,-100,4,2,1,25,0,0
10120,-200,4,2,1,25,0,0
10368,-200,4,2,1,35,0,0
12289,-200,4,2,1,40,0,0
12351,-100,4,2,1,40,0,0
13343,-100,4,2,1,55,0,0
14706,-200,4,2,1,55,0,0
16318,-100,4,2,1,55,0,0
19045,-200,4,2,1,55,0,0
19293,-100,4,2,1,55,0,0
19789,-133.333333333333,4,2,1,55,0,0
20533,-100,4,2,1,55,0,0
21277,-133.333333333333,4,2,1,65,0,0
23178,-133.333333333333,4,2,1,45,0,0
23508,-133.333333333333,4,2,1,65,0,0
25244,-100,4,2,1,65,0,0
26731,-133.333333333333,4,2,1,65,0,0
27227,-100,4,2,1,70,0,0
27723,-66.6666666666667,4,2,1,75,0,0
28219,-66.6666666666667,4,2,1,55,0,0
29211,-66.6666666666667,4,2,1,30,0,0
29376,-133.333333333333,4,2,1,30,0,0
31111,-100,4,2,1,35,0,0
31359,-100,4,2,1,30,0,0
31442,-133.333333333333,4,2,1,30,0,0
36649,-133.333333333333,4,2,1,20,0,0
36731,-133.333333333333,4,2,1,25,0,0
36814,-133.333333333333,4,2,1,30,0,0
36897,-133.333333333333,4,2,1,35,0,0
36979,-133.333333333333,4,2,1,40,0,0
37062,-133.333333333333,4,2,1,45,0,0
37145,-66.6666666666667,4,2,1,50,0,1
37640,-66.6666666666667,4,2,1,50,0,0
37806,-66.6666666666667,4,2,1,35,0,0
37888,-100,4,2,1,35,0,0
38054,-133.333333333333,4,2,1,35,0,0
39045,-100,4,2,1,40,0,0
39293,-100,4,2,1,35,0,0
39376,-133.333333333333,4,2,1,35,0,0
40120,-100,4,2,1,45,0,0
40285,-100,4,2,1,35,0,0
40533,-133.333333333333,4,2,1,35,0,0
41111,-100,4,2,1,40,0,0
41277,-133.333333333333,4,2,1,35,0,0
41855,-100,4,2,1,40,0,0
42021,-133.333333333333,4,2,1,35,0,0
44500,-133.333333333333,4,2,1,55,0,0
44583,-66.6666666666667,4,2,1,55,0,0
44830,-133.333333333333,4,2,1,40,0,0
45078,-400,4,2,1,35,0,0
45574,-200,4,2,1,70,0,0
45822,-66.6666666666667,4,2,1,70,0,0
46070,-66.6666666666667,4,2,1,55,0,0
46235,-200,4,2,1,55,0,0
46566,-200,4,2,1,70,0,0
46814,-66.6666666666667,4,2,1,70,0,0
47062,-66.6666666666667,4,2,1,55,0,0
47310,-100,4,2,1,55,0,0
47558,-80,4,2,1,55,0,0
47806,-133.333333333333,4,2,1,55,0,0
48054,-100,4,2,1,55,0,0
48549,-80,4,2,1,55,0,0
49211,-200,4,2,1,55,0,0
49541,-200,4,2,1,75,0,0
49789,-66.6666666666667,4,2,1,75,0,0
50037,-66.6666666666667,4,2,1,55,0,0
50202,-200,4,2,1,55,0,0
50533,-200,4,2,1,75,0,0
50781,-66.6666666666667,4,2,1,75,0,0
51029,-66.6666666666667,4,2,1,55,0,0
51277,-133.333333333333,4,2,1,55,0,0
51525,-80,4,2,1,55,0,0
51773,-100,4,2,1,55,0,0
52021,-80,4,2,1,55,0,0
52268,-133.333333333333,4,2,1,55,0,0
52764,-100,4,2,1,55,0,0
53012,-200,4,2,1,55,0,0
53508,-200,4,2,1,75,0,0
53756,-66.6666666666667,4,2,1,75,0,0
54004,-66.6666666666667,4,2,1,55,0,0
54169,-200,4,2,1,55,0,0
54500,-200,4,2,1,75,0,0
54748,-66.6666666666667,4,2,1,75,0,0
54996,-66.6666666666667,4,2,1,55,0,0
55244,-133.333333333333,4,2,1,55,0,0
55492,-80,4,2,1,75,0,0
55740,-66.6666666666667,4,2,1,75,0,0
55987,-80,4,2,1,75,0,0
56235,-133.333333333333,4,2,1,75,0,0
56483,-80,4,2,1,75,0,0
56731,-133.333333333333,4,2,1,75,0,0
56979,-133.333333333333,4,2,1,55,0,0
57145,-200,4,2,1,55,0,0
57475,-200,4,2,1,75,0,0
57723,-66.6666666666667,4,2,1,75,0,0
57971,-66.6666666666667,4,2,1,55,0,0
58136,-200,4,2,1,55,0,0
58467,-66.6666666666667,4,2,1,75,0,0
58715,-200,4,2,1,75,0,0
58963,-200,4,2,1,55,0,0
59211,-66.6666666666667,4,2,1,75,0,0
59459,-80,4,2,1,75,0,0
59706,-133.333333333333,4,2,1,65,0,0
59954,-133.333333333333,4,2,1,55,0,0
60202,-100,4,2,1,55,0,0
60450,-80,4,2,1,75,0,0
60698,-66.6666666666667,4,2,1,75,0,0
60946,-133.333333333333,4,2,1,40,0,0
65161,-200,4,2,1,40,0,0
74500,-200,4,2,1,35,0,0
74748,-200,4,2,1,30,0,0
74830,-400,4,2,1,30,0,0
75822,-1000,4,2,1,15,0,0
76235,-1000,4,2,1,5,0,0
76318,-1000,4,2,1,15,0,0
76731,-1000,4,2,1,5,0,0
76814,-400,4,2,1,75,0,1
77806,-100,4,2,1,45,0,1
79789,-1000,4,2,1,45,0,0
80202,-1000,4,2,1,5,0,0
80285,-1000,4,2,1,45,0,0
80698,-1000,4,2,1,5,0,0
80781,-400,4,2,1,75,0,1
81773,-100,4,2,1,45,0,1
83756,-100,4,2,1,60,0,0
84748,-400,4,2,1,75,0,1
85740,-400,4,2,1,45,0,1
85987,-100,4,2,1,45,0,1
87723,-100,4,2,1,45,0,0
88219,-1000,4,2,1,45,0,0
88632,-1000,4,2,1,5,0,0
88715,-133.333333333333,4,2,1,30,0,1
89335,-133.333333333333,4,2,1,30,0,0
89459,-100,4,2,1,40,0,1
90078,-100,4,2,1,40,0,0
90202,-80,4,2,1,50,0,1
90822,-80,4,2,1,50,0,0
90946,-66.6666666666667,4,2,1,60,0,1
91566,-66.6666666666667,4,2,1,60,0,0
91690,-400,4,2,1,70,0,0
92186,-100,4,2,1,15,0,0
92268,-83.3333333333333,4,2,1,25,0,0
92351,-71.4285714285714,4,2,1,35,0,0
92434,-62.5,4,2,1,45,0,0
92516,-55.5555555555556,4,2,1,55,0,0
92599,-50,4,2,1,65,0,0
92682,-200,4,2,1,75,0,0
93178,-66.6666666666667,4,2,1,85,0,1
93425,-100,4,2,1,85,0,1
93921,-66.6666666666667,4,2,1,85,0,1
94087,-133.333333333333,4,2,1,85,0,1
94417,-100,4,2,1,85,0,1
94665,-133.333333333333,4,2,1,85,0,1
94913,-66.6666666666667,4,2,1,85,0,1
95161,-100,4,2,1,85,0,1
95409,-80,4,2,1,85,0,1
95657,-100,4,2,1,85,0,1
96153,-133.333333333333,4,2,1,85,0,1
96401,-66.6666666666667,4,2,1,85,0,1
96649,-100,4,2,1,85,0,1
96897,-66.6666666666667,4,2,1,85,0,1
97145,-100,4,2,1,85,0,1
97392,-66.6666666666667,4,2,1,85,0,1
97558,-100,4,2,1,85,0,1
97888,-133.333333333333,4,2,1,85,0,1
98136,-100,4,2,1,85,0,1
98384,-66.6666666666667,4,2,1,85,0,1
98632,-100,4,2,1,85,0,1
99128,-80,4,2,1,85,0,1
99376,-100,4,2,1,85,0,1
99624,-80,4,2,1,85,0,1
99872,-100,4,2,1,85,0,1
100120,-133.333333333333,4,2,1,85,0,1
100368,-66.6666666666667,4,2,1,85,0,0
100616,-133.333333333333,4,2,1,85,0,1
101277,-80,4,2,1,85,0,1
101607,-133.333333333333,4,2,1,85,0,1
101855,-100,4,2,1,85,0,1
102021,-66.6666666666667,4,2,1,85,0,1
102599,-100,4,2,1,85,0,1
102847,-66.6666666666667,4,2,1,85,0,1
103012,-100,4,2,1,85,0,1
103343,-66.6666666666667,4,2,1,85,0,1
103591,-133.333333333333,4,2,1,85,0,1
104087,-100,4,2,1,85,0,1
105078,-66.6666666666667,4,2,1,85,0,1
105244,-100,4,2,1,85,0,1
105492,-80,4,2,1,85,0,1
105822,-133.333333333333,4,2,1,85,0,1
106070,-66.6666666666667,4,2,1,85,0,1
106566,-80,4,2,1,85,0,1
106814,-133.333333333333,4,2,1,85,0,1
107062,-80,4,2,1,85,0,1
107310,-133.333333333333,4,2,1,85,0,1
107558,-66.6666666666667,4,2,1,85,0,1
107806,-100,4,2,1,85,0,1
108054,-133.333333333333,4,2,1,85,0,1
108302,-200,4,2,1,85,0,1
108549,-100,4,2,1,55,0,0
109045,-133.333333333333,4,2,1,55,0,0
110037,-66.6666666666667,4,2,1,85,0,1
110285,-100,4,2,1,85,0,1
110533,-66.6666666666667,4,2,1,85,0,1
110781,-100,4,2,1,85,0,1
111029,-66.6666666666667,4,2,1,85,0,1
111525,-100,4,2,1,85,0,1
111773,-66.6666666666667,4,2,1,85,0,1
112268,-66.6666666666667,4,2,1,90,0,1
112516,-57.1428571428571,4,2,1,95,0,1
112764,-66.6666666666667,4,2,1,85,0,1
113012,-80,4,2,1,75,0,1
113260,-100,4,2,1,65,0,1
113508,-100,4,2,1,55,0,1
113756,-100,4,2,1,50,0,1
114004,-100,4,2,1,85,0,1
114087,-100,4,2,1,60,0,1
114169,-100,4,2,1,65,0,1
114252,-100,4,2,1,70,0,1
114335,-100,4,2,1,75,0,1
114417,-100,4,2,1,80,0,1
114500,-66.6666666666667,4,2,1,85,0,1
114748,-133.333333333333,4,2,1,85,0,1
114996,-66.6666666666667,4,2,1,85,0,1
115492,-80,4,2,1,85,0,1
115740,-100,4,2,1,85,0,1
115987,-100,4,2,1,95,0,0
116070,-100,4,2,1,85,0,0
116153,-100,4,2,1,75,0,0
116235,-100,4,2,1,65,0,0
116318,-100,4,2,1,55,0,0
116401,-100,4,2,1,45,0,0
116483,-133.333333333333,4,2,1,85,0,1
116979,-100,4,2,1,85,0,1
117475,-80,4,2,1,85,0,1
118467,-66.6666666666667,4,2,1,85,0,1
118963,-57.1428571428571,4,2,1,85,0,1
119459,-100,4,2,1,85,0,1
119954,-133.333333333333,4,2,1,85,0,1
120450,-133.333333333333,4,2,1,95,0,1
120616,-100,4,2,1,95,0,1
121111,-133.333333333333,4,2,1,95,0,1
121442,-100,4,2,1,95,0,1
121607,-133.333333333333,4,2,1,95,0,1
121773,-100,4,2,1,95,0,1
121938,-80,4,2,1,95,0,1
122103,-100,4,2,1,95,0,1
122268,-133.333333333333,4,2,1,95,0,1
122434,-133.333333333333,4,2,1,70,0,1
122764,-133.333333333333,4,2,1,80,0,1
122930,-133.333333333333,4,2,1,75,0,1
123260,-133.333333333333,4,2,1,85,0,1
123425,-133.333333333333,4,2,1,80,0,1
123756,-133.333333333333,4,2,1,90,0,1
123921,-133.333333333333,4,2,1,85,0,1
124252,-133.333333333333,4,2,1,95,0,1
124417,-100,4,2,1,40,0,0
126607,983.606557377049,4,2,1,25,1,0
127590,-100,4,2,1,20,0,0

[Colours]
Combo1 : 128,255,128
Combo2 : 128,255,255
Combo3 : 51,153,255
Combo4 : 171,87,255

[HitObjects]
400,0,3426,6,0,B|315:4|375:134|459:52,1,187.5,0|0,2:0|2:0,2:0:0:0:
509,10,3859,1,2,2:0:0:0:
512,6,3921,1,2,2:0:0:0:
395,96,4293,5,2,2:0:0:0:
374,164,4913,1,2,2:0:0:0:
394,225,5409,1,2,2:0:0:0:
432,251,5905,1,2,2:0:0:0:
271,257,7888,6,0,B|258:124|250:210|239:71,1,187.5,0|0,2:0|2:0,2:0:0:0:
253,5,8322,1,2,2:0:0:0:
256,0,8384,1,2,2:0:0:0:
291,123,8756,5,2,2:0:0:0:
233,171,9376,1,2,2:0:0:0:
277,226,9872,2,0,B|303:257|278:292|257:288,1,83.3333333333333,2|0,2:0|2:0,2:0:0:0:
234,303,10120,2,0,B|201:299|220:293|187:289,1,41.6666666666667,0|2,2:0|2:0,2:0:0:0:
146,241,10368,1,2,2:0:0:0:
112,0,12289,5,2,2:0:0:0:
112,0,12351,2,0,B|197:4|137:134|53:52,1,187.5,2|0,2:0|2:0,2:0:0:0:
3,10,12785,1,2,2:0:0:0:
0,6,12847,1,2,2:0:0:0:
113,101,13219,1,2,2:0:0:0:
60,148,13343,6,0,B|92:101|177:153|82:248,1,187.5,4|0,3:0|2:0,2:0:0:0:
21,210,13839,1,10,2:0:0:0:
209,318,14335,5,2,2:0:0:0:
308,384,14706,2,0,B|311:363|313:375|318:353,1,31.25,2|8,2:0|2:0,2:0:0:0:
139,366,15326,5,0,2:0:0:0:
388,306,15740,1,0,2:0:0:0:
390,301,15822,1,8,2:0:0:0:
139,366,16318,6,0,B|272:353|186:345|325:334,1,187.5,0|0,2:0|2:0,2:0:0:0:
388,306,16752,1,2,2:0:0:0:
390,301,16814,1,10,2:0:0:0:
469,92,17186,6,0,B|425:30|311:98|439:226,1,250,2|0,2:0|2:0,2:0:0:0:
512,172,17806,1,10,2:0:0:0:
289,88,18302,6,0,B|227:101|270:102|195:119,1,83.3333333333333,2|0,2:0|2:0,2:0:0:0:
145,87,18549,2,0,B|125:79|120:36|159:22,1,83.3333333333333,0|2,2:0|2:0,2:0:0:0:
231,50,18797,1,10,2:0:0:0:
48,143,19045,6,0,B|57:117|57:133|67:106,1,41.6666666666667,0|2,2:0|2:0,2:0:0:0:
66,164,19293,2,0,B|60:109|53:140|47:82,1,83.3333333333333,0|2,2:0|2:0,2:0:0:0:
31,10,19541,1,2,2:0:0:0:
81,241,19789,2,0,B|70:268|71:251|59:281,1,46.8750000000001,8|2,2:0|2:0,2:0:0:0:
308,351,20285,5,8,2:3:0:0:
179,321,20450,1,0,3:0:0:0:
177,329,20533,2,0,B|237:312|198:309|273:293,1,83.3333333333333,0|0,3:0|2:0,2:0:0:0:
304,246,20781,2,0,B|306:236|302:241|305:228,2,15.625,8|2|2,2:3|2:0|2:0,2:0:0:0:
512,341,21153,1,2,2:0:0:0:
447,384,21277,6,0,B|402:395|368:310|444:276,1,156.25,0|0,3:0|2:0,2:0:0:0:
370,280,21773,2,0,B|456:228|382:231|487:173,1,156.25,2|0,3:2|2:0,2:0:0:0:
403,144,22268,5,8,2:3:0:0:
405,137,22640,2,0,B|408:108|412:124|415:92,1,46.8750000000001,2|8,2:0|2:0,2:0:0:0:
256,39,23178,5,2,2:0:0:0:
118,160,23508,5,0,2:0:0:0:
111,139,23591,1,2,2:0:0:0:
97,122,23673,1,2,2:0:0:0:
91,101,23756,1,2,2:0:0:0:
256,33,24252,6,0,B|239:126|273:76|255:173,1,140.625,0|0,2:0|2:0,2:0:0:0:
256,246,24686,1,2,2:0:0:0:
256,240,24748,1,2,2:0:0:0:
70,384,25120,1,2,2:0:0:0:
51,315,25244,6,0,B|102:323|76:335|128:345,1,83.3333333333333,8|0,2:0|2:0,2:0:0:0:
127,345,25492,1,8,2:0:0:0:
329,248,25740,2,0,B|320:299|308:273|298:325,1,83.3333333333333,8|0,2:0|2:0,2:0:0:0:
299,324,25987,1,8,2:0:0:0:
504,384,26235,6,0,B|517:380|524:338|480:318,1,83.3333333333333,10|0,2:0|2:0,2:0:0:0:
429,241,26566,1,0,2:0:0:0:
429,241,26649,1,2,2:0:0:0:
429,241,26731,2,0,B|433:202|445:220|449:179,1,62.5000000000002,10|0,2:0|2:0,2:0:0:0:
485,198,26979,2,0,B|489:159|501:177|505:136,1,62.5000000000002,8|0,2:0|2:0,2:0:0:0:
449,44,27227,6,0,B|405:52|417:63|366:74,1,83.3333333333333,8|2,2:0|2:0,2:0:0:0:
391,140,27475,2,0,B|347:131|359:120|308:109,1,83.3333333333333,8|2,2:0|2:0,2:0:0:0:
271,48,27723,2,0,B|239:39|249:32|214:23,1,62.5,8|0,2:0|2:0,2:0:0:0:
209,27,27888,1,2,2:0:0:0:
212,103,27971,2,0,B|180:111|190:118|155:127,1,62.5,8|0,2:0|2:0,2:0:0:0:
150,124,28136,1,2,2:0:0:0:
44,79,28219,5,0,3:0:0:0:
46,83,28384,5,0,3:0:0:0:
48,87,28549,5,0,3:0:0:0:
4,219,28715,5,0,3:0:0:0:
6,223,28880,5,0,3:0:0:0:
8,227,29045,5,0,3:0:0:0:
120,326,29211,5,0,3:0:0:0:
60,366,29376,2,0,B|43:363|43:358|25:355,1,31.2500000000001,0|2,2:0|3:2,2:0:0:0:
122,330,29624,1,2,3:2:0:0:
124,334,29706,2,0,B|131:320|157:311|186:323,1,62.5000000000002,0|2,3:0|2:0,2:0:0:0:
243,291,29954,1,0,3:0:0:0:
213,384,30120,6,0,B|229:383|230:378|248:376,1,31.2500000000001,0|2,2:0|3:2,2:0:0:0:
301,334,30368,2,0,B|317:333|318:328|336:326,1,31.2500000000001,0|0,2:0|3:0,2:0:0:0:
387,375,30616,1,2,3:2:0:0:
389,379,30698,2,0,B|415:376|417:366|449:364,1,62.5000000000002,0|0,3:0|2:0,2:0:0:0:
512,334,30946,5,2,3:2:0:0:
390,284,31111,2,0,B|388:264|380:263|379:239,1,41.6666666666667,0|0,2:0|3:0,2:0:0:0:
497,200,31359,5,2,2:0:0:0:
495,196,31442,2,0,B|488:182|462:173|433:185,1,62.5000000000002,2|0,3:2|3:0,2:0:0:0:
370,174,31690,1,0,3:0:0:0:
309,235,31855,2,0,B|293:234|292:229|274:227,1,31.2500000000001,2|0,2:0|3:0,2:0:0:0:
210,311,32103,1,2,2:0:0:0:
212,315,32186,2,0,B|239:313|241:304|272:301,1,62.5000000000002,0|0,2:0|3:0,2:0:0:0:
211,239,32434,1,8,3:0:0:0:
128,340,32599,5,2,3:2:0:0:
126,336,32682,1,8,3:2:0:0:
139,320,32764,1,8,2:0:0:0:
142,299,32847,1,10,2:0:0:0:
139,279,32930,1,8,3:2:0:0:
67,234,33095,1,8,2:0:0:0:
49,243,33178,5,0,3:0:0:0:
7,328,33343,2,0,B|6:312|1:311|-1:293,1,31.2500000000001,0|2,2:0|3:2,2:0:0:0:
91,382,33591,1,0,3:0:0:0:
95,380,33673,2,0,B|93:348|83:346|79:310,1,62.5000000000002,0|2,3:0|2:0,2:0:0:0:
141,275,33921,1,0,3:0:0:0:
191,355,34087,6,0,B|192:339|197:338|199:320,1,31.2500000000001,2|0,2:0|3:0,2:0:0:0:
265,285,34335,2,0,B|266:269|271:268|273:250,1,31.2500000000001,0|2,2:0|3:2,2:0:0:0:
321,357,34583,1,0,2:0:0:0:
325,355,34665,2,0,B|327:323|337:321|341:285,1,62.5000000000002,0|2,3:0|2:0,2:0:0:0:
337,220,34913,5,0,3:0:0:0:
455,260,35078,2,0,B|471:259|472:254|490:252,1,31.2500000000001,2|0,3:2|3:0,2:0:0:0:
426,376,35326,5,0,2:0:0:0:
422,374,35409,2,0,B|408:367|399:341|411:312,1,62.5000000000002,2|0,3:2|3:0,2:0:0:0:
453,264,35657,1,0,3:0:0:0:
503,348,35822,2,0,B|504:332|509:331|511:313,1,31.2500000000001,2|0,2:0|3:0,2:0:0:0:
411,202,36070,1,0,2:0:0:0:
413,198,36153,6,0,B|445:196|447:186|483:182,1,62.5000000000002,2|0,3:2|3:0,2:0:0:0:
512,120,36401,2,0,B|480:118|478:108|442:104,1,62.5000000000002,2|2,3:2|3:2,2:0:0:0:
402,46,36649,5,8,2:0:0:0:
419,26,36731,1,2,2:0:0:0:
446,30,36814,1,8,2:0:0:0:
450,55,36897,1,0,2:0:0:0:
417,80,36979,1,2,2:0:0:0:
350,77,37062,1,2,2:0:0:0:
295,22,37145,6,0,B|295:-26|352:-9|284:25,1,62.5,4|0,2:1|2:0,2:0:0:0:
0,109,37640,5,4,3:0:0:0:
111,61,37806,1,2,2:0:0:0:
115,59,37888,2,0,B|113:39|105:38|104:14,1,41.6666666666667,0|0,2:0|2:0,2:0:0:0:
34,0,38054,6,0,B|33:16|28:17|26:35,1,31.2500000000001,0|2,2:0|3:2,2:0:0:0:
74,173,38302,2,0,B|75:159|80:158|81:142,1,31.2500000000001,0|0,2:0|3:0,2:0:0:0:
193,44,38549,1,2,3:2:0:0:
205,55,38632,2,0,B|203:87|193:89|189:125,1,62.5000000000002,0|0,3:0|2:0,2:0:0:0:
146,168,38880,5,2,3:2:0:0:
303,230,39045,2,0,B|322:227|335:218|337:208,1,41.6666666666667,0|0,2:0|3:0,2:0:0:0:
279,89,39293,5,2,2:0:0:0:
267,100,39376,2,0,B|269:132|279:134|283:170,1,62.5000000000002,2|0,3:2|3:0,2:0:0:0:
339,206,39624,1,0,3:0:0:0:
476,162,39789,2,0,B|474:148|469:147|468:131,1,31.2500000000001,2|0,2:0|3:0,2:0:0:0:
363,27,40037,1,2,2:0:0:0:
368,44,40120,6,0,B|368:63|376:64|378:84,1,41.6666666666667,0|0,3:0|2:0,2:0:0:0:
396,151,40285,1,0,3:0:0:0:
398,155,40368,1,2,3:2:0:0:
505,266,40533,6,0,B|504:253|499:252|498:236,1,31.2500000000001,2|0,3:2|3:0,2:0:0:0:
360,279,40781,2,0,B|361:292|366:293|367:309,1,31.2500000000001,2|0,3:2|3:0,2:0:0:0:
512,356,41029,1,0,2:0:0:0:
502,340,41111,6,0,B|482:339|481:331|461:329,1,41.6666666666667,0|0,3:0|2:0,2:0:0:0:
373,381,41277,2,0,B|389:380|390:375|403:373,1,31.2500000000001,0|2,2:0|3:2,2:0:0:0:
279,307,41525,1,0,3:0:0:0:
289,289,41607,2,0,B|321:287|323:277|349:273,1,62.5000000000002,0|2,3:0|2:0,2:0:0:0:
249,226,41855,6,0,B|269:225|270:217|290:215,1,41.6666666666667,0|0,3:0|2:0,2:0:0:0:
210,288,42021,2,0,B|194:287|193:282|180:281,1,31.2500000000001,2|0,2:0|3:0,2:0:0:0:
30,384,42268,2,0,B|14:383|13:378|0:377,1,31.2500000000001,0|2,2:0|3:2,2:0:0:0:
149,362,42516,1,0,2:0:0:0:
139,344,42599,2,0,B|107:342|105:332|79:328,1,62.5000000000002,0|2,3:0|2:0,2:0:0:0:
69,253,42847,2,0,B|53:252|52:247|39:246,1,31.2500000000001,0|0,3:0|2:0,2:0:0:0:
1,183,43012,6,0,B|17:182|18:177|31:176,1,31.2500000000001,2|0,3:2|3:0,2:0:0:0:
136,225,43260,1,0,2:0:0:0:
151,202,43343,2,0,B|183:200|185:190|211:186,1,62.5000000000002,2|0,3:2|3:0,2:0:0:0:
271,226,43591,2,0,B|287:225|288:220|301:219,1,31.2500000000001,0|0,3:0|2:0,2:0:0:0:
345,157,43756,2,0,B|329:156|328:151|315:150,1,31.2500000000001,2|0,2:0|3:0,2:0:0:0:
423,233,44004,2,0,B|407:232|406:227|393:226,1,31.2500000000001,0|0,2:0|3:0,2:0:0:0:
512,134,44252,1,0,3:0:0:0:
495,150,44335,2,0,B|479:149|478:144|465:143,1,31.2500000000001,0|0,3:0|2:0,2:0:0:0:
463,66,44500,1,8,3:0:0:0:
393,101,44583,6,0,B|334:103|319:31|360:8,1,125,8|0,3:0|2:0,2:0:0:0:
249,86,44830,2,0,B|275:77|281:85|313:74,1,62.5000000000002,2|0,2:0|2:0,2:0:0:0:
79,34,45078,6,0,B|57:32|56:25|38:24,1,41.6666666666667,0|0,2:0|2:0,2:0:0:0:
36,28,45492,1,0,3:0:0:0:
147,61,45574,6,0,B|149:80|156:81|159:100,1,41.6666666666667,8|0,3:0|2:0,2:0:0:0:
176,23,45822,2,0,B|158:102|152:64|133:142,1,125,2|0,3:2|2:0,2:0:0:0:
81,295,46070,5,0,3:0:0:0:
156,236,46235,2,0,B|146:234|146:231|136:229,1,20.8333333333333,0|0,2:0|3:0,2:0:0:0:
232,268,46483,1,2,3:2:0:0:
143,330,46566,6,0,B|162:327|163:320|182:317,1,41.6666666666667,8|0,3:0|2:0,2:0:0:0:
105,301,46814,2,0,B|184:318|146:324|224:343,1,125,2|0,3:2|2:0,2:0:0:0:
380,384,47062,5,0,3:0:0:0:
495,312,47227,1,0,2:0:0:0:
474,330,47310,2,0,B|445:343|419:305|430:270,1,83.3333333333333,2|0,3:2|3:0,2:0:0:0:
490,224,47558,2,0,B|493:191|427:178|401:216,1,104.166666666667,8|0,3:0|2:0,2:0:0:0:
343,307,47806,2,0,B|335:334|379:308|342:276,1,62.5000000000002,0|0,3:0|2:0,2:0:0:0:
275,232,48054,6,0,B|267:204|291:169|318:166,1,83.3333333333333,0|0,3:0|3:0,2:0:0:0:
219,150,48302,2,0,B|206:123|240:92|272:108,1,83.3333333333333,2|0,3:2|3:0,2:0:0:0:
405,186,48549,2,0,B|426:155|394:106|358:114,1,104.166666666667,8|0,3:0|2:0,2:0:0:0:
451,43,48797,2,0,B|415:3|355:17|368:44,1,104.166666666667,2|0,3:2|2:0,2:0:0:0:
512,92,49045,5,0,3:0:0:0:
449,124,49211,2,0,B|438:123|438:119|429:119,1,20.8333333333333,0|0,2:0|3:0,2:0:0:0:
508,162,49459,1,2,3:2:0:0:
362,154,49541,6,0,B|343:156|342:163|323:166,1,41.6666666666667,8|0,3:0|2:0,2:0:0:0:
400,183,49789,2,0,B|321:165|359:159|281:140,1,125,2|0,3:2|2:0,2:0:0:0:
105,89,50037,5,0,3:0:0:0:
172,63,50202,2,0,B|173:74|177:74|177:83,1,20.8333333333333,0|0,2:0|3:0,2:0:0:0:
114,18,50450,1,2,2:0:0:0:
160,168,50533,6,0,B|158:187|151:188|148:207,1,41.6666666666667,8|0,3:0|2:0,2:0:0:0:
131,130,50781,2,0,B|149:209|155:171|174:249,1,125,2|0,3:2|3:0,2:0:0:0:
220,384,51029,5,0,3:0:0:0:
81,284,51194,1,0,2:0:0:0:
62,301,51277,2,0,B|84:302|95:333|92:355,1,62.5000000000002,0|0,3:0|3:0,2:0:0:0:
200,375,51525,2,0,B|186:353|203:300|258:291,1,104.166666666667,8|0,3:0|2:0,2:0:0:0:
150,215,51773,2,0,B|108:225|163:279|175:238,1,83.3333333333333,2|0,3:2|2:0,2:0:0:0:
291,201,52021,6,0,B|325:195|356:243|317:279,1,104.166666666667,2|0,3:2|3:0,2:0:0:0:
401,329,52268,2,0,B|376:327|349:347|344:372,1,62.5000000000002,0|0,3:0|3:0,2:0:0:0:
512,270,52516,1,8,3:0:0:0:
471,263,52599,1,8,2:0:0:0:
433,245,52682,1,8,2:0:0:0:
404,216,52764,2,0,B|405:195|415:194|417:163,1,41.6666666666667,8|0,3:2|2:0,2:0:0:0:
497,82,52930,1,8,2:0:0:0:
512,107,53012,6,0,B|491:105|490:95|459:93,1,41.6666666666667,0|0,3:0|2:0,2:0:0:0:
417,38,53260,2,0,B|427:37|427:32|443:31,1,20.8333333333333,0|0,3:0|2:0,2:0:0:0:
440,29,53425,1,0,3:0:0:0:
321,65,53508,6,0,B|302:67|301:74|282:77,1,41.6666666666667,8|0,3:0|2:0,2:0:0:0:
359,94,53756,2,0,B|280:76|318:70|240:51,1,125,2|0,3:2|2:0,2:0:0:0:
59,86,54004,5,0,3:0:0:0:
111,140,54169,2,0,B|121:139|121:134|137:133,1,20.8333333333333,0|0,2:0|3:0,2:0:0:0:
36,160,54417,1,0,3:0:0:0:
113,247,54500,6,0,B|106:229|99:230|91:212,1,41.6666666666667,8|0,3:0|2:0,2:0:0:0:
94,290,54748,2,0,B|90:209|106:244|104:163,1,125,2|0,3:2|2:0,2:0:0:0:
18,16,54996,5,0,3:0:0:0:
171,74,55161,1,0,2:0:0:0:
190,61,55244,2,0,B|199:54|197:24|171:7,1,62.5000000000002,0|0,3:0|3:0,2:0:0:0:
273,121,55492,2,0,B|240:122|219:179|239:212,1,104.166666666667,8|0,3:0|2:0,2:0:0:0:
385,85,55740,2,0,B|352:100|277:57|329:8,1,125,2|0,3:2|2:0,2:0:0:0:
481,0,55987,6,0,B|498:9|512:63|454:95,1,104.166666666667,2|0,3:2|3:0,2:0:0:0:
379,177,56235,2,0,B|406:172|409:162|438:158,1,62.5000000000002,0|0,3:0|3:0,2:0:0:0:
512,284,56483,2,0,B|530:263|494:217|445:233,1,104.166666666667,8|0,3:0|2:0,2:0:0:0:
326,305,56731,2,0,B|317:327|324:358|341:364,1,62.5000000000002,2|0,3:2|2:0,2:0:0:0:
484,358,56979,5,0,3:0:0:0:
418,321,57145,2,0,B|416:331|413:331|411:341,1,20.8333333333333,0|0,2:0|3:0,2:0:0:0:
488,356,57392,1,0,3:0:0:0:
301,350,57475,6,0,B|282:348|281:341|262:338,1,41.6666666666667,8|0,3:0|2:0,2:0:0:0:
339,321,57723,2,0,B|260:339|298:345|220:364,1,125,2|0,3:2|2:0,2:0:0:0:
9,283,57971,5,0,3:0:0:0:
75,250,58136,2,0,B|71:241|68:242|64:232,1,20.8333333333333,0|0,2:0|3:0,2:0:0:0:
5,281,58384,1,0,2:0:0:0:
193,162,58467,6,0,B|132:216|149:181|89:234,1,125,8|0,3:0|2:0,2:0:0:0:
147,176,58715,2,0,B|137:192|142:197|134:214,1,41.6666666666667,2|0,3:2|2:0,2:0:0:0:
59,384,58963,5,0,3:0:0:0:
224,343,59128,1,0,2:0:0:0:
201,353,59211,2,0,B|165:337|181:263|248:265,1,125,2|0,3:2|3:0,2:0:0:0:
363,172,59459,2,0,B|338:164|292:196|313:255,1,104.166666666667,8|0,3:0|2:0,2:0:0:0:
427,295,59706,2,0,B|464:297|442:251|418:290,1,62.5000000000002,0|0,3:0|2:0,2:0:0:0:
335,384,59954,6,0,B|339:352|347:354|351:324,1,62.5000000000002,0|0,3:0|3:0,2:0:0:0:
253,307,60202,2,0,B|247:265|237:267|229:227,1,83.3333333333333,8|0,3:2|2:0,2:0:0:0:
351,226,60450,6,0,B|357:174|369:176|379:126,1,104.166666666667,8|0,3:0|3:0,2:0:0:0:
235,133,60698,2,0,B|227:71|211:73|201:13,1,125,2|0,3:2|2:0,2:0:0:0:
285,60,60946,6,0,B|206:44|234:97|146:79,1,140.625,8|2,2:1|2:0,2:0:0:0:
48,56,61690,1,0,2:0:0:0:
198,231,61938,6,0,B|153:164|136:221|86:146,1,140.625,0|2,2:0|2:0,2:0:0:0:
46,52,62682,1,0,2:0:0:0:
19,285,62930,6,0,B|34:206|-18:234|0:146,1,140.625,0|2,2:0|2:0,2:0:0:0:
44,48,63673,1,0,2:0:0:0:
130,264,63921,6,0,B|118:343|78:298|64:387,2,140.625,2|2|8,2:0|2:0|2:0,2:0:0:0:
80,141,64913,5,8,2:1:0:0:
80,141,65161,2,0,B|291:97|179:305|406:257,1,375,2|0,2:0|2:0,2:0:0:0:
474,316,66897,5,0,2:0:0:0:
381,372,67392,1,2,2:0:0:0:
270,281,67888,1,0,2:0:0:0:
323,117,68384,1,2,2:0:0:0:
512,51,68880,5,8,2:3:0:0:
487,82,69045,1,8,2:3:0:0:
405,52,69293,1,8,2:3:0:0:
403,56,69376,1,8,2:0:0:0:
338,113,69624,5,8,2:3:0:0:
313,144,69789,1,8,2:3:0:0:
231,114,70037,1,8,2:3:0:0:
164,170,70285,1,8,2:3:0:0:
162,166,70368,1,8,2:0:0:0:
95,145,70533,1,8,2:3:0:0:
93,141,70616,1,8,2:3:0:0:
48,199,70781,1,8,2:3:0:0:
46,203,70864,5,0,2:0:0:0:
65,238,71029,1,8,2:3:0:0:
147,264,71277,1,8,2:3:0:0:
145,268,71359,1,8,2:0:0:0:
226,297,71607,5,8,2:3:0:0:
245,332,71773,1,8,2:3:0:0:
327,358,72021,1,8,2:3:0:0:
409,384,72268,1,8,2:3:0:0:
411,380,72351,1,8,2:0:0:0:
474,349,72516,1,8,2:3:0:0:
476,345,72599,1,8,2:3:0:0:
433,286,72764,1,8,2:3:0:0:
435,290,72847,5,0,2:0:0:0:
454,254,73012,1,8,2:3:0:0:
370,220,73260,1,8,2:3:0:0:
372,216,73343,1,8,2:0:0:0:
289,188,73591,5,8,2:3:0:0:
270,152,73756,1,8,2:3:0:0:
334,92,74004,1,8,2:3:0:0:
399,33,74252,1,8,2:3:0:0:
397,29,74335,1,8,2:0:0:0:
326,16,74500,1,8,2:3:0:0:
328,20,74583,1,8,2:3:0:0:
258,4,74748,1,8,2:3:0:0:
256,0,74830,6,0,B|257:-1|258:-1|258:-4,2,3.90625,8|2|2,2:1|2:0|2:0,2:0:0:0:
259,0,75822,6,0,B|258:12|254:10|254:21,1,20.8333333333333,2|0,2:0|2:0,2:0:0:0:
254,90,76318,6,0,B|254:102|258:100|259:111,1,20.8333333333333,2|0,2:0|2:0,2:0:0:0:
260,384,76814,6,0,B|262:331|250:344|253:290,1,93.75,4|0,3:0|2:0,2:0:0:0:
446,236,77806,6,0,B|446:246|450:242|450:256,10,20.8333333333333,0|0|0|0|0|0|2|2|2|2|2,2:0|2:0|2:0|2:0|2:0|2:0|2:0|2:0|2:0|2:0|2:0,2:0:0:0:
365,109,78302,2,0,B|364:98|360:102|360:88,10,20.8333333333333,0|0|0|0|0|0|2|2|2|2|2,2:0|2:0|2:0|2:0|2:0|2:0|2:0|2:0|2:0|2:0|2:0,2:0:0:0:
378,274,78797,6,0,B|377:284|373:280|373:294,10,20.8333333333333,0|0|0|0|0|0|2|2|2|2|2,2:0|2:0|2:0|2:0|2:0|2:0|2:0|2:0|2:0|2:0|2:0,2:0:0:0:
431,81,79293,2,0,B|431:70|435:74|435:60,10,20.8333333333333,0|0|0|0|0|0|2|2|2|2|2,2:0|2:0|2:0|2:0|2:0|2:0|2:0|2:0|2:0|2:0|2:0,2:0:0:0:
253,0,79789,6,0,B|253:12|257:10|258:21,1,20.8333333333333,8|0,2:1|2:0,2:0:0:0:
258,90,80285,6,0,B|257:102|253:100|253:111,1,20.8333333333333,2|0,2:0|2:0,2:0:0:0:
252,384,80781,6,0,B|249:331|261:344|258:290,1,93.75,4|0,3:0|2:0,2:0:0:0:
59,175,81773,6,0,B|49:175|53:171|39:171,10,20.8333333333333,0|0|0|0|0|0|2|2|2|2|2,2:0|2:0|2:0|2:0|2:0|2:0|2:0|2:0|2:0|2:0|2:0,2:0:0:0:
192,214,82268,2,0,B|203:215|199:219|213:219,10,20.8333333333333,0|0|0|0|0|0|2|2|2|2|2,2:0|2:0|2:0|2:0|2:0|2:0|2:0|2:0|2:0|2:0|2:0,2:0:0:0:
36,249,82764,6,0,B|26:249|30:253|16:253,10,20.8333333333333,0|0|0|0|0|0|2|2|2|2|2,2:0|2:0|2:0|2:0|2:0|2:0|2:0|2:0|2:0|2:0|2:0,2:0:0:0:
209,135,83260,2,0,B|220:134|216:130|230:130,10,20.8333333333333,0|0|0|0|0|0|2|2|2|2|2,2:0|2:0|2:0|2:0|2:0|2:0|2:0|2:0|2:0|2:0|2:0,2:0:0:0:
123,0,83756,5,8,3:2:0:0:
128,32,83921,5,2,3:2:0:0:
133,64,84087,5,2,3:2:0:0:
389,111,84252,5,8,3:2:0:0:
384,143,84417,5,2,3:2:0:0:
379,175,84583,5,2,3:2:0:0:
260,384,84748,6,0,B|262:331|250:344|253:290,1,93.75,4|0,3:0|2:0,2:0:0:0:
179,83,85740,5,0,2:0:0:0:
181,78,85822,1,0,2:0:0:0:
183,73,85905,1,0,2:0:0:0:
185,68,85987,2,0,B|186:57|190:61|190:47,4,20.8333333333333,2|2|2|2|2,2:0|2:0|2:0|2:0|2:0,2:0:0:0:
337,142,86235,5,0,2:0:0:0:
335,147,86318,1,0,2:0:0:0:
333,152,86401,1,0,2:0:0:0:
331,157,86483,2,0,B|330:168|326:164|326:178,4,20.8333333333333,2|2|2|2|2,2:0|2:0|2:0|2:0|2:0,2:0:0:0:
171,155,86731,5,0,2:0:0:0:
166,157,86814,1,0,2:0:0:0:
161,159,86897,1,0,2:0:0:0:
156,161,86979,2,0,B|145:162|149:166|135:166,4,20.8333333333333,2|2|2|2|2,2:0|2:0|2:0|2:0|2:0,2:0:0:0:
352,71,87227,5,0,2:0:0:0:
357,69,87310,1,0,2:0:0:0:
362,67,87392,1,0,2:0:0:0:
367,65,87475,2,0,B|378:64|374:60|388:60,4,20.8333333333333,2|2|2|2|2,2:0|2:0|2:0|2:0|2:0,2:0:0:0:
256,0,87723,5,8,2:3:0:0:
256,165,87888,1,8,2:0:0:0:
256,169,87971,1,8,2:1:0:0:
255,72,88219,6,0,B|253:83|258:82|258:93,1,20.8333333333333,0|0,3:0|2:0,2:0:0:0:
212,384,88715,6,0,B|210:372|216:373|217:362,10,23.4375000000001,4|0|0|0|0|0|0|0|0|0|0,3:0|2:0|2:0|2:0|2:0|2:0|2:0|2:0|2:0|2:0|2:0,2:0:0:0:
156,316,89459,6,0,B|158:300|164:304|170:289,10,31.25,4|0|0|0|0|0|0|0|0|0|0,3:0|2:0|2:0|2:0|2:0|2:0|2:0|2:0|2:0|2:0|2:0,2:0:0:0:
345,287,90202,6,0,B|341:267|333:272|327:253,10,39.0625,4|0|0|0|0|0|0|0|0|0|0,3:0|2:0|2:0|2:0|2:0|2:0|2:0|2:0|2:0|2:0|2:0,2:0:0:0:
386,207,90946,6,0,B|376:185|368:193|354:173,10,46.875,4|0|0|0|0|0|0|0|0|0|0,3:0|2:0|2:0|2:0|2:0|2:0|2:0|2:0|2:0|2:0|2:0,2:0:0:0:
254,89,91690,6,0,B|249:116|261:114|256:143,1,52.0833333333333,0|0,3:0|2:0,2:0:0:0:
199,188,92186,6,0,B|188:189|192:193|178:193,1,20.8333333333333,2|2,2:0|2:0,2:0:0:0:
165,176,92268,6,0,B|153:169|154:175|141:166,1,25,2|2,2:0|2:0,2:0:0:0:
144,142,92351,6,0,B|137:127|134:134|128:116,1,29.1666666666667,2|2,2:0|2:0,2:0:0:0:
146,82,92434,6,0,B|149:64|141:68|148:47,1,33.3333333333333,2|2,2:0|2:0,2:0:0:0:
190,29,92516,6,0,B|204:15|194:14|215:0,1,37.5,2|2,2:0|2:0,2:0:0:0:
262,8,92599,6,0,B|284:10|276:18|304:18,1,41.6666666666667,2|2,2:0|2:0,2:0:0:0:
336,33,92682,6,0,B|400:94|308:109|341:56,1,104.166666666667,4|0,2:1|2:0,2:0:0:0:
509,0,93178,6,0,B|501:32|516:22|506:66,1,62.5,12|0,3:0|2:0,2:0:0:0:
297,224,93343,1,2,2:0:0:0:
353,185,93425,2,0,B|359:171|340:149|301:146,1,41.6666666666667,0|0,3:0|2:0,2:0:0:0:
427,97,93591,2,0,B|424:108|447:128|482:106,1,41.6666666666667,2|0,3:2|3:0,2:0:0:0:
292,308,93839,5,2,2:0:0:0:
321,293,93921,2,0,B|352:294|344:308|387:317,1,62.5,2|0,3:2|2:0,2:0:0:0:
459,256,94087,2,0,B|445:264|457:283|478:271,1,31.2500000000001,8|8,2:0|3:0,2:0:0:0:
132,345,94335,5,2,2:0:0:0:
216,384,94417,2,0,B|231:366|183:345|214:296,1,83.3333333333333,8|0,3:2|3:0,2:0:0:0:
128,263,94665,6,0,B|147:260|143:253|159:251,1,31.2500000000001,0|0,3:0|2:0,2:0:0:0:
60,122,94830,1,0,2:0:0:0:
0,157,94913,2,0,B|73:143|70:196|116:190,1,125,2|0,3:2|3:0,2:0:0:0:
39,311,95161,2,0,B|53:295|47:256|6:249,1,83.3333333333333,8|0,3:0|2:0,2:0:0:0:
180,118,95409,2,0,B|194:97|241:140|175:199,1,104.166666666667,2|0,3:2|2:0,2:0:0:0:
29,60,95657,6,0,B|76:50|63:79|112:69,1,83.3333333333333,2|0,3:2|3:0,2:0:0:0:
226,5,95905,2,0,B|203:0|209:6|184:0,1,41.6666666666667,0|0,3:0|2:0,2:0:0:0:
172,10,96070,1,2,3:2:0:0:
297,82,96153,6,0,B|314:80|314:71|337:66,2,31.2500000000001,8|8|8,3:0|2:0|2:0,2:0:0:0:
411,83,96401,2,0,B|383:100|311:37|360:-4,1,125,2|0,3:2|2:0,2:0:0:0:
475,150,96649,6,0,B|427:159|497:211|493:162,1,83.3333333333333,0|0,3:0|2:0,2:0:0:0:
342,141,96897,2,0,B|294:170|306:253|364:232,1,125,2|0,3:2|2:0,2:0:0:0:
512,381,97145,2,0,B|515:372|500:357|477:363,1,41.6666666666667,8|0,3:0|2:0,2:0:0:0:
445,299,97310,1,2,2:0:0:0:
342,382,97392,2,0,B|311:375|330:361|289:352,1,62.5,2|0,3:2|2:0,2:0:0:0:
280,280,97558,2,0,B|234:287|252:301|202:309,1,83.3333333333333,8|0,2:0|2:0,2:0:0:0:
20,309,97806,5,0,2:0:0:0:
113,362,97888,2,0,B|128:346|122:316|83:307,1,62.5000000000002,2|0,3:2|2:0,2:0:0:0:
165,202,98136,2,0,B|125:200|130:222|89:231,1,83.3333333333333,8|0,3:0|2:0,2:0:0:0:
216,364,98384,2,0,B|255:356|248:281|154:289,1,125,2|0,3:2|2:0,2:0:0:0:
3,147,98632,6,0,B|22:146|20:157|40:161,1,41.6666666666667,0|0,3:0|2:0,2:0:0:0:
45,159,98797,1,0,3:0:0:0:
144,57,98880,6,0,B|156:64|156:119|117:129,1,83.3333333333333,2|0,3:2|3:0,2:0:0:0:
20,58,99128,6,0,B|43:53|40:40|66:34,1,52.0833333333333,8|0,3:0|2:0,2:0:0:0:
69,36,99293,1,0,3:0:0:0:
209,139,99376,6,0,B|235:170|286:156|273:136,1,83.3333333333333,8|0,3:2|2:0,2:0:0:0:
417,4,99624,6,0,B|408:27|415:29|407:56,1,52.0833333333333,2|0,3:2|2:0,2:0:0:0:
380,80,99789,1,8,3:2:0:0:
498,141,99872,2,0,B|510:178|500:182|513:223,1,83.3333333333333,2|0,3:2|3:0,2:0:0:0:
435,333,100120,2,0,B|404:329|420:287|446:305,1,62.5000000000002,8|0,3:0|2:0,2:0:0:0:
290,223,100368,2,0,B|309:174|410:163|367:235,1,125,2|0,3:2|2:0,2:0:0:0:
147,384,100616,6,0,B|84:373|114:317|36:332,1,125,4|0,2:1|2:0,2:0:0:0:
40,334,101029,1,0,2:0:0:0:
190,278,101111,6,0,B|209:274|206:267|229:263,1,31.2500000000001,8|0,3:0|2:0,2:0:0:0:
265,352,101277,2,0,B|270:326|279:330|285:299,1,52.0833333333333,2|0,2:0|3:0,2:0:0:0:
22,85,101525,5,8,2:0:0:0:
1,97,101607,2,0,B|-11:110|27:138|63:120,1,62.5000000000002,0|0,3:0|2:0,2:0:0:0:
214,87,101855,2,0,B|213:67|206:69|206:46,1,41.6666666666667,2|0,3:2|2:0,2:0:0:0:
125,58,102021,2,0,B|138:31|128:29|144:0,1,62.5,2|8,2:0|3:0,2:0:0:0:
180,211,102268,5,8,2:0:0:0:
20,258,102351,2,0,B|1:240|62:188|122:252,1,125,2|0,3:2|2:0,2:0:0:0:
319,384,102599,6,0,B|295:383|272:336|310:287,1,83.3333333333333,0|0,3:0|2:0,2:0:0:0:
495,240,102847,2,0,B|496:220|467:213|441:232,1,62.5,2|0,3:2|2:0,2:0:0:0:
465,307,103012,2,0,B|485:312|486:318|506:324,1,41.6666666666667,2|8,2:0|3:0,2:0:0:0:
262,104,103260,5,8,2:0:0:0:
403,164,103343,2,0,B|474:150|415:103|499:82,1,125,2|0,3:2|2:0,2:0:0:0:
417,15,103591,6,0,B|432:16|434:22|449:25,1,31.2500000000001,2|0,3:2|2:0,2:0:0:0:
363,63,103756,2,0,B|372:74|370:80|378:92,1,31.2500000000001,8|0,3:2|3:0,2:0:0:0:
280,87,103921,2,0,B|282:75|288:73|290:58,1,31.2500000000001,0|2,3:0|3:2,2:0:0:0:
385,278,104087,6,0,B|381:294|373:297|371:318,1,41.6666666666667,8|0,2:3|2:0,2:0:0:0:
204,258,104252,2,0,B|209:273|203:280|212:299,1,41.6666666666667,2|0,3:2|2:0,2:0:0:0:
79,384,104417,2,0,B|61:371|63:363|50:352,1,41.6666666666667,8|0,2:3|2:0,2:0:0:0:
84,75,104583,6,0,B|80:111|105:117|104:154,1,83.3333333333333,0|0,3:0|2:0,2:0:0:0:
18,201,104830,2,0,B|1:195|-5:182|-1:169,1,41.6666666666667,2|0,3:2|2:0,2:0:0:0:
158,77,104996,1,0,3:0:0:0:
189,88,105078,6,0,B|222:94|216:106|249:111,1,62.5,8|0,3:0|2:0,2:0:0:0:
308,19,105244,2,0,B|317:32|281:64|238:27,1,83.3333333333333,8|0,2:0|2:0,2:0:0:0:
346,142,105492,6,0,B|369:160|409:112|362:67,1,104.166666666667,2|0,2:0|2:0,2:0:0:0:
403,7,105740,1,8,2:0:0:0:
512,98,105822,2,0,B|484:88|477:94|447:84,1,62.5000000000002,0|0,3:0|2:0,2:0:0:0:
301,215,106070,6,0,B|368:207|351:181|420:172,1,125,8|0,3:0|2:0,2:0:0:0:
219,383,106318,2,0,B|286:375|269:349|338:340,1,125,2|0,3:2|3:0,2:0:0:0:
77,224,106566,6,0,B|11:182|-40:227|22:208,1,104.166666666667,4|0,3:0|2:0,2:0:0:0:
182,155,106814,2,0,B|182:138|185:138|186:120,1,31.2500000000001,2|0,3:2|2:0,2:0:0:0:
188,107,106979,1,8,2:0:0:0:
166,245,107062,2,0,B|156:297|163:301|152:352,1,104.166666666667,12|0,3:0|2:0,2:0:0:0:
50,380,107310,2,0,B|54:381|51:356|32:356,1,31.2500000000001,8|0,3:2|2:0,2:0:0:0:
84,303,107475,1,0,3:0:0:0:
256,282,107558,6,0,B|315:271|320:279|378:266,1,125,4|0,3:0|2:0,2:0:0:0:
157,353,107806,2,0,B|116:349|114:343|73:341,1,83.3333333333333,2|0,3:2|2:0,2:0:0:0:
311,173,108054,6,0,B|343:174|339:184|372:186,1,62.5000000000002,12|0,3:0|3:0,2:0:0:0:
439,147,108302,2,0,B|460:147|457:154|479:156,1,41.6666666666667,0|0,3:0|3:0,2:0:0:0:
256,63,108549,6,0,B|255:52|251:56|251:42,10,20.8333333333333,8|0|0|0|0|0|0|0|0|0|0,3:1|2:0|2:0|2:0|2:0|2:0|2:0|2:0|2:0|2:0|2:0,2:0:0:0:
139,96,109045,6,0,B|154:96|152:90|168:89,1,31.2500000000001,8|0,2:0|2:0,2:0:0:0:
70,36,109211,1,2,2:0:0:0:
65,38,109293,6,0,B|49:38|51:43|35:44,1,31.2500000000001,0|0,2:0|2:0,2:0:0:0:
19,124,109459,1,2,2:0:0:0:
24,127,109541,6,0,B|39:127|37:132|53:133,1,31.2500000000001,2|0,2:0|2:0,2:0:0:0:
188,10,109706,1,0,2:0:0:0:
183,8,109789,6,0,B|167:8|169:2|153:1,1,31.2500000000001,2|0,2:0|2:0,2:0:0:0:
70,36,109954,1,2,2:0:0:0:
129,188,110037,6,0,B|136:219|144:214|152:247,1,62.5,4|0,3:1|2:0,2:0:0:0:
31,233,110202,1,2,2:0:0:0:
10,271,110285,2,0,B|18:289|23:286|31:306,1,41.6666666666667,0|0,3:0|2:0,2:0:0:0:
208,365,110450,1,8,3:2:0:0:
146,320,110533,6,0,B|121:317|89:338|101:351,1,62.5,2|0,3:2|2:0,2:0:0:0:
284,376,110698,1,2,2:0:0:0:
316,345,110781,2,0,B|320:321|299:310|297:320,1,41.6666666666667,0|0,3:0|2:0,2:0:0:0:
234,273,110946,1,2,3:2:0:0:
293,193,111029,6,0,B|333:186|356:220|329:227,1,62.5,8|0,3:0|2:0,2:0:0:0:
425,318,111194,1,8,2:0:0:0:
398,299,111277,2,0,B|400:268|412:269|415:233,1,62.5,2|0,3:2|2:0,2:0:0:0:
337,117,111442,1,2,2:0:0:0:
441,161,111525,6,0,B|448:168|429:178|409:161,1,41.6666666666667,0|0,3:0|2:0,2:0:0:0:
386,0,111690,1,8,2:0:0:0:
458,31,111773,2,0,B|443:58|453:63|439:91,1,62.5,8|0,3:2|2:0,2:0:0:0:
280,39,111938,1,0,3:0:0:0:
210,83,112021,5,8,3:0:0:0:
230,61,112103,1,0,2:0:0:0:
260,67,112186,1,2,2:0:0:0:
278,50,112268,1,0,3:0:0:0:
218,15,112351,1,8,2:3:0:0:
150,36,112434,1,8,2:0:0:0:
86,12,112516,6,0,B|48:21|56:34|5:44,1,72.9166666666667,2|0,3:2|2:0,2:0:0:0:
208,89,112682,1,8,2:0:0:0:
124,101,112764,6,0,B|92:103|94:113|64:114,1,62.5,2|0,3:2|2:0,2:0:0:0:
202,198,112930,1,2,3:2:0:0:
132,188,113012,6,0,B|105:181|100:187|70:181,1,52.0833333333333,8|0,3:0|2:0,2:0:0:0:
154,279,113178,1,2,2:0:0:0:
119,265,113260,6,0,B|98:257|95:261|79:255,1,41.6666666666667,2|0,3:2|2:0,2:0:0:0:
133,359,113425,1,8,2:0:0:0:
118,357,113508,6,0,B|76:347|84:337|41:327,1,83.3333333333333,2|0,3:2|2:0,2:0:0:0:
228,269,113756,2,0,B|243:252|269:252|277:261,1,41.6666666666667,2|0,3:2|2:0,2:0:0:0:
463,342,113921,1,8,2:0:0:0:
408,384,114004,5,8,3:0:0:0:
428,361,114087,1,2,2:0:0:0:
418,318,114169,1,8,2:0:0:0:
373,292,114252,1,0,3:0:0:0:
334,243,114335,1,2,2:0:0:0:
350,175,114417,1,8,2:3:0:0:
417,142,114500,6,0,B|524:116|536:211|464:134,1,125,2|0,3:2|3:0,2:0:0:0:
471,114,114748,2,0,B|475:98|469:92|478:77,1,31.2500000000001,0|0,3:0|2:0,2:0:0:0:
478,70,114913,1,8,3:2:0:0:
446,251,114996,6,0,B|469:311|479:300|507:363,1,125,8|0,3:0|3:0,2:0:0:0:
293,230,115244,2,0,B|288:294|302:288|301:357,1,125,2|8,3:2|3:2,2:0:0:0:
82,245,115492,6,0,B|138:223|120:215|190:190,1,104.166666666667,2|0,3:2|3:0,2:0:0:0:
27,69,115740,2,0,B|72:80|64:66|121:82,1,83.3333333333333,2|8,3:2|3:2,2:0:0:0:
378,1,115987,5,8,3:0:0:0:
321,10,116070,1,2,2:0:0:0:
295,44,116153,1,0,2:0:0:0:
302,83,116235,1,2,3:2:0:0:
327,91,116318,1,2,2:0:0:0:
338,76,116401,1,8,2:0:0:0:
225,31,116483,6,0,B|157:40|182:61|107:71,1,125,4|0,3:0|2:0,2:0:0:0:
104,78,116897,5,2,2:0:0:0:
166,169,116979,2,0,B|143:165|151:158|126:155,1,41.6666666666667,8|0,3:0|2:0,2:0:0:0:
57,136,117145,1,8,2:0:0:0:
53,141,117227,1,0,3:0:0:0:
109,230,117392,5,0,3:0:0:0:
93,335,117475,2,0,B|70:282|59:306|34:248,1,104.166666666667,2|0,3:2|2:0,2:0:0:0:
38,244,117723,1,0,3:0:0:0:
288,277,117888,5,0,2:0:0:0:
243,379,117971,2,0,B|232:353|245:357|233:329,1,52.0833333333333,8|0,3:0|2:0,2:0:0:0:
204,256,118136,1,8,2:0:0:0:
211,256,118219,1,0,3:0:0:0:
387,221,118384,5,0,3:0:0:0:
294,275,118467,2,0,B|319:212|288:223|317:154,1,125,2|0,3:2|2:0,2:0:0:0:
324,151,118715,1,0,3:0:0:0:
496,83,118880,5,8,3:2:0:0:
398,149,118963,2,0,B|434:78|448:114|489:36,1,145.833333333333,8|0,3:0|2:0,2:0:0:0:
495,35,119211,1,0,3:0:0:0:
276,14,119376,1,8,2:0:0:0:
282,12,119459,5,2,3:2:0:0:
468,221,119624,1,8,3:2:0:0:
462,225,119706,1,0,3:0:0:0:
456,229,119789,2,0,B|433:224|431:219|409:216,1,41.6666666666667,2|0,2:0|3:0,2:0:0:0:
196,86,119954,6,0,B|200:68|204:67|206:50,1,31.2500000000001,8|0,3:0|2:0,2:0:0:0:
364,19,120120,1,8,3:2:0:0:
259,164,120285,2,0,B|241:160|240:156|223:154,1,31.2500000000001,8|0,2:3|2:0,2:0:0:0:
0,119,120450,6,0,B|3:136|7:137|9:154,1,31.2500000000001,4|0,3:0|2:0,2:0:0:0:
155,338,120616,2,0,B|159:314|164:312|167:290,1,41.6666666666667,2|0,3:2|2:0,2:0:0:0:
106,253,120781,2,0,B|82:257|80:262|58:265,1,41.6666666666667,2|0,3:2|2:0,2:0:0:0:
260,346,120946,6,0,B|283:350|285:355|307:358,1,41.6666666666667,12|0,3:0|2:0,2:0:0:0:
420,188,121111,2,0,B|416:170|412:169|410:152,1,31.2500000000001,2|0,3:2|2:0,2:0:0:0:
334,154,121277,2,0,B|337:171|341:172|343:189,1,31.2500000000001,8|0,3:2|2:0,2:0:0:0:
378,384,121442,6,0,B|382:360|387:358|390:336,1,41.6666666666667,4|0,3:0|2:0,2:0:0:0:
504,114,121607,2,0,B|507:131|511:132|513:149,1,31.2500000000001,0|0,3:0|2:0,2:0:0:0:
463,206,121773,2,0,B|439:201|437:196|415:193,1,41.6666666666667,2|0,3:2|2:0,2:0:0:0:
276,32,121938,6,0,B|305:26|307:19|335:16,1,52.0833333333333,12|0,3:0|2:0,2:0:0:0:
223,263,122103,2,0,B|218:239|213:237|210:215,1,41.6666666666667,2|0,3:2|2:0,2:0:0:0:
401,115,122268,2,0,B|418:118|419:122|436:124,1,31.2500000000001,8|0,3:2|2:0,2:0:0:0:
454,384,122434,5,4,3:0:0:0:
443,377,122516,1,2,2:0:0:0:
431,372,122599,1,2,3:2:0:0:
419,369,122682,1,0,2:0:0:0:
408,364,122764,1,8,3:2:0:0:
398,357,122847,1,0,2:0:0:0:
316,302,122930,5,4,3:0:0:0:
334,293,123012,1,2,2:0:0:0:
352,288,123095,1,0,3:2:0:0:
371,285,123178,1,2,2:0:0:0:
388,279,123260,1,8,3:2:0:0:
404,269,123343,1,8,2:0:0:0:
506,225,123425,5,4,3:0:0:0:
486,208,123508,1,2,2:0:0:0:
462,200,123591,1,8,3:2:0:0:
438,197,123673,1,2,2:0:0:0:
414,189,123756,1,8,3:2:0:0:
396,173,123839,1,0,2:0:0:0:
299,138,123921,5,4,3:0:0:0:
324,119,124004,1,8,2:0:0:0:
354,108,124087,1,2,3:2:0:0:
385,106,124169,1,8,2:0:0:0:
414,95,124252,1,2,3:2:0:0:
438,74,124335,1,2,2:0:0:0:
400,0,124417,6,0,B|315:4|375:134|459:52,1,187.5,0|0,2:0|2:0,2:0:0:0:
509,10,124851,1,2,2:0:0:0:
512,6,124913,1,2,2:0:0:0:
395,96,125285,5,2,2:0:0:0:
374,164,125905,5,2,2:0:0:0:
394,225,126607,5,2,2:0:0:0:
432,251,127590,5,8,2:1:0:0:
