osu file format v14

[General]
AudioFilename: audio.mp3
AudioLeadIn: 0
PreviewTime: 75822
Countdown: 0
SampleSet: Soft
StackLeniency: 0.7
Mode: 0
LetterboxInBreaks: 0
WidescreenStoryboard: 1

[Editor]
DistanceSpacing: 0.9
BeatDivisor: 6
GridSize: 32
TimelineZoom: 2.899999

[Metadata]
Title:Yurame
TitleUnicode:ゆらめ
Artist:mifumei
ArtistUnicode:ミフメイ
Creator:KnightC0re
Version:Normal
Source:シンクロニカ
Tags:synchronica ミズイロ mizuiro 山内祐介 Yusuke Yuusuke Yamauchi オリジナル original 太鼓の達人 Taiko no Tatsujin ニジイロVer.2021 Nijiiro Rainbow Version electronic instrumental verychill milr_
BeatmapID:4090506
BeatmapSetID:1971451

[Difficulty]
HPDrainRate:3.5
CircleSize:3.5
OverallDifficulty:4
ApproachRate:5.5
SliderMultiplier:1.8
SliderTickRate:1

[Events]
//Background and Video events
0,0,"50572078_p0e.png",0,0
//Break Periods
//Storyboard Layer 0 (Background)
//Storyboard Layer 1 (Fail)
//Storyboard Layer 2 (Pass)
//Storyboard Layer 3 (Foreground)
//Storyboard Layer 4 (Overlay)
//Storyboard Sound Samples

[TimingPoints]
3426,495.867768595041,4,2,1,40,1,0
3426,-142.857142857143,4,2,1,40,0,0
4912,-142.857142857143,4,2,1,30,0,0
5409,-142.857142857143,4,2,1,25,0,0
5904,-142.857142857143,4,2,1,20,0,0
7888,-142.857142857143,4,2,1,40,0,0
9375,-142.857142857143,4,2,1,30,0,0
9872,-142.857142857143,4,2,1,25,0,0
10368,-142.857142857143,4,2,1,35,0,0
12351,-142.857142857143,4,2,1,40,0,0
13839,-125,4,2,1,55,0,0
21772,-125,4,2,1,65,0,0
27227,-125,4,2,1,70,0,0
28218,-125,4,2,1,55,0,0
29211,-125,4,2,1,30,0,0
30202,-133.333333333333,4,2,1,30,0,0
30946,-142.857142857143,4,2,1,30,0,0
31690,-153.846153846154,4,2,1,30,0,0
32434,-125,4,2,1,30,0,0
34169,-133.333333333333,4,2,1,30,0,0
34913,-142.857142857143,4,2,1,30,0,0
35657,-153.846153846154,4,2,1,30,0,0
36649,-125,4,2,1,20,0,0
37145,-125,4,2,1,50,0,1
37640,-125,4,2,1,50,0,0
37805,-125,4,2,1,35,0,0
44583,-125,4,2,1,55,0,0
44830,-125,4,2,1,40,0,0
45078,-125,4,2,1,35,0,0
45574,-111.111111111111,4,2,1,70,0,0
46070,-111.111111111111,4,2,1,55,0,0
46566,-111.111111111111,4,2,1,70,0,0
47310,-111.111111111111,4,2,1,55,0,0
49541,-111.111111111111,4,2,1,75,0,0
50037,-111.111111111111,4,2,1,55,0,0
50533,-111.111111111111,4,2,1,75,0,0
51277,-111.111111111111,4,2,1,55,0,0
53508,-111.111111111111,4,2,1,75,0,0
54004,-111.111111111111,4,2,1,55,0,0
54500,-111.111111111111,4,2,1,75,0,0
56979,-111.111111111111,4,2,1,55,0,0
57475,-111.111111111111,4,2,1,75,0,0
57971,-111.111111111111,4,2,1,55,0,0
58467,-111.111111111111,4,2,1,75,0,0
59706,-111.111111111111,4,2,1,65,0,0
59954,-111.111111111111,4,2,1,55,0,0
60450,-111.111111111111,4,2,1,75,0,0
60946,-125,4,2,1,40,0,0
74830,-125,4,2,1,30,0,0
75822,-125,4,2,1,15,0,0
76814,-125,4,2,1,75,0,1
79789,-125,4,2,1,45,0,1
80781,-125,4,2,1,75,0,1
83756,-125,4,2,1,60,0,1
84747,-125,4,2,1,75,0,1
87723,-125,4,2,1,45,0,1
88715,-111.111111111111,4,2,1,30,0,1
89458,-111.111111111111,4,2,1,40,0,1
90202,-111.111111111111,4,2,1,50,0,1
90945,-111.111111111111,4,2,1,60,0,1
91690,-111.111111111111,4,2,1,70,0,0
92185,-111.111111111111,4,2,1,15,0,0
92682,-111.111111111111,4,2,1,75,0,0
93178,-100,4,2,1,85,0,1
108549,-100,4,2,1,55,0,0
110037,-100,4,2,1,85,0,1
112268,-100,4,2,1,90,0,1
112516,-100,4,2,1,95,0,1
112763,-100,4,2,1,85,0,1
113012,-100,4,2,1,75,0,1
113259,-100,4,2,1,65,0,1
113508,-100,4,2,1,55,0,1
113756,-100,4,2,1,50,0,1
114004,-100,4,2,1,55,0,1
114499,-100,4,2,1,85,0,1
115987,-100,4,2,1,95,0,1
116482,-100,4,2,1,85,0,1
120450,-100,4,2,1,95,0,1
122434,-100,4,2,1,70,0,1
122764,-100,4,2,1,80,0,1
122930,-100,4,2,1,75,0,1
123260,-100,4,2,1,85,0,1
123425,-100,4,2,1,80,0,1
123755,-100,4,2,1,90,0,1
123921,-100,4,2,1,85,0,1
124251,-100,4,2,1,95,0,1
124417,-100,4,2,1,40,0,0
126607,983.606557377049,4,2,1,40,1,0
127590,-100,4,2,1,20,0,0

[Colours]
Combo1 : 128,255,128
Combo2 : 128,255,255
Combo3 : 51,153,255
Combo4 : 171,87,255

[HitObjects]
512,62,3426,6,0,B|447:54|472:17|394:6,1,125.999996154785,0|2,2:0|2:0,2:0:0:0:
316,47,4293,2,0,B|285:64|280:130|358:171,1,157.499995193482,2|2,2:0|2:0,2:0:0:0:
270,262,5409,2,0,B|335:275|318:287|386:308,1,125.999996154785,2|2,2:0|2:0,2:0:0:0:
0,62,7888,6,0,B|64:54|39:17|117:6,1,125.999996154785,0|2,2:0|2:0,2:0:0:0:
196,47,8755,2,0,B|226:64|231:130|153:171,1,157.499995193482,2|2,2:0|2:0,2:0:0:0:
242,262,9871,2,0,B|209:268|217:274|183:285,1,62.9999980773926,2|0,2:0|2:0,2:0:0:0:
109,266,10368,1,2,2:0:0:0:
256,31,12351,6,0,B|244:94|268:80|252:158,1,125.999996154785,2|2,2:0|2:0,2:0:0:0:
256,251,13219,1,2,2:0:0:0:
429,203,13839,1,10,2:0:0:0:
512,320,14335,2,0,B|461:341|472:356|416:384,1,108,2|2,2:0|2:0,2:0:0:0:
256,0,16318,6,0,B|270:79|241:62|260:159,1,144,0|10,2:0|2:0,2:0:0:0:
256,251,17186,1,2,2:0:0:0:
83,203,17806,1,10,2:0:0:0:
0,319,18302,2,0,B|33:333|26:343|63:362,1,72,2|0,2:0|2:0,2:0:0:0:
135,337,18797,1,10,2:0:0:0:
210,312,19045,6,0,B|221:288|221:274|194:234,2,72,0|0|2,2:0|2:0|2:0,2:0:0:0:
285,336,19789,1,8,2:0:0:0:
424,369,20285,6,0,B|412:294|449:296|436:226,1,144,8|8,2:3|2:3,2:0:0:0:
507,145,21153,2,0,B|474:176|393:140|391:27,1,180,2|2,2:0|3:2,2:0:0:0:
256,0,22268,2,0,B|238:58|272:45|249:121,1,108,8|2,2:3|2:0,2:0:0:0:
52,212,23508,1,0,0:0:0:0:
26,137,23756,1,2,0:0:0:0:
131,211,24252,6,0,B|143:286|106:284|119:354,1,144,0|2,2:0|2:0,2:0:0:0:
223,382,25120,2,0,B|312:408|364:318|329:277,1,180,2|8,2:0|2:0,2:0:0:0:
266,179,26235,2,0,B|238:163|227:173|194:154,2,72,10|0|10,2:0|2:0|2:0,2:0:0:0:
403,133,27227,6,0,B|488:109|403:-67|260:41,1,288,8|0,2:0|3:0,2:0:0:0:
6,227,29211,5,0,3:0:0:0:
75,265,29459,2,0,B|77:235|120:211|191:248,1,120,2|2,3:2|2:0,2:0:0:0:
227,168,30202,2,0,B|246:152|287:163|308:229,1,112.500004291535,2|2,3:2|3:2,2:0:0:0:
386,197,30946,2,0,B|410:199|430:235|400:294,1,104.999996795654,2|2,3:2|2:0,2:0:0:0:
480,302,31690,2,0,B|494:319|484:355|425:374,1,97.4999955368044,0|2,3:0|2:0,2:0:0:0:
336,373,32434,6,0,B|316:339|307:351|284:311,1,72,8|8,3:0|3:2,2:0:0:0:
213,294,32930,1,8,3:2:0:0:
143,331,33178,5,0,3:0:0:0:
70,298,33425,2,0,B|85:270|76:256|100:211,1,72,2|0,3:2|3:0,2:0:0:0:
2,146,34169,2,0,B|23:131|23:118|59:96,1,67.5000000000002,2|0,3:2|3:0,2:0:0:0:
161,123,34913,2,0,B|182:114|184:102|218:88,1,62.9999999999999,2|0,3:2|3:0,2:0:0:0:
281,9,35657,2,0,B|302:12|309:3|343:8,1,58.4999999999999,0|0,3:0|3:0,2:0:0:0:
414,34,36153,5,2,3:2:0:0:
403,112,36401,1,2,3:2:0:0:
479,134,36649,2,0,B|503:202|383:225|440:265,1,144,8|4,2:0|2:1,2:0:0:0:
316,366,37640,6,0,B|293:367|286:374|262:378,1,48,4|2,3:0|2:0,2:0:0:0:
207,303,38136,2,0,B|159:332|162:347|107:384,1,120,2|2,3:2|3:2,2:0:0:0:
32,328,38880,1,2,3:2:0:0:
124,217,39376,2,0,B|178:153|115:56|59:93,1,192,2|2,3:2|2:0,2:0:0:0:
173,1,40533,2,0,B|212:9|211:20|259:33,1,72,2|2,3:2|3:2,2:0:0:0:
336,135,41359,6,0,B|398:115|378:96|443:77,1,120,2|2,3:2|2:0,2:0:0:0:
511,114,42021,2,0,B|525:127|527:180|473:202,1,96,2|2,2:0|3:2,2:0:0:0:
511,313,42764,1,2,0:0:0:0:
449,362,43012,2,0,B|402:351|410:339|360:327,1,96,2|2,3:2|3:2,2:0:0:0:
251,379,43756,1,2,2:0:0:0:
163,340,44087,6,0,B|169:275|194:281|199:202,1,144,0|8,3:0|3:0,2:0:0:0:
140,149,44830,1,2,2:0:0:0:
63,170,45078,1,0,2:0:0:0:
0,21,45574,6,0,B|43:15|33:4|81:-1,1,81.0000000000001,8|2,3:0|3:2,2:0:0:0:
151,33,46070,1,0,3:0:0:0:
283,126,46566,2,0,B|317:99|303:94|342:66,1,81.0000000000001,8|2,3:0|3:2,2:0:0:0:
473,160,47310,6,0,B|479:203|490:193|495:241,2,81.0000000000001,2|8|0,3:2|3:0|3:0,2:0:0:0:
413,226,48054,2,0,B|385:254|343:249|336:220,1,81.0000000000001,0|2,3:0|3:2,2:0:0:0:
263,209,48549,2,0,B|227:192|189:211|192:240,1,81.0000000000001,8|2,3:0|3:2,2:0:0:0:
128,277,49045,1,0,3:0:0:0:
258,372,49541,6,0,B|301:366|291:355|339:350,1,81.0000000000001,8|2,3:0|3:2,2:0:0:0:
409,384,50037,1,0,3:0:0:0:
482,239,50533,2,0,B|498:198|483:201|503:157,1,81.0000000000001,8|2,3:0|3:2,2:0:0:0:
436,12,51277,5,0,3:0:0:0:
355,0,51525,2,0,B|329:-1|299:17|295:60,1,81.0000000000001,8|2,3:0|3:2,2:0:0:0:
242,107,52021,2,0,B|199:115|169:86|182:73,1,81.0000000000001,2|0,3:2|3:0,2:0:0:0:
111,31,52516,2,0,B|67:26|40:58|54:70,1,81.0000000000001,8|8,3:0|3:2,2:0:0:0:
0,130,53012,1,0,3:0:0:0:
72,274,53508,6,0,B|66:317|55:307|50:355,1,81.0000000000001,8|2,3:0|3:2,2:0:0:0:
125,382,54004,1,0,3:0:0:0:
247,275,54500,2,0,B|241:232|230:242|225:194,1,81.0000000000001,8|2,3:0|3:2,2:0:0:0:
428,64,55492,6,0,B|442:54|474:79|468:124,1,81.0000000000001,8|2,3:0|3:2,2:0:0:0:
512,188,55987,2,0,B|470:197|480:213|434:228,1,81.0000000000001,2|0,3:2|3:0,2:0:0:0:
495,285,56483,2,0,B|512:288|517:329|481:356,1,81.0000000000001,8|2,3:0|3:2,2:0:0:0:
407,378,56979,1,0,3:0:0:0:
254,322,57475,6,0,B|258:277|269:287|275:244,1,81.0000000000001,8|2,3:0|3:2,2:0:0:0:
217,187,57971,1,0,3:0:0:0:
66,127,58467,2,0,B|82:85|90:97|106:57,1,81.0000000000001,8|2,3:0|3:2,2:0:0:0:
260,4,59211,5,2,3:2:0:0:
338,22,59459,2,0,B|355:30|356:65|314:102,1,81.0000000000001,8|0,3:0|3:0,2:0:0:0:
378,151,59954,2,0,B|418:142|410:129|469:120,1,81.0000000000001,0|8,3:0|3:2,2:0:0:0:
501,57,60450,1,8,3:0:0:0:
432,13,60698,1,2,0:0:0:0:
348,2,60946,6,0,B|297:16|306:31|249:49,1,108,8|2,2:1|2:0,2:0:0:0:
385,168,61938,2,0,B|332:168|337:185|277:187,1,108,0|2,2:0|2:0,2:0:0:0:
378,336,62930,2,0,B|327:322|327:340|269:326,1,108,0|2,2:0|2:0,2:0:0:0:
97,278,63921,2,0,B|114:234|93:217|115:165,2,108,2|2|8,2:0|2:0|2:0,2:0:0:0:
77,355,64913,2,0,B|38:354|33:366|-10:375,1,72,8|2,2:1|2:0,2:0:0:0:
33,0,66897,5,0,2:0:0:0:
134,53,67392,1,2,2:0:0:0:
203,145,67888,1,0,2:0:0:0:
220,258,68384,1,2,2:0:0:0:
195,370,68880,6,0,B|137:358|141:371|81:361,1,108,8|8,2:3|2:3,2:0:0:0:
5,291,69624,1,8,2:3:0:0:
51,226,69872,2,0,B|107:208|104:222|163:207,1,108,0|8,2:0|2:3,2:0:0:0:
239,138,70616,1,8,2:3:0:0:
308,175,70864,2,0,B|364:192|361:178|420:193,1,108,0|8,2:0|2:3,2:0:0:0:
479,105,71607,1,8,2:3:0:0:
420,51,71855,2,0,B|362:64|371:74|312:91,2,108,0|8|8,2:0|2:3|2:3,2:0:0:0:
491,15,72847,5,0,2:0:0:0:
256,192,73095,12,8,74830,0:1:0:0:
256,0,75822,6,0,B|245:73|271:64|256:149,1,144,2|2,2:0|2:0,2:0:0:0:
256,287,76814,1,4,3:0:0:0:
256,192,77558,12,8,79789,2:1:0:0:
299,123,80285,5,2,2:0:0:0:
217,258,80781,1,4,3:0:0:0:
256,192,81525,12,8,83756,3:2:0:0:
211,140,84252,6,0,B|277:174|235:208|308:244,1,144,8|4,3:2|3:0,2:0:0:0:
256,192,85492,12,8,87723,2:3:0:0:
256,113,88219,5,0,3:0:0:0:
256,271,88715,2,0,B|114:251|201:176|41:163,1,243,4|4,3:0|3:0,2:0:0:0:
232,4,90202,2,0,B|374:24|287:99|447:112,1,243,4|4,3:0|3:0,2:0:0:0:
377,346,91690,6,0,B|275:334|325:305|205:289,1,162,0|2,3:0|2:0,2:0:0:0:
72,344,92682,1,4,2:1:0:0:
2,197,93178,5,12,3:0:0:0:
74,161,93425,2,0,B|99:150|102:99|66:69,1,90,0|0,3:0|3:0,2:0:0:0:
110,37,93839,2,0,B|166:26|153:51|217:40,1,90,2|8,2:0|2:3,2:0:0:0:
298,0,94417,1,8,3:2:0:0:
410,140,94913,6,0,B|457:127|446:115|495:101,2,90,2|8|2,3:2|3:0|3:2,2:0:0:0:
370,210,95657,1,2,3:2:0:0:
297,174,95905,1,0,3:0:0:0:
219,197,96153,2,0,B|177:219|173:271|205:281,1,90,8|2,3:0|3:2,2:0:0:0:
344,365,96897,6,0,B|365:351|391:387|445:369,1,90,2|8,3:2|3:0,2:0:0:0:
504,337,97392,2,0,B|511:329|508:291|472:280,1,60,2|8,3:2|2:0,2:0:0:0:
381,223,97888,5,2,3:2:0:0:
418,151,98136,2,0,B|457:168|467:150|506:167,1,90,8|2,3:0|3:2,2:0:0:0:
474,82,98632,2,0,B|462:63|470:20|509:2,1,90,0|2,3:0|3:2,2:0:0:0:
403,8,99128,2,0,B|357:13|361:30|318:37,1,90,8|8,3:0|3:2,2:0:0:0:
276,106,99624,2,0,B|176:82|208:56|89:50,1,180,2|8,3:2|3:0,2:0:0:0:
39,4,100368,1,2,3:2:0:0:
2,76,100616,1,4,2:1:0:0:
141,189,101111,6,0,B|119:263|146:261|123:338,1,150,8|8,3:0|3:2,2:0:0:0:
245,363,101855,1,0,0:0:0:0:
245,363,102021,2,0,B|275:341|264:287|219:265,1,120,10|2,0:0|3:2,2:0:0:0:
233,176,102599,6,0,B|305:148|322:214|385:203,1,150,0|8,3:0|0:3,2:0:0:0:
488,165,103343,1,2,3:2:0:0:
510,252,103591,6,0,B|450:267|465:285|402:303,1,120,2|0,3:2|3:0,2:0:0:0:
353,279,104087,1,8,0:3:0:0:
300,293,104252,2,0,B|304:326|291:321|290:355,1,60,2|8,3:2|0:3,2:0:0:0:
241,375,104583,2,0,B|202:389|164:363|162:349,1,90,0|2,3:0|3:2,2:0:0:0:
96,214,105244,5,8,2:0:0:0:
23,161,105492,2,0,B|6:147|5:102|50:70,1,90,2|8,0:0|3:2,2:0:0:0:
126,0,106070,1,8,3:0:0:0:
186,67,106318,1,2,3:2:0:0:
269,33,106566,6,0,B|318:24|308:41|362:31,1,90,4|2,3:0|3:2,2:0:0:0:
443,0,107062,1,12,3:0:0:0:
506,168,107558,2,0,B|488:209|499:217|487:263,1,90,4|2,3:0|3:2,2:0:0:0:
410,210,108054,2,0,B|360:276|397:303|343:380,1,180,12|8,3:0|3:1,2:0:0:0:
184,295,109045,6,0,B|138:301|145:313|86:324,2,90,8|0|2,2:0|2:0|2:0,2:0:0:0:
225,225,109789,1,2,2:0:0:0:
169,166,110037,2,0,B|119:161|134:143|81:136,1,90,4|0,3:1|3:0,2:0:0:0:
14,80,110533,6,0,B|2:72|4:21|50:9,1,90,2|0,3:2|3:0,2:0:0:0:
132,41,111029,2,0,B|177:34|172:20|230:9,1,90,8|2,3:0|3:2,2:0:0:0:
307,9,111525,1,0,3:0:0:0:
366,76,111773,1,8,3:2:0:0:
454,58,112021,2,0,B|444:95|478:108|464:161,1,90,8|0,3:0|3:0,2:0:0:0:
510,224,112516,6,0,B|481:222|444:254|449:282,1,90,2|2,3:2|3:2,2:0:0:0:
358,273,113012,2,0,B|342:304|351:341|389:367,1,90,8|2,3:0|3:2,2:0:0:0:
276,336,113508,1,2,3:2:0:0:
199,383,113756,1,2,3:2:0:0:
110,364,114004,2,0,B|54:311|137:278|54:195,1,180,8|2,3:0|3:2,2:0:0:0:
167,56,114996,5,8,3:0:0:0:
256,67,115244,1,2,3:2:0:0:
311,137,115492,2,0,B|355:146|351:165|420:173,1,90,2|2,3:2|3:2,2:0:0:0:
472,123,115987,2,0,B|529:129|541:224|464:279,1,180,8|4,3:0|3:0,2:0:0:0:
318,351,116979,6,0,B|271:351|272:367|220:373,1,90,8|0,3:0|3:0,2:0:0:0:
204,284,117475,2,0,B|158:296|163:311|115:330,1,90,2|0,3:2|3:0,2:0:0:0:
53,271,117971,2,0,B|69:233|55:226|78:185,1,90,8|0,3:0|3:0,2:0:0:0:
168,193,118467,2,0,B|201:168|192:155|233:131,1,90,2|0,3:2|3:0,2:0:0:0:
169,67,118963,2,0,B|207:52|202:36|247:24,1,90,8|0,3:0|3:0,2:0:0:0:
335,47,119459,2,0,B|401:49|391:20|481:27,2,135,2|2|8,3:2|3:2|3:0,2:0:0:0:
390,118,120450,5,4,3:0:0:0:
328,222,120781,1,2,3:2:0:0:
328,222,120946,2,0,B|340:282|366:264|386:344,1,120,12|8,3:0|3:2,2:0:0:0:
355,375,121442,1,4,3:0:0:0:
247,334,121773,1,2,3:2:0:0:
247,334,121938,2,0,B|207:341|220:353|184:364,1,60,12|2,3:0|3:2,2:0:0:0:
142,344,122268,1,8,3:2:0:0:
98,376,122434,6,0,B|89:324|55:323|44:262,1,120,4|8,3:0|3:2,2:0:0:0:
0,272,122930,2,0,B|18:222|-10:204|10:146,1,120,4|8,3:0|3:2,2:0:0:0:
57,175,123425,2,0,B|97:141|81:111|128:71,1,120,4|8,3:0|3:2,2:0:0:0:
74,51,123921,2,0,B|125:41|126:8|187:-3,1,120,4|2,3:0|3:2,2:0:0:0:
232,15,124417,5,0,2:0:0:0:
256,192,124665,12,8,127590,2:1:0:0:
