osu file format v14

[General]
AudioFilename: audio.mp3
AudioLeadIn: 0
PreviewTime: 75822
Countdown: 0
SampleSet: Soft
StackLeniency: 0.7
Mode: 0
LetterboxInBreaks: 0
WidescreenStoryboard: 1

[Editor]
DistanceSpacing: 1.2
BeatDivisor: 6
GridSize: 32
TimelineZoom: 2.899999

[Metadata]
Title:Yurame
TitleUnicode:ゆらめ
Artist:mifumei
ArtistUnicode:ミフメイ
Creator:KnightC0re
Version:Hard
Source:シンクロニカ
Tags:synchronica ミズイロ mizuiro 山内祐介 Yusuke Yuusuke Yamauchi オリジナル original 太鼓の達人 Taiko no Tatsujin ニジイロVer.2021 Nijiiro Rainbow Version electronic instrumental verychill milr_
BeatmapID:4363897
BeatmapSetID:1971451

[Difficulty]
HPDrainRate:4.5
CircleSize:4
OverallDifficulty:6
ApproachRate:7.8
SliderMultiplier:2
SliderTickRate:1

[Events]
//Background and Video events
0,0,"50572078_p0e.png",0,0
//Break Periods
//Storyboard Layer 0 (Background)
//Storyboard Layer 1 (Fail)
//Storyboard Layer 2 (Pass)
//Storyboard Layer 3 (Foreground)
//Storyboard Layer 4 (Overlay)
//Storyboard Sound Samples

[TimingPoints]
3426,495.867768595041,4,2,1,40,1,0
3426,-200,4,2,1,40,0,0
4912,-200,4,2,1,30,0,0
5409,-200,4,2,1,25,0,0
5905,-200,4,2,1,20,0,0
7888,-200,4,2,1,40,0,0
9375,-200,4,2,1,30,0,0
9872,-200,4,2,1,25,0,0
10368,-200,4,2,1,35,0,0
12351,-200,4,2,1,40,0,0
13343,-133.333333333333,4,2,1,55,0,0
21648,-133.333333333333,4,2,1,65,0,0
27227,-133.333333333333,4,2,1,70,0,0
27723,-133.333333333333,4,2,1,75,0,0
28219,-133.333333333333,4,2,1,55,0,0
29211,-133.333333333333,4,2,1,30,0,0
36649,-100,4,2,1,20,0,0
36731,-100,4,2,1,25,0,0
36814,-100,4,2,1,30,0,0
36896,-100,4,2,1,35,0,0
36979,-100,4,2,1,40,0,0
37062,-100,4,2,1,45,0,0
37145,-100,4,2,1,50,0,1
37640,-100,4,2,1,50,0,0
37806,-100,4,2,1,35,0,0
38136,-133.333333333333,4,2,1,35,0,0
41111,-133.333333333333,4,2,1,40,0,0
41359,-133.333333333333,4,2,1,35,0,0
44500,-133.333333333333,4,2,1,55,0,0
44830,-133.333333333333,4,2,1,40,0,0
45078,-133.333333333333,4,2,1,35,0,0
45574,-117.647058823529,4,2,1,70,0,0
46070,-117.647058823529,4,2,1,55,0,0
46566,-117.647058823529,4,2,1,70,0,0
47062,-117.647058823529,4,2,1,55,0,0
49541,-117.647058823529,4,2,1,75,0,0
50037,-117.647058823529,4,2,1,55,0,0
50533,-117.647058823529,4,2,1,75,0,0
51029,-117.647058823529,4,2,1,55,0,0
53508,-117.647058823529,4,2,1,75,0,0
54004,-117.647058823529,4,2,1,55,0,0
54500,-117.647058823529,4,2,1,75,0,0
54996,-117.647058823529,4,2,1,55,0,0
55492,-117.647058823529,4,2,1,75,0,0
56979,-117.647058823529,4,2,1,55,0,0
57475,-117.647058823529,4,2,1,75,0,0
57971,-117.647058823529,4,2,1,55,0,0
58467,-117.647058823529,4,2,1,75,0,0
58963,-117.647058823529,4,2,1,55,0,0
59211,-117.647058823529,4,2,1,75,0,0
59706,-117.647058823529,4,2,1,65,0,0
59954,-117.647058823529,4,2,1,55,0,0
60450,-117.647058823529,4,2,1,75,0,0
60946,-133.333333333333,4,2,1,40,0,0
74830,-133.333333333333,4,2,1,30,0,0
75822,-200,4,2,1,15,0,0
76814,-200,4,2,1,75,0,1
77805,-200,4,2,1,45,0,1
80781,-200,4,2,1,75,0,1
81772,-200,4,2,1,45,0,1
83756,-133.333333333333,4,2,1,60,0,1
84748,-200,4,2,1,75,0,1
85739,-200,4,2,1,45,0,1
88715,-200,4,2,1,30,0,1
89459,-133.333333333333,4,2,1,40,0,1
90202,-113.636363636364,4,2,1,50,0,1
90946,-100,4,2,1,60,0,1
91690,-100,4,2,1,70,0,0
92186,-100,4,2,1,15,0,0
92681,-100,4,2,1,75,0,0
93178,-100,4,2,1,85,0,1
93425,-100,4,2,1,85,0,1
108549,-100,4,2,1,55,0,0
109293,-111.111111111111,4,2,1,55,0,0
110037,-100,4,2,1,85,0,1
112268,-100,4,2,1,90,0,1
112516,-100,4,2,1,95,0,1
112764,-100,4,2,1,85,0,1
113012,-100,4,2,1,75,0,1
113260,-100,4,2,1,65,0,1
113508,-100,4,2,1,55,0,1
113756,-100,4,2,1,50,0,1
114004,-100,4,2,1,85,0,1
114417,-100,4,2,1,80,0,1
114500,-100,4,2,1,85,0,1
115987,-100,4,2,1,95,0,1
116069,-100,4,2,1,85,0,1
116152,-100,4,2,1,75,0,1
116234,-100,4,2,1,65,0,1
116317,-100,4,2,1,55,0,1
116400,-100,4,2,1,45,0,1
116483,-100,4,2,1,85,0,1
120450,-100,4,2,1,95,0,1
122434,-100,4,2,1,70,0,1
122764,-100,4,2,1,80,0,1
122930,-100,4,2,1,75,0,1
123260,-100,4,2,1,85,0,1
123425,-100,4,2,1,80,0,1
123755,-100,4,2,1,90,0,1
123921,-100,4,2,1,85,0,1
124251,-100,4,2,1,95,0,1
124417,-100,4,2,1,40,0,0
126607,983.606557377049,4,2,1,40,1,0
127590,-100,4,2,1,20,0,0

[Colours]
Combo1 : 128,255,128
Combo2 : 128,255,255
Combo3 : 51,153,255
Combo4 : 171,87,255

[HitObjects]
511,375,3426,6,0,B|467:365|501:344|416:328,1,100,0|2,2:0|2:0,2:0:0:0:
339,282,4293,2,0,B|327:312|286:338|225:339,1,125,2|2,2:0|2:0,2:0:0:0:
108,305,5409,1,2,2:0:0:0:
4,382,5905,1,2,2:0:0:0:
1,375,7888,6,0,B|45:365|11:344|96:328,1,100,0|2,2:0|2:0,2:0:0:0:
173,282,8755,2,0,B|185:312|226:338|287:339,1,125,2|2,2:0|2:0,2:0:0:0:
404,305,9871,1,2,2:0:0:0:
426,231,10120,2,0,B|440:222|440:232|460:222,1,33.3333333333333,0|2,2:0|2:0,2:0:0:0:
497,209,10368,1,2,2:0:0:0:
256,384,12351,6,0,B|235:345|296:354|259:278,1,100,2|2,2:0|2:0,2:0:0:0:
238,169,13219,1,2,2:0:0:0:
238,169,13343,6,0,B|286:192|354:152|340:94,1,150.000005722046,4|10,3:0|2:0,2:0:0:0:
487,23,14335,1,2,2:0:0:0:
512,147,14706,2,0,B|508:162|501:165|497:183,1,37.5000014305115,2|8,2:0|2:0,2:0:0:0:
256,384,16318,6,0,B|286:327|196:340|251:227,1,150.000005722046,0|10,2:0|2:0,2:0:0:0:
282,135,17186,2,0,B|219:177|131:101|177:48,1,187.500007152558,2|10,2:0|2:0,2:0:0:0:
25,23,18302,2,0,B|23:50|14:42|9:73,1,50.0000019073487,2|0,2:0|2:0,2:0:0:0:
9,70,18549,1,0,0:0:0:0:
38,146,18797,1,10,2:0:0:0:
109,180,19045,6,0,B|137:172|126:158|183:148,2,75.0000028610231,0|0|2,2:0|2:0|2:0,2:0:0:0:
39,229,19789,2,0,B|18:226|22:218|0:215,1,37.5000014305115,8|2,2:0|2:0,2:0:0:0:
169,294,20285,6,0,B|153:322|171:316|149:358,1,50.0000019073487,8|0,0:3|3:0,0:0:0:0:
158,343,20533,1,0,3:0:0:0:
238,376,20781,1,8,2:3:0:0:
340,284,21153,6,0,B|386:261|458:308|441:361,1,150.000005722046,2|0,2:0|2:0,2:0:0:0:
470,384,21773,2,0,B|481:323|506:340|512:272,1,112.500004291535,2|0,3:2|2:0,2:0:0:0:
495,244,22268,1,8,2:3:0:0:
394,191,22640,2,0,B|372:193|376:201|353:202,1,37.5000014305115,2|8,2:0|2:0,2:0:0:0:
120,146,23508,6,0,B|117:133|111:135|106:114,3,25.0000009536744,0|2|2|2,2:0|2:0|2:0|2:0,2:0:0:0:
189,0,24252,2,0,B|159:39|250:100|318:31,1,150.000005722046,0|2,2:0|2:0,2:0:0:0:
413,0,25120,1,2,2:0:0:0:
413,0,25244,6,0,B|400:43|419:33|404:87,1,75.0000028610231,8|8,2:0|2:0,2:0:0:0:
472,121,25740,2,0,B|445:156|466:154|433:199,1,75.0000028610231,8|8,2:0|2:0,2:0:0:0:
455,267,26235,2,0,B|487:273|477:282|515:291,1,50.0000019073487,10|0,2:0|2:0,2:0:0:0:
364,210,26731,2,0,B|355:234|329:248|293:243,1,75.0000028610231,10|8,2:0|2:0,2:0:0:0:
233,286,27227,5,8,2:0:0:0:
157,257,27475,1,8,2:0:0:0:
118,187,27723,2,0,B|92:181|97:190|60:179,1,50.0000019073487,8|2,2:0|2:0,2:0:0:0:
60,194,27971,2,0,B|36:206|38:196|6:216,1,50.0000019073487,8|2,2:0|2:0,2:0:0:0:
3,221,28219,5,0,3:0:0:0:
388,384,29211,5,0,3:0:0:0:
324,341,29459,1,2,0:2:0:0:
285,362,29624,2,0,B|252:349|247:362|212:346,1,75.0000028610231,2|2,3:2|2:0,2:0:0:0:
146,240,30202,2,0,B|160:283|115:292|131:378,1,125.000004768372,2|2,3:2|3:2,2:0:0:0:
229,267,30946,1,2,3:2:0:0:
391,304,31442,6,0,B|426:297|427:226|356:209,1,125.000004768372,2|2,3:2|2:0,2:0:0:0:
292,178,32103,1,2,2:0:0:0:
393,136,32434,1,8,3:0:0:0:
418,99,32599,2,0,B|414:61|399:66|392:16,1,75.0000028610231,2|10,3:2|2:0,2:0:0:0:
299,0,33178,5,0,3:0:0:0:
243,58,33425,2,0,B|163:64|191:107|136:115,1,125.000004768372,2|2,3:2|2:0,2:0:0:0:
56,131,34087,2,0,B|67:182|91:163|100:230,1,100.000003814697,2|2,2:0|3:2,2:0:0:0:
227,278,34830,1,2,2:0:0:0:
164,318,35078,6,0,B|200:319|206:341|265:343,1,100.000003814697,2|2,3:2|3:2,2:0:0:0:
332,308,35657,2,0,B|331:282|341:284|343:253,1,50.0000019073487,0|2,3:0|2:0,2:0:0:0:
289,153,36153,5,2,3:2:0:0:
204,163,36401,1,2,3:2:0:0:
134,110,36649,2,0,B|127:130|124:122|117:143,6,33.3333333333333,8|2|8|0|2|2|4,2:0|2:0|2:0|2:0|2:0|2:0|2:1,2:0:0:0:
26,305,37640,6,0,B|14:337|32:335|19:373,1,66.6666666666667,4|2,3:0|2:0,2:0:0:0:
107,256,38136,2,0,B|133:292|98:317|151:391,1,125.000004768372,2|2,3:2|3:2,2:0:0:0:
241,330,38880,1,2,3:2:0:0:
348,184,39376,6,0,B|285:173|308:149|224:137,1,125.000004768372,2|2,3:2|2:0,2:0:0:0:
193,70,40037,1,2,2:0:0:0:
278,4,40368,1,2,3:2:0:0:
310,38,40533,2,0,B|337:43|338:57|388:63,1,75.0000028610231,2|2,3:2|3:2,2:0:0:0:
479,121,41111,5,0,3:0:0:0:
424,182,41359,2,0,B|442:219|404:233|452:323,1,125.000004768372,2|2,3:2|2:0,2:0:0:0:
422,384,42021,2,0,B|465:374|446:356|517:343,1,100.000003814697,2|2,2:0|3:2,2:0:0:0:
353,277,42764,1,2,2:0:0:0:
333,353,43012,1,2,3:2:0:0:
220,364,43343,2,0,B|212:311|185:325|172:238,1,125.000004768372,2|2,3:2|2:0,2:0:0:0:
211,142,44087,2,0,B|233:108|194:54|130:69,1,125.000004768372,0|8,3:0|3:0,2:0:0:0:
135,74,44583,5,8,3:0:0:0:
49,49,44830,1,2,2:0:0:0:
15,132,45078,1,0,2:0:0:0:
181,243,45574,6,0,B|225:234|209:219|271:209,1,85.0000016212464,8|2,3:0|3:2,2:0:0:0:
361,231,46070,2,0,B|364:213|356:204|366:174,1,56.6666677474976,0|0,3:0|0:0,2:0:0:0:
371,170,46318,1,0,3:0:0:0:
460,117,46566,2,0,B|445:74|466:80|443:22,1,85.0000016212464,8|2,3:0|3:2,2:0:0:0:
349,0,47062,1,0,3:0:0:0:
269,62,47310,6,0,B|278:97|239:118|267:157,2,85.0000016212464,2|8|0,3:2|3:0|3:0,2:0:0:0:
170,31,48054,2,0,B|144:19|97:38|102:72,1,85.0000016212464,0|2,3:0|3:2,2:0:0:0:
27,133,48549,2,0,B|63:146|75:189|49:215,1,85.0000016212464,8|2,3:0|3:2,2:0:0:0:
22,307,49045,6,0,B|44:312|71:296|80:274,1,56.6666677474976,0|0,3:0|0:0,2:0:0:0:
78,292,49293,1,0,3:0:0:0:
163,347,49541,2,0,B|205:331|185:317|256:303,1,85.0000016212464,8|2,3:0|3:2,2:0:0:0:
331,360,50037,2,0,B|325:327|339:334|327:300,1,56.6666677474976,0|0,3:0|0:0,2:0:0:0:
334,300,50285,1,0,3:0:0:0:
408,230,50533,2,0,B|363:218|382:202|310:195,1,85.0000016212464,8|2,3:0|3:2,2:0:0:0:
239,147,51029,1,0,3:0:0:0:
155,207,51277,5,0,3:0:0:0:
58,174,51525,2,0,B|35:142|57:107|90:103,1,85.0000016212464,8|2,3:0|3:2,2:0:0:0:
158,32,52021,2,0,B|165:56|203:66|248:48,1,85.0000016212464,2|0,3:2|3:0,2:0:0:0:
323,2,52516,2,0,B|316:19|327:16|317:42,3,28.3333338737488,8|8|8|8,3:0|2:0|2:0|3:2,2:0:0:0:
401,124,53012,5,0,3:0:0:0:
487,66,53260,2,0,B|503:68|514:93|509:114,1,56.6666677474976,0|0,3:0|3:0,2:0:0:0:
504,119,53508,2,0,B|498:166|481:148|476:208,1,85.0000016212464,8|2,3:0|3:2,2:0:0:0:
394,265,54004,2,0,B|393:251|368:239|345:243,1,56.6666677474976,0|0,3:0|0:0,2:0:0:0:
342,248,54252,1,0,3:0:0:0:
236,250,54500,2,0,B|241:299|260:281|264:340,1,85.0000016212464,8|2,3:0|3:2,2:0:0:0:
167,370,54996,2,0,B|154:377|122:370|116:348,1,56.6666677474976,0|0,3:0|0:0,2:0:0:0:
119,348,55244,1,0,3:0:0:0:
34,281,55492,6,0,B|25:254|47:219|100:208,1,85.0000016212464,8|2,3:0|3:2,2:0:0:0:
112,116,55987,1,2,3:2:0:0:
203,168,56235,1,0,3:0:0:0:
304,136,56483,2,0,B|288:169|316:164|287:234,1,85.0000016212464,8|2,3:0|3:2,2:0:0:0:
241,308,56979,6,0,B|251:327|264:315|285:353,1,56.6666677474976,0|0,3:0|0:0,2:0:0:0:
284,355,57227,1,0,3:0:0:0:
382,383,57475,2,0,B|390:336|403:352|413:290,1,85.0000016212464,8|2,3:0|3:2,2:0:0:0:
491,241,57971,2,0,B|485:207|476:217|471:177,1,56.6666677474976,0|0,3:0|0:0,2:0:0:0:
476,180,58219,1,0,3:0:0:0:
380,127,58467,2,0,B|371:173|358:157|348:219,1,85.0000016212464,8|2,3:0|3:2,2:0:0:0:
257,229,58963,1,0,3:0:0:0:
179,163,59211,6,0,B|140:153|147:186|86:180,1,85.0000016212464,2|8,3:2|3:0,2:0:0:0:
0,123,59706,1,0,3:0:0:0:
90,58,59954,2,0,B|130:60|128:76|178:80,1,85.0000016212464,0|8,3:0|3:2,2:0:0:0:
285,107,60450,1,8,3:0:0:0:
367,20,60698,1,2,3:2:0:0:
485,32,60946,6,0,B|466:90|509:84|482:161,1,112.500004291535,8|2,2:1|2:0,2:0:0:0:
345,190,61690,1,0,2:0:0:0:
345,190,61938,2,0,B|299:149|339:132|277:79,1,112.500004291535,0|2,2:0|2:0,2:0:0:0:
178,201,62682,1,0,2:0:0:0:
178,201,62930,2,0,B|218:246|235:206|288:268,1,112.500004291535,0|2,2:0|2:0,2:0:0:0:
228,359,63673,1,0,2:0:0:0:
228,359,63921,2,0,B|170:378|176:335|99:362,2,112.500004291535,2|2|8,2:0|2:0|2:0,2:0:0:0:
322,325,64913,5,8,2:1:0:0:
322,325,65161,2,0,B|219:312|316:192|4:145,1,375.000014305115,2|0,2:0|2:0,2:0:0:0:
71,342,66897,5,0,2:0:0:0:
196,327,67392,1,2,2:0:0:0:
275,220,67888,1,0,2:0:0:0:
415,172,68384,1,2,2:0:0:0:
512,284,68880,6,0,B|498:313|509:308|495:337,1,50.0000019073487,8|8,2:3|2:3,2:0:0:0:
415,376,69293,1,8,2:3:0:0:
415,376,69376,1,8,2:0:0:0:
343,308,69624,1,8,2:3:0:0:
252,338,69872,6,0,B|247:309|237:313|229:279,1,50.0000019073487,0|8,2:0|2:3,2:0:0:0:
153,239,70285,1,8,2:3:0:0:
153,239,70368,1,8,2:0:0:0:
62,258,70616,1,8,2:3:0:0:
0,182,70864,6,0,B|13:157|5:149|23:121,1,50.0000019073487,0|8,2:0|2:3,2:0:0:0:
102,97,71277,1,8,2:3:0:0:
102,97,71359,1,8,2:0:0:0:
77,4,71607,1,8,2:3:0:0:
170,35,71855,2,0,B|199:39|193:8|290:25,2,112.500004291535,0|8|8,2:0|2:3|2:3,2:0:0:0:
235,105,72847,5,0,2:0:0:0:
256,192,73095,12,8,74830,2:1:0:0:
0,13,75822,5,2,2:0:0:0:
88,172,76318,1,2,2:0:0:0:
14,336,76814,2,0,B|70:335|62:356|112:367,1,100,4|0,3:0|2:0,2:0:0:0:
190,301,77558,1,0,0:0:0:0:
292,325,77806,2,0,B|289:334|294:335|289:345,21,16.6666666666667,0|0|0|2|2|2|0|0|0|2|2|2|0|0|0|2|2|2|0|0|0|2,2:0|2:0|2:0|2:0|2:0|2:0|2:0|2:0|2:0|2:0|2:0|2:0|2:0|2:0|2:0|2:0|2:0|2:0|2:0|2:0|2:0|2:0,2:0:0:0:
377,384,79789,5,8,2:1:0:0:
501,211,80285,1,2,2:0:0:0:
384,34,80781,2,0,B|329:42|344:65|296:77,1,100,4|0,3:0|2:0,2:0:0:0:
218,18,81525,1,0,0:0:0:0:
121,24,81773,2,0,B|118:12|113:15|109:-4,21,16.6666666666667,0|0|0|2|2|2|0|0|0|2|2|2|0|0|0|2|2|2|0|0|0|2,2:0|2:0|2:0|2:0|2:0|2:0|2:0|2:0|2:0|2:0|2:0|2:0|2:0|2:0|2:0|2:0|2:0|2:0|2:0|2:0|2:0|2:0,2:0:0:0:
142,109,83756,6,0,B|129:122|133:149|152:168,1,50.0000019073487,8|2,3:2|3:2,2:0:0:0:
190,179,84087,1,2,3:2:0:0:
259,154,84252,2,0,B|271:148|297:159|311:189,1,50.0000019073487,8|2,3:2|3:2,2:0:0:0:
303,223,84583,1,2,3:2:0:0:
248,271,84748,2,0,B|232:322|275:313|255:373,1,100,4|0,3:0|2:0,2:0:0:0:
165,384,85492,1,0,0:0:0:0:
87,337,85740,2,2,B|74:342|75:335|62:341,21,16.6666666666667,0|0|0|2|2|2|0|0|0|2|2|2|0|0|0|2|2|2|0|0|0|2,2:0|2:0|2:0|2:0|2:0|2:0|2:0|2:0|2:0|2:0|2:0|2:0|2:0|2:0|2:0|2:0|2:0|2:0|2:0|2:0|2:0|2:0,2:0:0:0:
116,252,87723,6,0,B|117:233|110:236|114:214,1,33.3333333333333,8|8,2:3|2:0,2:0:0:0:
116,212,87971,1,8,2:1:0:0:
17,171,88219,2,0,B|30:174|52:154|53:131,1,50,0|0,3:0|2:0,2:0:0:0:
57,50,88715,6,0,B|97:41|89:73|156:69,1,100,4|0,3:0|2:0,2:0:0:0:
243,27,89459,2,0,B|266:-3|340:26|266:109,1,150.000005722046,4|0,3:0|2:0,2:0:0:0:
235,215,90202,2,0,B|312:227|299:144|396:161,1,176.000005371094,4|0,3:0|2:0,2:0:0:0:
455,239,90946,2,0,B|484:269|415:338|306:236,1,200,4|0,3:0|2:0,2:0:0:0:
209,302,91690,6,0,B|157:313|191:341|106:355,1,100,0|0,3:0|2:0,2:0:0:0:
35,297,92186,2,0,B|-53:200|67:139|86:193,1,200,2|4,2:0|2:1,2:0:0:0:
255,2,93178,5,12,3:0:0:0:
368,62,93425,2,0,B|399:54|382:28|467:10,1,100,0|0,3:0|3:0,2:0:0:0:
512,66,93839,2,0,B|507:101|472:107|474:156,1,100,2|8,2:0|2:3,2:0:0:0:
512,283,94335,1,2,2:0:0:0:
512,283,94417,2,0,B|448:259|424:323|472:338,1,100,8|0,3:2|3:0,2:0:0:0:
341,265,94913,5,2,3:2:0:0:
384,384,95161,2,0,B|350:376|368:358|268:344,1,100,8|2,3:0|3:2,2:0:0:0:
182,284,95657,5,2,3:2:0:0:
65,326,95905,1,0,3:0:0:0:
0,222,96153,2,0,B|3:202|9:206|12:182,2,33.3333333333333,8|8|8,3:0|2:0|2:0,2:0:0:0:
19,187,96401,2,0,B|37:213|78:224|126:207,1,100,2|0,3:2|3:0,2:0:0:0:
250,134,96897,5,2,3:2:0:0:
128,65,97145,2,0,B|101:82|98:121|114:129,1,66.6666666666667,8|2,3:0|2:0,2:0:0:0:
119,137,97392,1,2,3:2:0:0:
184,176,97558,2,0,B|187:224|205:208|217:269,1,100,8|0,0:0|2:0,2:0:0:0:
231,277,97888,5,2,3:2:0:0:
340,224,98136,2,0,B|380:230|359:248|418:256,1,66.6666666666667,8|0,3:0|2:0,2:0:0:0:
399,252,98384,1,2,3:2:0:0:
506,194,98632,5,0,3:0:0:0:
424,110,98880,1,2,3:2:0:0:
307,139,99128,2,0,B|296:195|327:185|322:256,1,100,8|8,3:0|3:2,2:0:0:0:
217,298,99624,5,2,3:2:0:0:
159,248,99789,1,8,3:2:0:0:
159,248,99872,1,2,3:2:0:0:
229,161,100120,1,8,3:0:0:0:
137,79,100368,1,2,3:2:0:0:
22,124,100616,6,0,B|20:159|43:163|47:230,1,100,4|0,2:1|2:0,2:0:0:0:
99,325,101111,2,0,B|57:317|78:305|16:296,1,66.6666666666667,8|2,3:0|0:0,0:0:0:0:
182,384,101525,2,0,B|190:360|228:336|287:361,1,100,8|0,2:0|2:0,2:0:0:0:
274,350,101855,6,0,B|264:314|296:322|285:281,1,66.6666666666667,2|10,3:2|0:0,2:0:0:0:
407,153,102351,2,0,B|387:161|355:151|343:124,1,66.6666666666667,2|0,3:2|2:0,2:0:0:0:
347,126,102599,5,0,3:0:0:0:
238,42,102847,1,2,3:2:0:0:
183,65,103012,2,0,B|179:116|146:87|140:154,1,100,8|0,0:3|0:0,0:0:0:0:
146,160,103343,1,2,3:2:0:0:
85,276,103591,5,2,3:2:0:0:
130,316,103756,2,0,B|166:325|154:308|202:321,1,66.6666666666667,8|0,3:2|3:0,2:0:0:0:
261,290,104087,1,8,2:3:0:0:
304,332,104252,1,2,3:2:0:0:
363,331,104417,1,8,2:3:0:0:
413,367,104583,6,0,B|418:330|449:340|456:268,1,100,0|2,3:0|3:2,2:0:0:0:
388,172,105078,1,8,3:0:0:0:
422,141,105244,1,8,2:0:0:0:
319,59,105492,2,0,B|294:51|260:83|315:145,1,100,2|8,2:0|2:0,2:0:0:0:
159,252,106070,6,0,B|193:233|191:248|234:229,1,66.6666666666667,8|0,3:0|2:0,2:0:0:0:
227,227,106318,2,0,B|225:186|213:197|208:148,1,66.6666666666667,2|0,3:2|3:0,2:0:0:0:
203,160,106566,1,4,3:0:0:0:
79,199,106814,1,2,3:2:0:0:
119,326,107062,2,0,B|162:315|151:346|244:326,1,100,12|8,3:0|3:2,2:0:0:0:
378,380,107558,6,0,B|382:344|394:357|402:318,1,66.6666666666667,4|0,3:0|2:0,2:0:0:0:
397,310,107806,2,0,B|361:305|374:293|335:285,1,66.6666666666667,2|0,3:2|2:0,2:0:0:0:
331,277,108054,2,0,B|339:207|364:247|389:79,1,200,12|8,3:0|3:1,2:0:0:0:
126,0,109045,5,8,2:0:0:0:
65,41,109210,1,2,2:0:0:0:
65,41,109293,2,0,B|68:90|82:80|86:130,1,89.9999972534181,0|2,2:0|2:0,2:0:0:0:
21,231,109789,2,0,B|55:226|47:215|86:212,1,59.9999981689454,2|2,2:0|2:0,2:0:0:0:
85,216,110037,6,0,B|105:224|120:249|111:296,1,66.6666666666667,4|2,3:1|2:0,2:0:0:0:
109,278,110285,1,0,3:0:0:0:
234,336,110533,5,2,3:2:0:0:
308,312,110698,1,2,2:0:0:0:
308,312,110781,2,0,B|341:293|332:250|304:227,1,100,0|8,3:0|3:0,2:0:0:0:
241,110,111277,2,0,B|278:115|266:126|310:134,1,66.6666666666667,2|2,3:2|2:0,2:0:0:0:
306,140,111525,5,0,3:0:0:0:
383,114,111690,1,8,2:0:0:0:
383,114,111773,1,8,3:2:0:0:
477,206,112021,2,0,B|490:200|491:207|512:200,2,33.3333333333333,8|0|2,3:0|2:0|2:0,2:0:0:0:
452,235,112268,2,0,B|438:227|436:235|416:227,2,33.3333333333333,0|8|8,3:0|2:3|2:0,2:0:0:0:
465,268,112516,6,0,B|482:282|488:315|479:354,1,66.6666666666667,2|8,3:2|2:0,2:0:0:0:
479,336,112764,1,2,3:2:0:0:
365,303,113012,1,8,3:0:0:0:
301,339,113178,1,2,0:0:0:0:
296,334,113260,1,2,3:2:0:0:
212,246,113508,1,2,3:2:0:0:
112,304,113756,6,0,B|96:309|59:299|48:262,1,66.6666666666667,2|8,3:2|2:0,2:0:0:0:
46,279,114004,2,0,B|10:201|104:188|65:96,1,166.666666666667,8|8,3:0|2:3,2:0:0:0:
79,116,114500,2,0,B|29:100|54:72|-4:60,1,100,2|0,3:2|3:0,2:0:0:0:
149,22,114996,6,0,B|155:61|169:52|173:87,1,66.6666666666667,8|0,3:0|3:0,2:0:0:0:
179,87,115244,1,2,3:2:0:0:
306,63,115492,1,2,3:2:0:0:
299,136,115657,1,0,3:0:0:0:
293,141,115740,1,2,3:2:0:0:
382,232,115987,2,0,B|363:228|367:235|348:231,5,33.3333333333333,8|2|0|2|2|8,3:0|2:0|2:0|3:2|2:0|2:0,2:0:0:0:
343,226,116483,6,0,B|308:220|275:278|324:314,1,100,4|0,3:0|2:0,2:0:0:0:
244,342,116897,1,2,2:0:0:0:
244,342,116979,2,0,B|189:333|210:303|138:295,1,100,8|0,3:0|3:0,2:0:0:0:
50,225,117475,6,0,B|78:179|38:174|77:113,1,100,2|0,3:2|3:0,2:0:0:0:
40,54,117888,1,0,2:0:0:0:
40,54,117971,2,0,B|82:27|89:57|142:24,1,100,8|0,3:0|3:0,2:0:0:0:
263,35,118467,6,0,B|313:67|270:84|340:123,1,100,2|0,3:2|3:0,2:0:0:0:
406,100,118880,1,8,3:2:0:0:
406,100,118963,2,0,B|435:144|390:153|426:206,1,100,8|0,3:0|3:0,2:0:0:0:
327,287,119459,6,0,B|289:281|301:271|264:263,2,66.6666666666667,2|8|0,3:2|3:2|2:0,2:0:0:0:
252,341,119954,2,0,B|214:346|226:356|189:364,2,66.6666666666667,8|8|8,3:0|3:2|2:3,2:0:0:0:
183,277,120450,6,0,B|180:258|147:231|109:253,1,66.6666666666667,4|2,3:0|3:2,2:0:0:0:
66,218,120781,1,2,3:2:0:0:
25,156,120946,2,0,B|20:128|37:103|53:99,1,66.6666666666667,12|2,3:0|3:2,2:0:0:0:
123,105,121277,1,8,3:2:0:0:
178,58,121442,2,0,B|170:21|152:34|145:-11,2,66.6666666666667,4|0|2,3:0|3:0|3:2,2:0:0:0:
248,79,121938,2,0,B|281:81|305:58|304:30,1,66.6666666666667,12|2,3:0|3:2,2:0:0:0:
358,2,122268,1,8,3:2:0:0:
424,32,122434,6,0,B|425:48|431:48|433:63,4,33.3333333333333,4|2|2|0|8,3:0|2:0|3:2|2:0|3:2,2:0:0:0:
382,119,122930,2,0,B|367:114|368:107|352:103,4,33.3333333333333,4|2|0|2|8,3:0|2:0|3:2|2:0|3:2,2:0:0:0:
445,167,123425,2,0,B|461:164|461:158|475:155,4,33.3333333333333,4|2|8|2|8,3:0|2:0|3:2|2:0|3:2,2:0:0:0:
384,215,123921,2,0,B|382:231|376:231|373:246,4,33.3333333333333,4|8|2|8|2,3:0|2:0|3:2|2:0|3:2,2:0:0:0:
422,305,124417,5,0,2:0:0:0:
256,192,124500,12,8,127590,2:1:0:0:
