osu file format v14

[General]
AudioFilename: audio.mp3
AudioLeadIn: 0
PreviewTime: 83912
Countdown: 0
SampleSet: Soft
StackLeniency: 0.4
Mode: 0
LetterboxInBreaks: 0
WidescreenStoryboard: 1

[Editor]
DistanceSpacing: 1
BeatDivisor: 4
GridSize: 32
TimelineZoom: 2.9

[Metadata]
Title:Isso Kono Mama de
TitleUnicode:いっそこのままで
Artist:mifumei (BNSI) feat. Aizawa
ArtistUnicode:ミフメイ (BNSI) feat. 相沢
Creator:KnightC0re
Version:milr_'s Hard
Source:太鼓の達人
Tags:Yusuke Yuusuke Yamauchi 山内祐介 Taiko no Tatsujin ニジイロVer. Nijiiro Rainbow Version Namco Original ナムコオリジナル rhythm video game Japanese Rock Pop milr_ Nagatoro
BeatmapID:3946387
BeatmapSetID:1794628

[Difficulty]
HPDrainRate:5
CircleSize:4
OverallDifficulty:6
ApproachRate:8
SliderMultiplier:1.4
SliderTickRate:1

[Events]
//Background and Video events
0,0,"75843264_p0e.png",0,0
//Break Periods
2,19376,20952
2,59797,62005
//Storyboard Layer 0 (Background)
//Storyboard Layer 1 (Fail)
//Storyboard Layer 2 (Pass)
//Storyboard Layer 3 (Foreground)
//Storyboard Layer 4 (Overlay)
//Storyboard Sound Samples

[TimingPoints]
1492,315.789473684211,4,2,1,80,1,0
1492,-125,4,2,1,80,0,0
1965,-125,4,2,1,35,0,0
3386,-125,4,2,1,80,0,0
4492,-125,4,2,1,35,0,0
6070,-125,4,2,1,80,0,0
6544,-125,4,2,1,35,0,0
7649,-125,4,2,1,80,0,0
8123,-125,4,2,1,35,0,0
8360,-125,4,2,1,80,0,0
11281,-125,4,2,1,45,0,0
11597,-125,4,2,1,55,0,0
18070,-125,4,2,1,65,0,0
18385.8947368421,-125,4,2,1,75,0,0
19176,-125,4,2,1,25,0,0
21228,-125,4,2,1,65,0,0
21702,-125,4,2,1,55,0,0
22017.7894736842,-125,4,2,1,40,0,0
26755,-125,4,2,1,55,0,0
27070,-125,4,2,1,40,0,0
29438.8947368421,-125,4,2,1,45,0,0
31492,-125,4,2,1,70,0,0
31807,-111.111111111111,4,2,1,65,0,0
32122.7894736842,-111.111111111111,4,2,1,55,0,0
34885.9473684211,-111.111111111111,4,2,1,65,0,0
34964.8947368421,-111.111111111111,4,2,1,75,0,0
35044,-111.111111111111,4,2,1,65,0,0
35123,-111.111111111111,4,2,1,55,0,0
41439,-111.111111111111,4,2,1,45,0,0
41597,-111.111111111111,4,2,2,35,0,0
41755,-111.111111111111,4,2,3,25,0,0
41913,-142.857142857143,4,2,1,30,0,0
46491.8947368421,-142.857142857143,4,2,1,45,0,0
46965,-142.857142857143,4,2,1,30,0,0
51544,-142.857142857143,4,2,1,45,0,0
52018,-125,4,2,1,45,0,0
54544,-125,4,2,1,55,0,0
57070,-125,4,2,1,65,0,0
58334,-125,4,2,1,70,0,0
58965,-125,4,2,1,75,0,0
59281,-125,4,2,1,80,0,0
59597,-125,4,2,1,15,0,0
62755,-200,4,2,1,30,0,0
63070.7894736842,-200,4,2,1,75,0,0
64018,315.789473684211,4,2,1,80,1,0
68439,-125,4,2,1,40,0,0
69070,-100,4,2,1,80,0,0
70648.8947368421,-100,4,2,2,80,0,0
70806.7894736842,-100,4,2,3,80,0,0
70965,-100,4,2,1,80,0,0
74123,-125,4,2,1,40,0,0
75070,-100,4,2,1,60,0,0
75386,-100,4,2,1,80,0,0
80281,-100,4,2,2,80,0,0
80439,-100,4,2,3,80,0,0
80596,-100,4,2,1,80,0,0
81702,-100,4,2,1,45,0,0
82175,-100,4,2,1,50,0,0
82648.7894736842,-100,4,2,1,55,0,0
83123,-100,4,2,1,60,0,0
83596,-100,4,2,1,80,0,0
83753.8947368421,-100,4,2,1,65,0,0
83912,-100,4,2,1,50,0,0
84228,-100,4,2,1,75,0,1
91807,-100,4,2,1,85,0,1
94333,-100,4,2,1,75,0,1
99386,-100,4,2,1,85,0,1
101596,-100,4,2,2,85,0,1
101754,-100,4,2,3,85,0,1
101912,-100,4,2,1,85,0,1
103807,-100,4,2,1,75,0,1
104439,-100,4,2,1,70,0,0
109017.894736842,-100,4,2,2,70,0,0
109175,-100,4,2,3,70,0,0
109333,-100,4,2,1,70,0,0
114544,-125,4,2,1,45,0,0
117070,-125,4,2,1,55,0,0
118965,-125,4,2,1,60,0,0
119596,-125,4,2,1,65,0,0
120228,-125,4,2,1,70,0,0
120860,-125,4,2,1,75,0,0
121175,-125,4,2,1,80,0,0
121333,-125,4,2,1,85,0,0
121806.789473684,-125,4,2,1,90,0,0
122123,-125,4,2,1,25,0,0

[Colours]
Combo1 : 255,128,128
Combo2 : 0,128,255
Combo3 : 0,128,192
Combo4 : 128,128,128
Combo5 : 192,192,192
Combo6 : 255,0,0

[HitObjects]
173,61,1492,38,0,P|248:45|301:33,1,112,4|0,3:0|0:0,0:0:0:0:
353,23,1965,2,0,B|367:49|367:49|336:75,1,56
289,109,2281,2,0,B|269:125|269:125|283:152,1,56,2|0,0:0|0:0,0:0:0:0:
342,196,2597,5,2,0:0:0:0:
451,127,2913,1,0,0:0:0:0:
504,245,3228,1,2,0:0:0:0:
504,245,3386,2,0,P|494:288|478:370,1,112,4|4,3:0|3:0,0:0:0:0:
415,383,3860,1,0,0:0:0:0:
378,321,4018,69,8,0:3:0:0:
378,321,4176,1,4,3:0:0:0:
257,365,4492,1,0,0:0:0:0:
203,249,4807,1,0,0:0:0:0:
311,168,5123,6,0,P|319:133|324:112,1,56,2|0,0:0|0:0,0:0:0:0:
275,61,5439,2,0,P|239:70|208:77,1,56
169,125,5755,1,0,0:0:0:0:
81,22,6070,1,8,0:3:0:0:
21,59,6228,2,0,P|31:93|41:133,1,56,4|0,3:0|0:0,0:0:0:0:
85,166,6544,70,0,P|73:216|55:286,1,112,2|0,0:0|0:0,0:0:0:0:
50,350,7018,2,0,B|27:359|27:359|13:331,2,56,2|0|2,0:0|0:0|0:0,0:0:0:0:
118,319,7492,1,8,0:3:0:0:
151,384,7649,1,4,3:0:0:0:
151,384,8281,5,0,0:0:0:0:
151,384,8360,1,8,0:3:0:0:
151,384,8439,2,0,L|170:309,1,56,8|0,0:3|3:0,0:0:0:0:
231,299,8755,1,0,3:0:0:0:
193,236,8913,22,0,P|124:249|73:259,1,112,4|0,3:0|0:0,0:0:0:0:
29,210,9386,1,8,0:3:0:0:
86,164,9544,2,0,P|95:109|104:50,1,112,4|0,3:0|0:0,0:0:0:0:
154,3,10018,1,8,0:3:0:0:
216,39,10176,2,0,P|252:33|286:108,1,112,4|0,3:0|0:0,0:0:0:0:
289,97,10570,1,8,0:3:0:0:
285,106,10649,1,8,0:3:0:0:
225,145,10807,69,4,0:0:0:0:
285,278,11123,1,4,0:0:0:0:
285,278,11281,2,0,P|335:268|376:260,1,84,0|0,3:0|0:0,0:0:0:0:
376,266,11597,22,0,P|429:276|465:217,1,112,4|0,3:0|3:0,0:0:0:0:
510,182,12070,1,2,0:0:0:0:
510,182,12228,2,0,P|507:136|439:98,1,112,0|0,3:0|3:0,0:0:0:0:
419,37,12702,5,0,0:0:0:0:
419,37,12781,1,2,0:0:0:0:
419,37,12860,2,0,P|382:32|362:58,1,56,0|0,3:0|0:0,0:0:0:0:
298,47,13176,2,0,P|277:74|293:113,1,56,0|0,3:0|0:0,0:0:0:0:
332,142,13492,2,0,P|345:193|359:263,1,112,0|0,3:0|3:0,0:0:0:0:
238,357,14123,70,0,P|211:371|150:310,1,112,0|0,3:0|3:0,0:0:0:0:
90,291,14597,1,2,0:0:0:0:
90,291,14755,2,0,P|71:237|115:198,1,112,0|0,3:0|3:0,0:0:0:0:
137,137,15228,5,0,0:0:0:0:
137,137,15307,1,2,0:0:0:0:
137,137,15386,2,0,P|168:117|199:136,1,56,0|0,3:0|0:0,0:0:0:0:
252,147,15702,2,0,P|274:169|269:207,1,56,0|0,3:0|0:0,0:0:0:0:
235,251,16018,2,0,P|172:238|103:221,1,112,0|0,3:0|3:0,0:0:0:0:
67,265,16492,69,8,0:3:0:0:
67,265,16570,1,8,0:3:0:0:
67,265,16649,2,0,P|12:230|32:176,1,112,0|0,3:0|3:0,0:0:0:0:
0,122,17123,1,2,0:0:0:0:
0,122,17281,2,0,P|0:76|70:58,1,112,0|0,3:0|3:0,0:0:0:0:
119,17,17755,5,8,0:3:0:0:
119,17,17834,1,8,0:3:0:0:
119,17,17913,2,0,P|152:29|151:63,1,56,0|8,3:0|0:3,0:0:0:0:
210,94,18228,2,0,P|214:133|193:147,1,56,0|8,3:0|0:3,0:0:0:0:
155,196,18544,69,0,3:0:0:0:
155,196,18623,1,0,0:3:0:0:
155,196,18702,1,10,0:3:0:0:
219,234,18860,2,0,P|212:265|208:280,3,28,10|8|10|8,0:3|0:3|0:3|0:3,0:0:0:0:
188,288,19176,1,0,0:0:0:0:
161,189,21702,22,0,P|170:146|108:109,1,112,4|8,3:0|0:3,0:0:0:0:
53,132,22176,2,0,P|42:75|27:5,2,112,0|2|2,0:0|0:0|0:0,0:0:0:0:
0,258,23123,1,2,0:0:0:0:
0,258,23281,2,0,P|16:279|59:268,1,56,8|0,0:3|0:0,0:0:0:0:
106,245,23597,1,2,0:0:0:0:
159,377,23913,1,8,0:3:0:0:
288,331,24228,6,0,P|279:281|269:201,1,112,0|8,0:0|0:3,0:0:0:0:
211,180,24702,2,0,P|170:165|174:88,2,112,2|0|0,0:0|0:0|0:0,0:0:0:0:
294,31,25649,1,2,0:0:0:0:
294,31,25807,2,0,P|323:36|354:42,1,56,10|0,0:3|0:0,0:0:0:0:
398,93,26123,1,0,0:0:0:0:
512,0,26439,1,10,0:3:0:0:
468,159,26755,70,0,P|474:198|481:233,1,56,0|0,3:0|3:0,0:0:0:0:
430,268,27070,1,8,0:3:0:0:
430,268,27228,2,0,P|382:257|311:240,1,112,2|0,0:0|0:0,0:0:0:0:
275,300,27702,2,0,P|232:300|206:302,1,56,8|0,0:3|0:0,0:0:0:0:
169,258,28018,1,0,0:0:0:0:
380,384,28334,6,0,P|372:347|355:263,1,112,8|0,0:3|0:0,0:0:0:0:
248,181,28965,1,8,0:3:0:0:
167,301,29281,2,0,P|129:297|119:276,1,56
114,276,29518,1,2,0:0:0:0:
109,267,29597,1,10,0:3:0:0:
51,224,29755,1,0,0:0:0:0:
11,284,29913,70,0,P|23:328|28:358,2,56,2|2|8,0:0|0:0|0:3,0:0:0:0:
51,224,30386,1,0,0:0:0:0:
0,171,30544,6,0,P|12:117|26:46,1,112,2|8,0:0|0:3,0:0:0:0:
83,20,31018,1,0,0:0:0:0:
115,83,31176,1,2,3:2:0:0:
232,41,31492,2,1,P|282:52|335:60,1,84,4|8,3:0|0:3,0:0:0:0:
324,51,31807,38,0,P|345:17|429:27,1,125.999996154785,4|8,3:0|0:3,0:0:0:0:
482,65,32281,2,0,P|503:59|520:54,2,31.4999990386963,0|2|2,0:0|0:0|3:2,0:0:0:0:
458,132,32597,1,2,3:2:0:0:
391,111,32755,1,8,0:3:0:0:
391,111,32913,6,0,P|376:152|361:238,1,125.999996154785,2|2,3:2|3:2,0:0:0:0:
420,277,33386,2,0,P|467:280|488:333,1,94.499997116089,8|2,0:3|0:0,0:0:0:0:
485,330,33702,1,0,0:0:0:0:
436,384,33860,1,0,3:0:0:0:
369,352,34018,1,8,0:3:0:0:
212,383,34334,70,0,P|219:322|230:235,1,125.999996154785,2|8,3:2|0:3,0:0:0:0:
286,215,34807,2,0,P|280:190|278:176,2,31.4999990386963,0|2|2,0:0|0:0|0:0,0:0:0:0:
331,273,35123,1,0,3:0:0:0:
393,235,35281,1,8,0:3:0:0:
393,235,35439,6,0,P|415:194|423:103,1,125.999996154785,2|0,3:2|3:0,0:0:0:0:
382,57,35913,2,0,P|339:67|286:81,1,94.499997116089,10|0,0:3|0:0,0:0:0:0:
281,74,36228,1,0,3:0:0:0:
244,12,36386,1,0,3:0:0:0:
176,38,36544,1,10,0:3:0:0:
143,104,36702,69,8,0:3:0:0:
143,104,36781,1,8,0:3:0:0:
143,104,36860,2,0,P|161:162|176:242,1,125.999996154785,4|8,3:0|0:3,0:0:0:0:
240,259,37334,2,0,P|222:313|200:390,1,125.999996154785,2|0,0:0|3:0,0:0:0:0:
135,353,37807,1,8,0:3:0:0:
135,353,37965,6,0,P|86:371|45:309,1,125.999996154785,2|0,3:2|3:0,0:0:0:0:
9,256,38439,1,10,0:3:0:0:
72,219,38597,1,0,0:0:0:0:
72,219,38676,1,8,0:3:0:0:
72,219,38755,2,0,P|126:230|157:238,1,62.9999980773926,2|0,0:0|3:0,0:0:0:0:
174,293,39070,2,0,P|229:280|284:263,1,94.499997116089,8|0,0:3|0:0,0:0:0:0:
279,278,39386,70,0,P|319:253|294:170,1,125.999996154785,0|8,3:0|0:3,0:0:0:0:
250,145,39860,1,0,0:0:0:0:
250,145,39939,1,2,0:0:0:0:
250,145,40018,2,0,P|238:101|232:76,1,62.9999980773926,0|0,0:0|3:0,0:0:0:0:
291,41,40334,2,0,P|330:50|371:60,1,62.9999980773926,8|0,0:3|3:0,0:0:0:0:
419,20,40649,5,2,0:0:0:0:
419,20,40807,1,0,3:0:0:0:
447,86,40965,2,0,P|431:143|419:192,1,94.499997116089,12|8,0:3|0:3,0:0:0:0:
413,190,41281,1,0,3:0:0:0:
478,223,41439,1,4,3:0:0:0:
442,285,41597,1,8,0:3:0:0:
397,340,41755,1,8,0:3:0:0:
461,373,41913,6,0,P|380:354|348:348,1,97.9999970092774,4|0,3:0|0:0,0:0:0:0:
326,222,42544,2,0,P|292:232|225:248,1,97.9999970092774,2|0,0:0|0:0,0:0:0:0:
158,356,43176,2,0,P|115:366|80:313,1,97.9999970092774,2|0,0:0|0:0,0:0:0:0:
51,268,43649,1,2,0:0:0:0:
6,289,43807,1,0,0:0:0:0:
62,183,44123,1,0,0:0:0:0:
182,238,44439,6,0,P|188:193|199:124,1,97.9999970092774,2|0,0:0|0:0,0:0:0:0:
133,25,45070,2,0,P|74:38|26:50,1,97.9999970092774,2|0,0:0|0:0,0:0:0:0:
0,167,45702,2,0,P|3:213|55:224,1,97.9999970092774,2|0,0:0|0:0,0:0:0:0:
92,205,46176,1,2,0:0:0:0:
152,164,46334,70,0,P|183:176|191:204,1,48.9999985046387,0|0,0:0|3:0,0:0:0:0:
194,196,46570,1,0,0:0:0:0:
199,205,46649,1,0,0:0:0:0:
159,265,46807,1,0,3:0:0:0:
212,317,46965,6,0,P|254:304|323:286,1,97.9999970092774,2|0,0:0|0:0,0:0:0:0:
441,371,47597,2,0,P|465:303|479:268,1,97.9999970092774,2|0,0:0|0:0,0:0:0:0:
371,195,48228,2,0,P|353:130|338:85,1,97.9999970092774,2|0,0:0|0:0,0:0:0:0:
380,40,48702,1,2,0:0:0:0:
433,59,48860,1,0,0:0:0:0:
293,0,49176,1,0,0:0:0:0:
245,50,49334,2,0,P|236:67|227:80,1,24.4999992523194
223,72,49492,70,0,P|179:48|129:25,1,97.9999970092774,2|0,0:0|0:0,0:0:0:0:
0,7,50123,2,0,P|25:60|44:104,1,97.9999970092774,2|0,0:0|0:0,0:0:0:0:
140,189,50755,2,0,P|99:237|73:273,1,97.9999970092774,2|0,0:0|0:0,0:0:0:0:
4,269,51228,2,0,P|16:311|24:338,1,48.9999985046387,2|0,0:0|0:0,0:0:0:0:
79,371,51544,1,0,3:0:0:0:
79,371,51623,1,0,0:0:0:0:
79,371,51702,2,0,P|119:382|140:388,1,48.9999985046387,0|0,0:0|3:0,0:0:0:0:
199,381,52018,54,0,P|249:360|311:349,1,112,4|0,3:0|3:0,0:0:0:0:
377,377,52492,1,2,0:0:0:0:
377,377,52649,2,0,P|416:345|400:275,1,112,0|0,3:0|3:0,0:0:0:0:
350,253,53123,1,2,0:0:0:0:
286,218,53281,1,0,3:0:0:0:
393,110,53597,6,0,P|385:70|378:46,1,56,2|2,3:2|0:0,0:0:0:0:
436,10,53913,2,0,P|478:14|504:86,1,112,0|0,3:0|3:0,0:0:0:0:
480,139,54386,1,0,3:0:0:0:
480,139,54544,70,0,P|427:148|354:164,1,112,0|0,3:0|3:0,0:0:0:0:
319,108,55018,1,2,0:0:0:0:
319,108,55176,2,0,P|271:119|256:182,1,112,0|0,3:0|3:0,0:0:0:0:
294,234,55649,1,2,0:0:0:0:
335,294,55807,1,0,3:0:0:0:
193,384,56123,6,0,P|185:340|180:319,1,56,2|2,3:2|3:2,0:0:0:0:
205,263,56439,2,0,P|143:247|77:229,1,112,0|0,3:0|3:0,0:0:0:0:
42,183,56913,1,8,0:3:0:0:
42,183,57070,70,0,P|38:146|106:136,1,112,0|0,3:0|3:0,0:0:0:0:
170,106,57544,1,10,3:3:0:0:
170,106,57702,2,0,P|180:147|251:133,1,112,0|0,3:0|3:0,0:0:0:0:
288,93,58176,1,10,3:3:0:0:
240,38,58334,6,0,P|195:31|161:24,1,56,0|8,3:0|0:3,0:0:0:0:
156,98,58649,1,2,3:2:0:0:
156,98,58807,1,2,3:2:0:0:
84,71,58965,2,0,P|46:78|17:83,1,56,0|8,3:0|0:3,0:0:0:0:
5,150,59281,2,0,P|8:164|14:183,3,28,0|8|8|8,3:0|0:3|0:3|0:3,0:0:0:0:
40,201,59597,1,0,0:0:0:0:
275,46,62755,22,0,P|268:109|257:189,1,140,2|8,0:0|0:3,0:0:0:0:
257,184,64018,6,0,B|197:133|125:156,2,140,4|4|8,3:0|3:0|0:3,0:0:0:0:
308,236,64807,2,0,P|361:220|444:198,1,140,4|8,3:0|0:3,0:0:0:0:
451,189,65202,1,8,0:3:0:0:
458,179,65281,5,4,3:0:0:0:
293,52,65596,2,0,P|301:23|304:9,1,35,8|0,0:3|0:0,0:0:0:0:
313,13,65754,2,0,P|348:44|332:146,1,140,4|8,3:0|0:3,0:0:0:0:
334,138,66149,1,8,0:3:0:0:
323,144,66228,69,4,3:0:0:0:
145,73,66544,1,8,0:3:0:0:
100,131,66702,2,0,P|113:185|128:277,1,140,4|8,3:0|0:3,0:0:0:0:
72,313,67175,2,0,P|86:361|183:360,1,140,4|8,3:0|0:3,0:0:0:0:
221,325,67649,5,4,3:0:0:0:
423,384,67965,2,0,P|417:361|406:320,1,35,8|8,0:3|0:3,0:0:0:0:
421,340,68123,2,0,P|367:328|295:315,1,105,4|0,3:0|0:0,0:0:0:0:
310,312,68439,38,0,P|301:265|399:213,1,168,2|0,0:0|0:0,0:0:0:0:
456,183,69070,22,0,P|468:136|491:47,1,140,4|8,3:0|0:3,0:0:0:0:
433,7,69544,2,0,P|379:4|333:85,1,140,4|8,3:0|0:3,0:0:0:0:
300,132,70018,1,4,3:0:0:0:
368,178,70175,1,0,3:0:0:0:
368,178,70254,1,8,0:3:0:0:
368,178,70333,2,0,P|359:206|353:228,1,35,8|8,0:3|0:3,0:0:0:0:
348,220,70491,6,0,P|310:212|261:201,2,70,4|8|8,3:0|0:3|0:3,0:0:0:0:
398,272,70965,1,8,0:3:0:0:
344,319,71123,1,4,3:0:0:0:
281,354,71281,2,0,P|249:360|202:374,1,70,8|0,0:3|0:0,0:0:0:0:
204,363,71518,1,8,0:3:0:0:
194,357,71596,70,0,P|167:304|231:256,1,140,6|8,3:0|0:3,0:0:0:0:
283,225,72070,2,0,P|272:175|256:80,1,140,6|8,3:0|0:3,0:0:0:0:
267,81,72465,1,8,0:3:0:0:
276,73,72544,6,0,P|257:40|153:44,1,140,6|8,3:0|0:3,0:0:0:0:
119,90,73018,1,6,3:0:0:0:
27,15,73254,1,8,0:3:0:0:
21,26,73333,1,8,0:3:0:0:
0,94,73491,2,0,P|14:138|24:169,1,70,6|8,3:0|0:3,0:0:0:0:
32,166,73728,1,0,0:0:0:0:
43,171,73807,2,0,P|34:206|30:226,3,35,6|8|8|8,3:0|0:3|0:3|0:3,0:0:0:0:
7,242,74123,54,0,B|56:222|108:232|125:295|125:295|140:358|221:375|263:324,1,308,2|0,0:0|0:0,0:0:0:0:
261,329,75070,1,6,3:0:0:0:
319,372,75228,1,8,0:3:0:0:
368,319,75386,6,0,P|355:264|336:180,1,140,6|8,3:0|0:3,0:0:0:0:
325,178,75781,1,8,0:3:0:0:
313,173,75860,1,4,3:0:0:0:
463,19,76175,1,8,0:3:0:0:
472,26,76254,1,8,0:3:0:0:
480,33,76333,6,0,P|471:71|460:141,1,105,6|0,3:0|0:0,0:0:0:0:
450,131,76649,2,0,P|417:119|399:113,1,35,8|8,0:3|0:3,0:0:0:0:
385,83,76807,70,0,P|342:49|234:51,1,140,4|8,3:0|0:3,0:0:0:0:
249,48,77202,1,8,0:3:0:0:
240,56,77281,2,0,P|254:111|280:215,1,140,6|8,3:0|0:3,0:0:0:0:
335,231,77754,6,0,P|354:272|295:322,1,105,4|0,3:0|0:0,0:0:0:0:
314,310,78070,2,0,P|270:300|228:288,1,70,0|8,3:0|0:3,0:0:0:0:
142,365,78465,1,8,0:3:0:0:
137,355,78544,1,2,3:2:0:0:
72,327,78702,1,0,3:0:0:0:
20,379,78860,2,0,P|33:318|39:292,1,70,8|8,0:3|0:3,0:0:0:0:
27,302,79096,1,8,0:3:0:0:
19,293,79175,70,0,P|32:232|53:132,1,140,6|8,3:0|0:3,0:0:0:0:
13,94,79649,1,0,0:0:0:0:
13,94,79728,1,8,0:3:0:0:
13,94,79807,1,8,0:3:0:0:
71,52,79965,2,0,P|67:35|60:-2,2,35,0|8|8,3:0|0:3|0:3,0:0:0:0:
128,97,80281,5,8,0:3:0:0:
189,138,80439,1,8,0:3:0:0:
233,81,80596,2,0,P|236:31|316:14,1,140,12|12,0:3|0:3,0:0:0:0:
378,44,81070,2,0,P|369:80|360:115,1,70,2|0,0:0|3:0,0:0:0:0:
306,157,81386,1,10,0:3:0:0:
369,212,81544,5,8,0:3:0:0:
369,212,81623,1,8,0:3:0:0:
369,212,81702,2,0,P|429:198|474:275,1,140,4|0,3:0|3:0,0:0:0:0:
439,313,82175,1,0,0:0:0:0:
439,313,82333,2,0,P|371:324|298:338,1,140,0|0,3:0|3:0,0:0:0:0:
146,380,82965,5,0,3:0:0:0:
146,380,83123,2,0,P|122:325|185:269,1,140,0|8,3:0|0:3,0:0:0:0:
228,230,83596,2,0,P|220:198|217:182,3,35,0|10|10|10,3:0|0:3|0:3|0:3,0:0:0:0:
188,180,83912,2,0,P|193:153|197:132,3,35,0|8|8|8,3:0|0:3|0:3|0:3,0:0:0:0:
219,120,84228,70,0,P|264:111|360:92,1,140,4|8,3:0|0:3,0:0:0:0:
408,35,84702,1,2,0:0:0:0:
408,35,84781,1,8,0:3:0:0:
408,35,84860,2,0,P|450:32|471:71,1,70,0|0,0:0|3:0,0:0:0:0:
512,113,85175,1,8,0:3:0:0:
468,176,85333,6,0,P|416:163|330:147,1,140,2|0,3:2|3:0,0:0:0:0:
267,104,85807,1,8,0:3:0:0:
233,176,85965,1,0,3:0:0:0:
233,176,86044,1,8,0:3:0:0:
233,176,86123,2,0,P|245:221|254:258,1,70,0|0,0:0|3:0,0:0:0:0:
316,284,86439,2,0,P|324:325|281:344,1,70,8|0,0:3|3:0,0:0:0:0:
238,380,86754,70,0,P|192:363|204:260,1,140,2|8,0:0|0:3,0:0:0:0:
250,243,87228,2,0,P|276:249|303:257,1,35,2|8,0:0|0:3,0:0:0:0:
313,277,87386,2,0,P|350:270|385:264,2,70,0|0|10,3:0|3:0|0:3,0:0:0:0:
334,194,87860,69,0,0:0:0:0:
334,194,87939,1,8,0:3:0:0:
334,194,88018,1,4,3:0:0:0:
256,236,88175,2,0,P|272:297|287:379,1,140,0|8,3:0|0:3,0:0:0:0:
206,346,88649,2,0,B|202:327|194:302,2,35,2|8|0,0:2|0:3|3:0,0:0:0:0:
136,378,88965,2,0,P|98:373|103:296,1,105,10|0,0:3|0:0,0:0:0:0:
96,282,89281,6,0,P|145:293|260:318,1,140,4|8,3:0|0:3,0:0:0:0:
300,271,89754,1,2,0:0:0:0:
300,271,89833,1,8,0:3:0:0:
300,271,89912,2,0,P|304:227|267:214,1,70,0|0,3:0|3:0,0:0:0:0:
220,174,90228,1,8,0:3:0:0:
168,232,90386,6,0,P|114:243|10:261,1,140,2|0,3:2|3:0,0:0:0:0:
0,188,90860,1,8,0:3:0:0:
71,153,91018,1,0,3:0:0:0:
71,153,91096,1,8,0:3:0:0:
71,153,91175,2,0,P|81:105|90:70,1,70,2|0,0:0|3:0,0:0:0:0:
40,22,91491,2,0,P|63:-2|121:7,1,70,8|8,0:3|0:3,0:0:0:0:
171,22,91807,38,0,P|211:57|202:141,1,140,6|8,3:0|0:3,0:0:0:0:
139,180,92281,2,0,P|76:165|-25:145,1,140,6|8,3:0|0:3,0:0:0:0:
28,232,92754,1,6,3:0:0:0:
58,312,92912,1,8,0:3:0:0:
58,312,92991,1,8,0:3:0:0:
58,312,93070,1,8,0:3:0:0:
126,275,93228,6,0,P|200:260|267:247,1,140,6|8,3:0|0:3,0:0:0:0:
313,314,93702,1,8,0:3:0:0:
313,314,93860,1,0,3:0:0:0:
383,283,94018,2,0,P|391:231|405:170,1,105,10|8,0:3|0:3,0:0:0:0:
432,162,94333,6,0,P|434:116|331:97,1,140,4|8,3:0|0:3,0:0:0:0:
294,122,94807,1,0,3:0:0:0:
232,77,94965,1,8,0:3:0:0:
280,17,95123,2,0,P|336:6|370:-4,1,70,0|8,3:0|0:3,0:0:0:0:
411,50,95439,6,0,P|443:46|464:96,1,70,0|8,3:0|0:3,0:0:0:0:
427,141,95754,1,0,3:0:0:0:
387,207,95912,1,10,0:3:0:0:
460,253,96070,1,0,0:0:0:0:
460,253,96149,1,8,0:3:0:0:
460,253,96228,2,0,P|500:270|491:312,1,70,2|0,3:0|3:0,0:0:0:0:
455,353,96544,2,0,P|405:340|360:329,1,70,8|0,0:3|0:0,0:0:0:0:
323,379,96860,70,0,P|306:321|282:229,1,140,2|8,3:2|0:3,0:0:0:0:
354,204,97333,1,2,0:0:0:0:
354,204,97412,1,8,0:3:0:0:
354,204,97491,2,0,P|362:158|368:128,1,70,0|0,0:0|3:0,0:0:0:0:
301,93,97807,1,8,0:3:0:0:
253,152,97965,54,0,P|196:143|177:221,1,140,4|2,0:3|3:2,0:0:0:0:
229,261,98439,2,0,P|269:286|257:335,1,105,8|8,0:3|0:3,0:0:0:0:
234,364,98754,2,0,P|251:371|276:380,2,35,8|8|0,0:3|0:3|3:0,0:0:0:0:
161,324,99070,2,0,P|113:334|49:349,1,105,8|8,0:3|0:3,0:0:0:0:
30,368,99386,6,0,P|47:303|55:278,1,70,4|8,3:0|0:3,0:0:0:0:
42,290,99623,1,8,0:3:0:0:
36,280,99702,1,2,0:0:0:0:
73,210,99860,1,4,3:0:0:0:
142,245,100018,2,0,P|172:255|186:258,2,35,8|8|2,0:3|0:3|0:0,0:0:0:0:
179,177,100333,1,4,3:0:0:0:
179,177,100491,70,0,P|225:167|255:159,1,70,2|8,0:0|0:3,0:0:0:0:
281,93,100807,1,4,3:0:0:0:
349,130,100965,2,0,P|341:162|337:186,3,35,2|8|8|8,0:0|0:3|0:3|0:3,0:0:0:0:
314,186,101281,2,0,P|322:212|331:241,3,35,4|8|8|8,3:0|0:3|0:3|0:3,0:0:0:0:
353,239,101596,2,0,P|396:250|400:316,1,105,8|8,0:3|0:3,0:0:0:0:
384,331,101912,6,0,P|330:318|289:308,2,70,4|0|8,3:0|0:0|0:3,0:0:0:0:
443,381,102386,1,4,3:0:0:0:
512,347,102544,2,0,P|503:308|480:211,1,140,2|4,0:0|3:0,0:0:0:0:
510,140,103018,1,0,0:0:0:0:
443,101,103175,70,0,P|405:96|394:131,1,70,2|4,0:0|3:0,0:0:0:0:
385,129,103412,1,8,0:3:0:0:
377,137,103491,1,8,0:3:0:0:
310,101,103649,1,8,0:3:0:0:
345,32,103807,2,0,P|295:17|258:7,1,70,0|0,3:0|3:0,0:0:0:0:
219,64,104123,2,0,P|171:76|110:92,1,105,8|0,0:3|0:0,0:0:0:0:
91,66,104439,22,0,P|88:31|0:2,1,140,4|2,3:0|0:0,0:0:0:0:
16,81,104912,1,0,3:0:0:0:
16,81,105070,2,0,P|28:143|41:223,1,140,8|2,0:3|0:0,0:0:0:0:
9,290,105544,1,0,3:0:0:0:
81,317,105702,6,0,P|91:357|190:362,1,140,2|2,0:0|0:0,0:0:0:0:
242,330,106175,1,2,3:2:0:0:
242,330,106333,2,0,P|232:284|224:251,1,70,8|0,0:3|0:0,0:0:0:0:
165,221,106649,1,0,3:0:0:0:
165,221,106807,1,8,0:3:0:0:
216,164,106965,70,0,P|270:176|360:196,1,140,0|2,3:0|0:0,0:0:0:0:
403,136,107439,1,0,3:0:0:0:
403,136,107596,2,0,P|421:100|511:117,1,140,8|2,0:3|3:2,0:0:0:0:
481,184,108070,1,2,3:2:0:0:
451,256,108228,54,0,P|408:262|302:279,1,140,4|8,3:0|0:3,0:0:0:0:
263,224,108702,1,0,3:0:0:0:
263,224,108860,2,0,P|217:212|175:203,1,70,8|8,0:3|0:3,0:0:0:0:
141,263,109175,1,8,0:3:0:0:
141,263,109333,1,8,0:3:0:0:
203,308,109491,22,0,P|204:358|123:374,1,140,4|2,3:0|0:0,0:0:0:0:
68,338,109965,1,0,3:0:0:0:
68,338,110123,2,0,P|79:283|97:196,1,140,8|2,0:3|0:0,0:0:0:0:
49,141,110596,1,0,3:0:0:0:
0,82,110754,6,0,P|12:37|99:25,1,140,0|2,3:0|0:0,0:0:0:0:
154,80,111228,1,2,3:2:0:0:
154,80,111386,2,0,P|204:69|234:61,1,70,8|0,0:3|0:0,0:0:0:0:
283,15,111702,1,0,3:0:0:0:
283,15,111860,1,8,0:3:0:0:
323,82,112018,70,0,P|365:101|347:193,1,140,0|2,3:0|0:0,0:0:0:0:
291,211,112491,1,0,3:0:0:0:
291,211,112649,2,0,P|281:273|266:355,1,140,8|2,0:3|0:0,0:0:0:0:
343,368,113123,1,0,3:0:0:0:
419,384,113281,70,0,P|463:378|488:295,1,140,4|2,3:0|3:2,0:0:0:0:
440,241,113754,1,4,3:0:0:0:
440,241,113912,2,0,P|389:251|356:257,1,70,2|0,0:0|3:0,0:0:0:0:
326,316,114228,1,8,0:3:0:0:
262,282,114386,37,10,0:3:0:0:
262,282,114465,1,8,0:3:0:0:
262,282,114544,2,0,P|212:293|179:239,1,112,4|0,3:0|3:0,0:0:0:0:
125,198,115018,1,2,0:0:0:0:
125,198,115175,2,0,P|111:152|159:117,1,112,0|0,3:0|3:0,0:0:0:0:
222,84,115649,1,2,0:0:0:0:
257,150,115807,6,0,P|299:160|386:182,1,112,0|2,3:0|3:2,0:0:0:0:
431,142,116281,1,2,0:0:0:0:
431,142,116439,2,0,P|441:98|376:50,1,112,0|0,3:0|3:0,0:0:0:0:
247,8,117070,70,0,P|238:53|225:122,1,112,0|0,3:0|3:0,0:0:0:0:
286,171,117544,1,2,0:0:0:0:
286,171,117702,2,0,P|323:206|319:264,1,112,0|0,3:0|3:0,0:0:0:0:
248,247,118175,1,10,0:3:0:0:
177,230,118333,6,0,P|146:238|138:312,1,112,0|2,3:0|3:2,0:0:0:0:
189,365,118807,1,2,0:0:0:0:
189,365,118965,2,0,P|240:356|316:341,1,112,0|0,3:0|3:0,0:0:0:0:
459,382,119596,38,0,P|469:324|481:264,1,112,0|0,3:0|3:0,0:0:0:0:
438,211,120070,1,2,0:0:0:0:
438,211,120228,2,0,P|390:199|342:248,1,112,0|0,3:0|3:0,0:0:0:0:
301,295,120702,1,2,0:0:0:0:
236,258,120860,6,0,P|227:208|210:129,1,112,0|2,3:0|3:2,0:0:0:0:
268,98,121333,1,2,0:0:0:0:
268,98,121491,2,0,P|251:54|183:54,1,112,0|0,3:0|3:0,0:0:0:0:
129,86,121965,1,8,0:3:0:0:
94,22,122123,1,2,0:0:0:0:
