osu file format v14

[General]
AudioFilename: audio.mp3
AudioLeadIn: 0
PreviewTime: 83912
Countdown: 0
SampleSet: Soft
StackLeniency: 0.7
Mode: 0
LetterboxInBreaks: 0
WidescreenStoryboard: 1

[Editor]
DistanceSpacing: 1
BeatDivisor: 4
GridSize: 32
TimelineZoom: 2.9

[Metadata]
Title:Isso Kono Mama de
TitleUnicode:いっそこのままで
Artist:mifumei (BNSI) feat. Aizawa
ArtistUnicode:ミフメイ (BNSI) feat. 相沢
Creator:KnightC0re
Version:Normal
Source:太鼓の達人
Tags:Yusuke Yuusuke Yamauchi 山内祐介 Taiko no Tatsujin ニジイロVer. Nijiiro Rainbow Version Namco Original ナムコオリジナル rhythm video game Japanese Rock Pop milr_ Nagatoro
BeatmapID:3997306
BeatmapSetID:1794628

[Difficulty]
HPDrainRate:3
CircleSize:3
OverallDifficulty:4
ApproachRate:5
SliderMultiplier:1
SliderTickRate:1

[Events]
//Background and Video events
0,0,"75843264_p0e.png",0,0
//Break Periods
2,19376,20186
2,42113,50502
2,59797,61555
//Storyboard Layer 0 (Background)
//Storyboard Layer 1 (Fail)
//Storyboard Layer 2 (Pass)
//Storyboard Layer 3 (Foreground)
//Storyboard Layer 4 (Overlay)
//Storyboard Sound Samples

[TimingPoints]
1492,315.789473684211,4,2,1,80,1,0
1965,-100,4,2,1,35,0,0
2597,-111.111111111111,4,2,1,35,0,0
3386,-100,4,2,1,80,0,0
4491,-100,4,2,1,35,0,0
6070,-100,4,2,1,80,0,0
6543,-100,4,2,1,35,0,0
7649,-100,4,2,1,80,0,0
8281,-100,4,2,1,35,0,0
8596,-100,4,2,1,80,0,0
11281,-100,4,2,1,45,0,0
11597,-100,4,2,1,55,0,0
18070,-100,4,2,1,65,0,0
18386,-100,4,2,1,75,0,0
19176,-100,4,2,1,25,0,0
21386,-100,4,2,1,65,0,0
21702,-111.111111111111,4,2,1,55,0,0
22017,-111.111111111111,4,2,1,40,0,0
26755,-111.111111111111,4,2,1,55,0,0
27228,-111.111111111111,4,2,1,40,0,0
29439,-111.111111111111,4,2,1,45,0,0
31492,-111.111111111111,4,2,1,70,0,0
31807,-111.111111111111,4,2,1,65,0,0
32123,-111.111111111111,4,2,1,55,0,0
32281,-100,4,2,1,55,0,0
41439,-100,4,2,1,45,0,0
41596,-100,4,2,2,35,0,0
41754,-100,4,2,3,25,0,0
41913,-100,4,2,1,30,0,0
51702,-100,4,2,1,45,0,0
54544,-100,4,2,1,55,0,0
57070,-100,4,2,1,65,0,0
58334,-100,4,2,1,70,0,0
58965,-100,4,2,1,75,0,0
59280,-100,4,2,1,80,0,0
59597,-100,4,2,1,15,0,0
62755,-125,4,2,1,30,0,0
63386,-125,4,2,1,75,0,0
64018,315.789473684211,4,2,1,80,1,0
64333,-90.9090909090909,4,2,1,80,0,0
68439,-90.9090909090909,4,2,1,40,0,0
69070,-90.9090909090909,4,2,1,80,0,0
74122,-90.9090909090909,4,2,1,40,0,0
75070,-90.9090909090909,4,2,1,60,0,0
75386,-90.9090909090909,4,2,1,80,0,0
80438,-90.9090909090909,4,2,3,80,0,0
80596,-90.9090909090909,4,2,1,80,0,0
81702,-90.9090909090909,4,2,1,45,0,0
83596,-90.9090909090909,4,2,1,80,0,0
84228,-90.9090909090909,4,2,1,75,0,1
91807,-90.9090909090909,4,2,1,85,0,1
94333,-90.9090909090909,4,2,1,75,0,1
99386,-90.9090909090909,4,2,1,85,0,1
101596,-90.9090909090909,4,2,2,85,0,1
101754,-90.9090909090909,4,2,3,85,0,1
101912,-90.9090909090909,4,2,1,85,0,1
103807,-90.9090909090909,4,2,1,75,0,1
104439,-100,4,2,1,70,0,0
109017,-100,4,2,2,70,0,0
109175,-100,4,2,3,70,0,0
109491,-100,4,2,1,70,0,0
114544,-100,4,2,1,45,0,0
117070,-100,4,2,1,55,0,0
118965,-100,4,2,1,60,0,0
119596,-100,4,2,1,65,0,0
120228,-100,4,2,1,70,0,0
120860,-100,4,2,1,75,0,0
121175,-100,4,2,1,80,0,0
121332,-100,4,2,1,85,0,0
121806,-100,4,2,1,90,0,0
122123,-100,4,2,1,25,0,0

[Colours]
Combo1 : 255,128,128
Combo2 : 0,128,255
Combo3 : 0,128,192
Combo4 : 128,128,128
Combo5 : 192,192,192
Combo6 : 255,0,0

[HitObjects]
512,93,1492,38,0,P|487:59|424:57,1,100,4|0,3:0|2:0,2:0:0:0:
405,82,1965,1,0,2:0:0:0:
355,7,2281,1,2,2:0:0:0:
272,44,2597,2,0,P|285:91|291:149,2,90.0000000000001,2|0|2,2:0|2:0|2:0,2:0:0:0:
230,25,3386,2,0,B|189:29|189:29|177:43|177:43|125:55,1,100,4|4,3:0|3:0,2:0:0:0:
42,20,4018,5,8,2:3:0:0:
36,17,4176,2,0,P|11:55|17:113,1,100,4|0,3:0|2:0,2:0:0:0:
83,164,4807,1,0,2:0:0:0:
44,245,5123,1,2,2:0:0:0:
309,384,6070,69,8,2:3:0:0:
309,384,6228,2,0,L|415:367,1,100,4|2,3:0|2:0,2:0:0:0:
481,315,6860,2,0,L|486:266,1,50,0|2,2:0|2:0,2:0:0:0:
438,188,7334,1,2,2:0:0:0:
355,224,7649,2,0,L|236:241,1,100,4|0,3:0|2:0,2:0:0:0:
184,293,8281,2,0,P|150:233|171:190,1,100,8|0,2:3|3:0,2:0:0:0:
181,174,8755,22,0,L|167:113,1,50,0|4,3:0|3:0,2:0:0:0:
360,65,9544,1,4,3:0:0:0:
422,256,10176,1,4,3:0:0:0:
231,318,10807,1,4,2:0:0:0:
133,297,11123,1,4,2:0:0:0:
129,302,11281,1,0,3:0:0:0:
32,276,11597,22,0,P|28:217|67:181,1,100,4|0,3:0|3:0,2:0:0:0:
92,189,12070,1,0,3:0:0:0:
169,125,12386,1,2,2:0:0:0:
104,49,12702,2,0,P|56:38|1:17,2,100,0|2|0,3:0|2:0|3:0,2:0:0:0:
196,5,13649,1,2,2:0:0:0:
196,5,13807,1,0,3:0:0:0:
269,73,14123,6,0,P|305:72|342:21,1,100,0|0,3:0|3:0,2:0:0:0:
376,43,14597,1,0,3:0:0:0:
469,7,14913,1,2,2:0:0:0:
511,97,15228,2,0,P|497:132|484:204,1,100,2|0,2:0|3:0,2:0:0:0:
510,290,15860,1,2,2:0:0:0:
424,342,16176,2,0,L|368:327,1,50,2|0,2:0|3:0,2:0:0:0:
289,380,16649,70,0,P|242:345|194:352,1,100,8|2,3:0|3:2,2:0:0:0:
172,374,17123,1,0,3:0:0:0:
111,294,17439,1,2,2:0:0:0:
188,230,17755,2,0,P|237:239|291:240,2,100,10|10|8,2:3|2:3|2:3,2:0:0:0:
143,140,18702,2,0,L|85:155,2,50,10|10|10,2:3|2:3|2:3,2:0:0:0:
165,106,19176,1,0,2:0:0:0:
510,0,21386,21,8,2:3:0:0:
438,54,21702,2,0,P|451:120|428:147,1,90.0000000000001,4|8,3:0|2:3,2:0:0:0:
433,171,22176,2,0,P|390:159|340:155,1,90.0000000000001,0|2,2:0|2:0,2:0:0:0:
272,101,22807,1,2,2:0:0:0:
160,24,23281,1,8,2:3:0:0:
84,73,23597,2,0,P|96:126|102:165,1,90.0000000000001,2|8,2:0|2:3,2:0:0:0:
157,231,24228,6,0,P|118:269|73:267,1,90.0000000000001,0|8,2:0|2:3,2:0:0:0:
50,259,24702,2,0,P|29:310|20:350,1,90.0000000000001,2|0,2:0|2:0,2:0:0:0:
102,382,25334,1,0,2:0:0:0:
177,332,25649,1,2,2:0:0:0:
177,332,25807,1,10,2:3:0:0:
355,305,26439,69,10,2:3:0:0:
437,341,26755,2,0,P|449:284|480:205,2,135,0|2|8,3:0|2:0|2:3,2:0:0:0:
260,374,28334,2,0,P|192:348|198:251,1,180,8|8,2:3|2:3,2:0:0:0:
322,205,29439,6,0,L|375:196,1,45.0000000000001,0|10,2:0|2:3,2:0:0:0:
447,154,29913,1,2,2:0:0:0:
447,154,30070,1,2,2:0:0:0:
505,222,30386,2,0,P|490:264|483:308,2,90.0000000000001,2|0|2,2:0|2:0|2:0,2:0:0:0:
382,280,31492,37,4,3:0:0:0:
296,307,31807,1,4,3:0:0:0:
229,246,32123,1,8,2:3:0:0:
225,242,32281,2,0,P|237:183|256:137,1,100,0|2,2:0|3:2,2:0:0:0:
193,76,32913,2,0,P|264:52|292:31,1,100,2|2,3:2|3:2,2:0:0:0:
310,7,33386,1,8,2:3:0:0:
395,35,33702,2,0,P|399:79|415:135,1,100,2|8,2:0|2:3,2:0:0:0:
490,181,34334,6,0,P|452:202|433:269,1,100,2|8,3:2|2:3,2:0:0:0:
452,287,34807,1,0,2:0:0:0:
492,367,35123,1,2,3:0:0:0:
403,383,35439,2,0,L|292:365,1,100,2|0,3:2|3:0,2:0:0:0:
278,335,35913,1,10,2:3:0:0:
274,331,36070,2,0,B|230:313|230:313|186:354,1,100,0|0,2:0|3:0,2:0:0:0:
160,381,36544,69,10,2:3:0:0:
64,352,36860,2,0,B|38:286|76:270|55:204,1,150,4|0,3:0|2:0,2:0:0:0:
143,102,37807,2,0,P|180:105|222:61,1,100,8|0,2:3|2:0,2:0:0:0:
286,0,38439,1,10,2:3:0:0:
364,44,38755,1,2,2:0:0:0:
340,130,39070,2,0,B|323:196|378:235|433:224|424:204|499:193|544:273|503:326,1,300,8|0,2:3|2:0,2:0:0:0:
344,382,40649,6,0,B|243:361|275:311|163:292,1,200,2|2,2:0|3:0,2:0:0:0:
135,316,41439,2,0,P|145:358|146:374,2,50,4|8|8,3:0|2:3|2:3,2:0:0:0:
95,309,41913,1,4,3:0:0:0:
0,13,51702,21,0,2:0:0:0:
0,13,51860,1,0,3:0:0:0:
0,13,52018,2,0,L|108:0,1,100,4|0,3:0|3:0,2:0:0:0:
169,57,52649,2,0,L|277:44,1,100,0|0,3:0|3:0,2:0:0:0:
357,33,53281,1,0,3:0:0:0:
433,79,53597,2,0,L|504:67,1,50,2|2,3:2|2:0,2:0:0:0:
510,99,53913,2,0,L|488:202,1,100,0|0,2:0|2:0,2:0:0:0:
496,286,54544,54,0,P|444:296|394:262,1,100,0|0,3:0|3:0,2:0:0:0:
357,197,55176,2,0,P|312:175|265:185,1,100,0|0,3:0|3:0,2:0:0:0:
206,254,55807,1,0,3:0:0:0:
142,317,56123,2,0,L|71:329,1,50,2|2,3:2|3:2,2:0:0:0:
57,305,56439,2,0,L|41:199,1,100,0|0,3:0|3:0,2:0:0:0:
0,126,57070,70,0,B|38:94|38:94|88:112,1,100,0|0,3:0|3:0,2:0:0:0:
159,162,57702,2,0,B|206:179|206:179|244:147,1,100,0|0,3:0|3:0,2:0:0:0:
314,89,58334,1,0,3:0:0:0:
396,124,58649,2,0,B|443:141,1,50,2|2,3:2|3:2,2:0:0:0:
482,133,58965,2,0,P|511:172|494:234,1,100,0|0,3:0|3:0,2:0:0:0:
481,254,59439,1,8,2:3:0:0:
481,254,59597,53,0,2:0:0:0:
111,0,62755,54,0,L|135:172,1,160,2|8,2:0|2:3,2:0:0:0:
1,308,64018,21,4,3:0:0:0:
87,375,64333,2,0,P|159:362|163:312,1,110,4|8,3:0|2:3,2:0:0:0:
158,291,64807,1,2,3:0:0:0:
248,227,65123,1,8,2:3:0:0:
248,227,65281,2,0,B|314:241|314:241|324:259|324:259|412:278,2,165,4|4|2,3:0|3:0|3:0,2:0:0:0:
105,145,66702,6,0,B|72:123|72:123|71:49|152:20,1,165,4|2,3:0|3:0,2:0:0:0:
295,74,67649,2,0,B|328:96|328:96|329:170|248:199,1,165,4|2,3:0|3:0,2:0:0:0:
167,223,68439,1,2,2:0:0:0:
322,377,69070,70,0,B|394:368|394:368|404:352|404:352|486:342,1,165,4|2,3:0|3:0,2:0:0:0:
511,181,70018,2,0,L|442:189,1,55,2|0,3:0|3:0,2:0:0:0:
418,164,70333,1,8,2:3:0:0:
415,160,70491,2,0,P|348:202|352:280,1,165,4|8,3:0|2:3,2:0:0:0:
288,371,71281,1,8,2:3:0:0:
284,375,71439,1,0,2:0:0:0:
280,379,71596,6,0,B|216:355|163:361|163:361|149:336|119:322,1,165,6|2,3:0|3:0,2:0:0:0:
65,239,72386,1,8,2:3:0:0:
61,235,72544,2,0,B|55:172|84:130|84:130|118:125|145:99,1,165,6|2,3:0|3:0,2:0:0:0:
212,30,73333,1,8,2:3:0:0:
216,26,73491,2,0,P|268:25|310:69,2,110,6|10|2,3:0|3:0|2:0,2:0:0:0:
1,231,75070,69,6,3:0:0:0:
106,262,75386,2,0,P|144:307|131:361,1,110,6|8,3:0|2:3,2:0:0:0:
173,377,75860,2,0,B|187:351|226:341|226:341|270:363|332:336,1,165,6|10,3:0|2:3,2:0:0:0:
398,261,76649,1,8,2:3:0:0:
398,261,76807,2,0,B|392:218|411:183|411:183|362:182|332:141,1,165,4|2,3:0|3:0,2:0:0:0:
360,39,77596,1,8,2:3:0:0:
252,15,77912,2,0,B|191:-5|143:41|143:41|186:82|173:141,1,220,4|2,2:3|3:2,2:0:0:0:
113,227,78860,1,8,2:3:0:0:
113,227,79018,1,8,2:3:0:0:
113,227,79175,6,0,B|135:246|163:248|163:248|201:291|195:348|195:348|256:352|294:305|294:305|289:248|349:189|422:223,1,440,6|8,3:0|2:3,2:0:0:0:
430,251,80596,1,12,2:3:0:0:
510,106,81070,2,0,P|501:54|459:4,1,110,2|10,2:0|2:3,2:0:0:0:
356,0,81702,5,4,3:0:0:0:
256,192,81860,12,2,83596,3:0:0:0:
0,45,84228,6,0,P|47:37|106:90,1,110,4|8,3:0|2:3,2:0:0:0:
96,114,84702,1,2,2:0:0:0:
198,152,85018,1,2,3:0:0:0:
147,248,85333,2,0,B|138:262|138:281|138:281|173:292|192:332,1,110,2|0,3:2|3:0,2:0:0:0:
196,375,85807,1,8,2:3:0:0:
306,376,86123,2,0,P|342:344|345:279,1,110,0|8,2:0|2:3,2:0:0:0:
301,186,86754,70,0,B|370:195|370:195|396:185|396:185|476:193,2,165,2|2|10,2:0|2:0|2:3,2:0:0:0:
215,116,88018,1,4,3:0:0:0:
211,112,88175,1,2,3:0:0:0:
359,38,88649,2,0,L|435:31,1,55,2|2,2:0|3:0,2:0:0:0:
448,5,88965,5,10,2:3:0:0:
509,96,89281,2,0,P|476:114|453:189,1,110,4|8,3:0|2:3,2:0:0:0:
461,223,89754,1,0,2:0:0:0:
501,325,90070,1,2,3:0:0:0:
406,380,90386,2,0,B|387:371|379:354|379:354|352:381|310:376,1,110,2|0,3:2|3:0,2:0:0:0:
272,357,90860,1,8,2:3:0:0:
183,291,91175,2,0,P|130:296|87:338,1,110,2|8,2:0|2:3,2:0:0:0:
1,267,91807,38,0,B|15:239|15:239|-3:144,1,110,6|8,3:0|2:3,2:0:0:0:
22,123,92281,1,6,3:0:0:0:
175,63,92754,2,0,B|195:94|195:94|173:174,1,110,6|8,3:0|2:3,2:0:0:0:
200,201,93228,1,6,3:0:0:0:
352,263,93702,1,8,2:3:0:0:
454,222,94018,1,10,2:3:0:0:
471,113,94333,22,0,P|421:104|390:42,1,110,4|8,3:0|2:3,2:0:0:0:
409,16,94807,1,0,3:0:0:0:
299,0,95123,1,2,3:0:0:0:
225,81,95439,2,0,B|219:104|219:104|226:142|264:183,1,110,0|0,3:0|3:0,2:0:0:0:
285,214,95912,1,10,2:3:0:0:
237,313,96228,2,0,P|186:330|136:361,1,110,2|8,3:0|2:3,2:0:0:0:
37,315,96860,6,0,P|7:252|70:181,2,165,2|2|8,3:2|2:0|2:3,2:0:0:0:
140,352,98123,1,0,3:0:0:0:
144,348,98281,1,6,3:0:0:0:
384,215,99070,53,8,2:3:0:0:
486,256,99386,2,0,B|501:280|501:280|473:363,1,110,4|2,3:0|2:0,2:0:0:0:
440,384,99860,2,0,P|385:363|325:360,1,110,4|2,3:0|2:0,2:0:0:0:
245,294,100491,2,0,B|235:287|235:267|235:267|272:240|266:182,1,110,6|0,3:0|3:0,2:0:0:0:
241,160,100965,1,2,2:0:0:0:
148,100,101281,1,4,3:0:0:0:
51,151,101596,1,8,2:3:0:0:
47,155,101754,1,8,2:3:0:0:
43,159,101912,70,0,B|55:207|55:207|62:210|62:210|79:283,1,110,4|8,3:0|2:3,2:0:0:0:
113,364,102544,2,0,B|148:329|148:329|147:321|147:321|202:269,1,110,4|0,2:3|3:0,2:0:0:0:
175,175,103175,2,0,B|225:189|225:189|231:185|231:185|279:198,1,110,4|8,2:3|2:3,2:0:0:0:
380,153,103807,2,0,P|407:139|423:120,1,55,0|0,3:0|3:0,2:0:0:0:
436,78,104123,1,8,2:3:0:0:
365,6,104439,22,0,P|301:43|215:38,1,150,4|0,3:0|3:0,2:0:0:0:
187,35,105070,2,0,P|144:98|173:167,1,150,8|0,2:3|3:0,2:0:0:0:
201,183,105702,1,2,2:0:0:0:
136,259,106018,1,2,2:0:0:0:
132,263,106175,2,0,L|73:274,1,50,2|0,3:2|2:0,2:0:0:0:
138,355,106649,2,0,L|197:344,1,50,0|8,3:0|2:3,2:0:0:0:
223,363,106965,6,0,P|279:309|351:319,1,150,2|0,3:0|3:0,2:0:0:0:
374,344,107596,2,0,P|424:304|407:214,1,150,8|2,2:3|3:2,2:0:0:0:
382,202,108228,1,6,3:0:0:0:
280,159,108544,2,0,L|212:169,1,50,8|0,2:3|3:0,2:0:0:0:
191,197,108860,2,0,L|181:265,2,50,8|8|8,2:3|2:3|2:3,2:0:0:0:
142,109,109491,70,0,P|186:46|259:72,1,150,4|0,3:0|3:0,2:0:0:0:
275,91,110123,2,0,P|326:139|390:110,1,150,8|0,2:3|3:0,2:0:0:0:
405,73,110754,1,2,3:0:0:0:
473,146,111070,2,0,L|462:207,1,50,2|0,2:0|3:0,2:0:0:0:
489,226,111386,1,8,2:3:0:0:
418,296,111702,2,0,L|429:357,1,50,0|8,3:0|2:3,2:0:0:0:
400,375,112018,6,0,B|323:346|340:400|252:370,1,150,4|0,3:0|3:0,2:0:0:0:
215,381,112649,2,0,B|163:318|150:373|89:302,1,150,8|0,2:3|3:0,2:0:0:0:
53,288,113281,1,4,3:0:0:0:
104,204,113596,1,2,3:2:0:0:
104,204,113754,1,4,3:0:0:0:
9,87,114228,2,0,L|24:21,1,50,8|10,2:3|2:3,2:0:0:0:
50,11,114544,6,0,L|161:29,1,100,4|0,3:0|3:0,2:0:0:0:
184,56,115018,1,0,2:0:0:0:
184,56,115175,2,0,L|202:167,1,100,0|0,3:0|3:0,2:0:0:0:
160,236,115807,1,0,3:0:0:0:
73,211,116123,2,0,L|17:221,1,50,2|2,3:2|2:0,2:0:0:0:
0,252,116439,2,0,L|18:363,1,100,0|0,3:0|2:0,2:0:0:0:
100,382,117070,54,0,P|154:373|191:335,1,100,0|0,3:0|3:0,2:0:0:0:
202,306,117544,1,0,2:0:0:0:
206,302,117702,2,0,P|190:248|209:198,1,100,0|0,3:0|3:0,2:0:0:0:
267,144,118333,1,0,3:0:0:0:
359,183,118649,1,2,3:2:0:0:
359,183,118807,1,2,2:0:0:0:
359,183,118965,2,0,B|416:175|393:201|456:193,1,100,0|0,3:0|3:0,2:0:0:0:
511,121,119596,54,0,B|521:72|521:72|486:37,1,100,0|0,3:0|3:0,2:0:0:0:
452,13,120070,1,2,2:0:0:0:
448,9,120228,2,0,B|413:44|413:44|364:34,1,100,0|0,3:0|3:0,2:0:0:0:
326,49,120702,1,2,2:0:0:0:
322,53,120860,1,0,3:0:0:0:
260,118,121175,2,0,L|273:181,1,50,2|2,3:2|2:0,2:0:0:0:
301,192,121491,2,0,P|272:243|287:290,1,100,0|0,3:0|3:0,2:0:0:0:
316,309,121965,1,8,2:3:0:0:
316,309,122123,69,2,2:0:0:0:
