osu file format v14

[General]
AudioFilename: audio.mp3
AudioLeadIn: 0
PreviewTime: 83912
Countdown: 0
SampleSet: Soft
StackLeniency: 0
Mode: 0
LetterboxInBreaks: 0
WidescreenStoryboard: 1

[Editor]
Bookmarks: 48701
DistanceSpacing: 1
BeatDivisor: 4
GridSize: 4
TimelineZoom: 2.9

[Metadata]
Title:Isso Kono Mama de
TitleUnicode:いっそこのままで
Artist:mifumei (BNSI) feat. Aizawa
ArtistUnicode:ミフメイ (BNSI) feat. 相沢
Creator:KnightC0re
Version:Nagatoro's Insane
Source:太鼓の達人
Tags:Yusuke Yuusuke Yamauchi 山内祐介 Taiko no Tatsujin ニジイロVer. Nijiiro Rainbow Version Namco Original ナムコオリジナル rhythm video game Japanese Rock Pop milr_ Nagatoro
BeatmapID:4011546
BeatmapSetID:1794628

[Difficulty]
HPDrainRate:4.5
CircleSize:3.4
OverallDifficulty:8
ApproachRate:9
SliderMultiplier:1.8
SliderTickRate:1

[Events]
//Background and Video events
0,0,"75843264_p0e.png",0,0
//Break Periods
//Storyboard Layer 0 (Background)
//Storyboard Layer 1 (Fail)
//Storyboard Layer 2 (Pass)
//Storyboard Layer 3 (Foreground)
//Storyboard Layer 4 (Overlay)
//Storyboard Sound Samples

[TimingPoints]
1492,315.789473684211,4,2,1,80,1,0
1492,-66.6666666666667,4,2,1,80,0,0
1965,-100,4,2,1,35,0,0
2280,-133.333333333333,4,2,1,35,0,0
3386,-66.6666666666667,4,2,1,80,0,0
3701,-100,4,2,1,80,0,0
3859,-133.333333333333,4,2,1,80,0,0
4175,-66.6666666666667,4,2,1,80,0,0
4492,-66.6666666666667,4,2,1,35,0,0
5123,-133.333333333333,4,2,1,35,0,0
6070,-100,4,2,1,80,0,0
6228,-100,4,2,1,80,0,0
6543,-66.6666666666667,4,2,1,80,0,0
6544,-100,4,2,1,35,0,0
7017,-66.6666666666667,4,2,1,35,0,0
7649,-58.8235294117647,4,2,1,80,0,0
7964,-133.333333333333,4,2,1,80,0,0
8123,-133.333333333333,4,2,1,35,0,0
8280,-66.6666666666667,4,2,1,35,0,0
8360,-66.6666666666667,4,2,1,80,0,0
10492,-66.6666666666667,4,2,2,80,0,0
10570,-66.6666666666667,4,2,1,80,0,0
11281,-66.6666666666667,4,2,1,45,0,0
11596,-83.3333333333333,4,2,1,45,0,0
11597,-83.3333333333333,4,2,1,55,0,0
18070,-83.3333333333333,4,2,1,65,0,0
18386,-83.3333333333333,4,2,1,75,0,0
19175,-250,4,2,1,75,0,0
19176,-250,4,2,1,25,0,0
21228,-250,4,2,1,65,0,0
21701,-133.333333333333,4,2,1,65,0,0
21702,-133.333333333333,4,2,1,55,0,0
22018,-133.333333333333,4,2,1,40,0,0
26755,-133.333333333333,4,2,1,55,0,0
27070,-133.333333333333,4,2,1,40,0,0
29439,-133.333333333333,4,2,1,45,0,0
31492,-133.333333333333,4,2,1,70,0,0
31807,-100,4,2,1,65,0,0
32123,-100,4,2,1,55,0,0
34886,-100,4,2,1,65,0,0
34965,-100,4,2,1,75,0,0
35044,-100,4,2,1,65,0,0
35123,-100,4,2,1,55,0,0
35912,-66.6666666666667,4,2,1,55,0,0
36543,-100,4,2,1,55,0,0
41439,-100,4,2,1,45,0,0
41597,-100,4,2,2,35,0,0
41755,-100,4,2,3,25,0,0
41912,-133.333333333333,4,2,3,25,0,0
41913,-133.333333333333,4,2,1,30,0,0
46492,-133.333333333333,4,2,1,45,0,0
46965,-133.333333333333,4,2,1,30,0,0
51228,-100,4,2,1,30,0,0
51543,-133.333333333333,4,2,1,30,0,0
51544,-133.333333333333,4,2,1,45,0,0
54544,-133.333333333333,4,2,1,55,0,0
57070,-133.333333333333,4,2,1,65,0,0
58334,-133.333333333333,4,2,1,70,0,0
58965,-133.333333333333,4,2,1,75,0,0
59281,-133.333333333333,4,2,1,80,0,0
59596,-200,4,2,1,80,0,0
59597,-200,4,2,1,15,0,0
61333,-1000,4,2,1,15,0,0
62755,-1000,4,2,1,30,0,0
63386,-66.6666666666667,4,2,1,75,0,0
64018,315.789473684211,4,2,1,80,1,0
64018,-62.5,4,2,1,80,0,0
68439,-125,4,2,1,40,0,0
69070,-62.5,4,2,1,80,0,0
70649,-100,4,2,2,80,0,0
70807,-100,4,2,3,80,0,0
70965,-62.5,4,2,1,80,0,0
74123,-100,4,2,1,40,0,0
75070,-62.5,4,2,1,60,0,0
75386,-62.5,4,2,1,80,0,0
80281,-62.5,4,2,2,80,0,0
80439,-62.5,4,2,3,80,0,0
80596,-62.5,4,2,1,80,0,0
81702,-133.333333333333,4,2,1,45,0,0
82175,-133.333333333333,4,2,1,50,0,0
82649,-133.333333333333,4,2,1,55,0,0
83123,-133.333333333333,4,2,1,60,0,0
83596,-133.333333333333,4,2,1,80,0,0
83754,-133.333333333333,4,2,1,65,0,0
83912,-133.333333333333,4,2,1,50,0,0
84228,-83.3333333333333,4,2,1,75,0,1
91807,-83.3333333333333,4,2,1,85,0,1
94333,-83.3333333333333,4,2,1,75,0,1
99386,-83.3333333333333,4,2,1,85,0,1
101596,-83.3333333333333,4,2,2,85,0,1
101754,-83.3333333333333,4,2,3,85,0,1
101912,-83.3333333333333,4,2,1,85,0,1
103807,-83.3333333333333,4,2,1,75,0,1
104439,-100,4,2,1,70,0,0
109018,-100,4,2,2,70,0,0
109175,-100,4,2,3,70,0,0
109333,-100,4,2,1,70,0,0
114544,-100,4,2,1,45,0,0
117070,-100,4,2,1,55,0,0
118965,-100,4,2,1,60,0,0
119596,-100,4,2,1,65,0,0
120228,-100,4,2,1,70,0,0
120860,-100,4,2,1,75,0,0
121175,-100,4,2,1,80,0,0
121333,-100,4,2,1,85,0,0
121807,-100,4,2,1,90,0,0
122123,-250,4,2,1,25,0,0

[Colours]
Combo1 : 255,128,128
Combo2 : 0,128,255
Combo3 : 0,128,192
Combo4 : 128,128,128
Combo5 : 192,192,192
Combo6 : 255,0,0

[HitObjects]
488,288,1492,70,0,B|502:329|474:364|427:378|382:347|381:302|381:302|382:257|353:227|301:219|256:257|255:298|271:329,1,405.000015449525,4|0,3:0|0:0,0:0:0:0:
271,328,2280,2,0,P|304:321|337:316,1,67.5000025749208,2|0,0:0|0:0,0:0:0:0:
490,202,2597,70,0,B|472:137|472:137|426:190,1,135.000005149842,2|0,0:0|0:0,0:0:0:0:
343,92,3070,2,0,B|354:59|354:59|375:85,1,67.5000025749208,2|2,0:0|0:0,0:0:0:0:
336,208,3386,22,0,B|288:216|288:216|272:244|272:244|218:252,1,135.000005149842,4|0,3:0|0:0,0:0:0:0:
204,140,3701,1,4,3:0:0:0:
208,124,3859,1,0,0:0:0:0:
132,224,4017,69,8,0:3:0:0:
104,132,4175,2,0,P|43:152|36:215,1,135.000005149842,4|0,3:0|0:0,0:0:0:0:
200,276,4491,53,0,0:0:0:0:
204,268,4570,1,2,0:0:0:0:
208,260,4649,1,2,0:0:0:0:
264,196,4807,1,0,0:0:0:0:
296,288,4965,1,0,0:0:0:0:
357,218,5123,6,0,B|393:189|453:209|425:241|477:265|517:249|517:249|525:149|435:133,1,337.500012874604,2|0,0:0|0:0,0:0:0:0:
344,84,6070,6,0,L|300:75,1,45,8|0,0:3|0:0,0:0:0:0:
416,0,6228,2,0,P|425:67|435:134,1,135,4|0,3:0|0:0,0:0:0:0:
357,218,6544,70,0,B|341:237|311:239|292:218|293:195|293:195|293:170|271:149|242:154|229:172,1,180,2|0,0:0|0:0,0:0:0:0:
146,232,7017,1,2,0:0:0:0:
150,244,7175,1,0,0:0:0:0:
45,203,7333,2,0,B|27:185|42:169|34:136|34:136|68:168|52:196,1,135.000005149842,2|8,0:0|0:3,0:0:0:0:
176,352,7649,22,0,P|250:329|323:308,1,153.000002918243,4|0,3:0|0:0,0:0:0:0:
412,260,7964,2,0,P|444:268|477:275,1,67.5000025749208,0|2,0:0|0:0,0:0:0:0:
288,172,8280,53,0,3:0:0:0:
276,176,8359,1,8,0:3:0:0:
267,184,8438,2,0,P|292:245|321:306,1,135.000005149842,8|0,0:3|3:0,0:0:0:0:
412,364,8754,1,0,3:0:0:0:
420,376,8912,1,4,3:0:0:0:
477,214,9070,6,0,B|409:230|409:230|389:290|389:290|321:307,1,202.500007724762
312,320,9386,2,0,L|244:312,1,67.5000025749208,8|0,0:3|0:0,0:0:0:0:
168,224,9543,6,0,B|100:206|100:206|80:146|80:146|12:130,1,202.500007724762,4|0,3:0|0:0,0:0:0:0:
164,140,9859,2,0,B|195:120|206:89|206:89|199:120|215:154,1,135.000005149842,0|8,0:0|0:3,0:0:0:0:
232,276,10175,70,0,B|242:296|246:317|246:317|354:285|354:285|345:265|343:241,1,202.500007724762,4|0,3:0|0:0,0:0:0:0:
372,152,10491,1,8,0:3:0:0:
376,140,10570,1,8,0:3:0:0:
380,128,10649,1,8,0:3:0:0:
436,304,10807,6,0,L|443:372,1,67.5000025749208,4|0,0:0|0:0,0:0:0:0:
493,144,11122,2,0,L|486:76,1,67.5000025749208,4|0,0:0|0:0,0:0:0:0:
424,224,11280,38,0,B|336:255|328:197|226:247,1,202.500007724762,0|0,3:0|0:0,0:0:0:0:
216,336,11596,54,0,P|142:324|140:249,1,161.999995056153,4|0,3:0|0:0,0:0:0:0:
64,228,11912,2,0,P|50:175|46:121,1,107.999996704102,0|0,3:0|0:0,0:0:0:0:
168,8,12228,1,0,3:0:0:0:
208,132,12386,2,0,P|259:121|284:75,1,107.999996704102,2|0,0:0|3:0,0:0:0:0:
104,64,12701,6,0,P|52:79|0:93,1,107.999996704102,0|0,0:0|3:0,0:0:0:0:
163,210,13017,2,0,P|112:225|59:239,1,107.999996704102,2|0,0:0|3:0,0:0:0:0:
312,228,13333,69,0,0:0:0:0:
300,232,13412,1,0,0:0:0:0:
288,240,13491,2,0,B|261:251|248:274|248:274|257:298|254:329,1,107.999996704102,0|0,3:0|0:0,0:0:0:0:
172,312,13807,1,0,3:0:0:0:
160,308,13964,1,2,0:0:0:0:
328,360,14122,6,0,B|402:388|403:312|481:338,1,161.999995056153,0|0,3:0|0:0,0:0:0:0:
508,264,14438,2,0,P|494:211|490:158,1,107.999996704102,0|0,3:0|0:0,0:0:0:0:
412,24,14754,1,0,3:0:0:0:
384,144,14912,2,0,P|331:145|296:106,1,107.999996704102,2|0,0:0|3:0,0:0:0:0:
184,32,15228,69,0,0:0:0:0:
180,24,15307,1,0,0:0:0:0:
189,28,15386,1,0,3:0:0:0:
152,120,15543,1,2,0:0:0:0:
268,44,15701,1,0,3:0:0:0:
96,4,15859,6,0,P|22:27|4:103,1,161.999995056153,2|0,0:0|0:0,0:0:0:0:
8,179,16175,2,0,P|34:179|61:184,1,53.9999983520508,2|0,0:0|0:0,0:0:0:0:
144,232,16333,1,0,3:0:0:0:
252,152,16491,69,8,0:3:0:0:
256,140,16570,1,8,0:3:0:0:
259,128,16649,2,0,P|312:185|290:259,1,161.999995056153,0|0,3:0|0:0,0:0:0:0:
284,336,16964,1,0,3:0:0:0:
184,324,17122,2,0,P|130:332|77:343,1,107.999996704102,2|0,0:0|3:0,0:0:0:0:
16,252,17438,5,2,0:0:0:0:
12,244,17517,1,0,0:0:0:0:
8,236,17596,1,0,3:0:0:0:
116,168,17754,1,8,0:3:0:0:
112,176,17833,1,8,0:3:0:0:
108,184,17912,1,0,3:0:0:0:
216,208,18070,2,0,L|268:193,2,53.9999983520508,8|8|0,0:3|0:3|3:0,0:0:0:0:
320,256,18386,2,0,L|372:270,2,53.9999983520508,8|8|0,0:3|0:3|3:0,0:0:0:0:
468,248,18701,37,10,0:3:0:0:
472,236,18780,1,8,0:3:0:0:
476,224,18859,2,0,L|490:171,1,53.9999983520508,10|8,0:3|0:3,0:0:0:0:
412,128,19017,2,0,L|397:75,1,53.9999983520508,10|8,0:3|0:3,0:0:0:0:
512,20,19175,70,0,P|498:53|486:87,1,72
340,160,19649,1,2,0:0:0:0:
335,168,19807,2,0,P|343:184|348:201,1,36
440,232,20122,1,2,0:0:0:0:
445,240,20281,2,0,P|436:256|431:273,1,36
356,316,20596,1,2,0:0:0:0:
351,324,20754,2,0,P|359:340|364:357,1,36
184,260,21228,5,0,3:0:0:0:
176,260,21307,1,0,3:0:0:0:
168,260,21386,2,0,L|114:269,1,54,8|0,0:3|0:0,0:0:0:0:
47,325,21701,54,0,P|31:295|28:261,1,67.5000025749208,4|0,3:0|3:0,0:0:0:0:
60,108,22017,1,8,0:3:0:0:
76,188,22175,2,0,P|42:186|11:173,1,67.5000025749208
140,132,22491,2,0,P|173:133|204:146,1,67.5000025749208,2|8,0:0|0:3,0:0:0:0:
228,232,22807,6,0,P|233:164|244:98,1,135.000005149842,2|2,0:0|0:0,0:0:0:0:
303,34,23280,2,0,P|335:41|369:45,1,67.5000025749208,8|0,0:3|0:0,0:0:0:0:
364,144,23596,2,0,P|396:136|430:132,1,67.5000025749208,2|0,0:0|0:0,0:0:0:0:
316,232,23912,2,0,P|348:239|382:243,1,67.5000025749208,8|0,0:3|0:0,0:0:0:0:
512,284,24228,70,0,P|462:292|421:320,1,101.250003862381
356,360,24543,1,8,0:3:0:0:
340,368,24701,2,0,P|307:376|273:372,1,67.5000025749208,2|0,0:0|0:0,0:0:0:0:
192,316,25017,2,0,P|186:282|181:249,1,67.5000025749208,0|8,0:0|0:3,0:0:0:0:
0,148,25333,6,0,P|65:154|104:206,1,135.000005149842,0|2,0:0|0:0,0:0:0:0:
68,284,25807,2,0,P|36:274|17:247,1,67.5000025749208,10|0,0:3|0:0,0:0:0:0:
174,160,26122,1,0,0:0:0:0:
186,156,26280,1,0,0:0:0:0:
244,104,26438,2,0,P|277:109|310:114,1,67.5000025749208,10|0,0:3|0:0,0:0:0:0:
376,212,26754,69,0,3:0:0:0:
432,148,26912,2,0,P|465:148|495:163,1,67.5000025749208,0|8,3:0|0:3,0:0:0:0:
396,296,27228,2,0,P|346:291|306:261,1,101.250003862381,2|0,0:0|0:0,0:0:0:0:
288,260,27543,2,0,P|278:246|271:230,1,33.7500012874604
164,144,27701,5,8,0:3:0:0:
216,82,27859,2,0,P|202:148|196:215,1,135.000005149842,2|2,0:0|0:0,0:0:0:0:
180,308,28333,69,8,0:3:0:0:
184,324,28491,1,0,0:0:0:0:
104,248,28649,1,0,0:0:0:0:
92,348,28807,1,0,0:0:0:0:
12,280,28964,2,0,P|5:213|28:150,1,135.000005149842,8|0,0:3|0:0,0:0:0:0:
128,84,29438,53,0,0:0:0:0:
136,88,29517,1,2,0:0:0:0:
144,92,29596,1,10,0:3:0:0:
212,136,29754,1,0,0:0:0:0:
280,100,29912,1,2,0:0:0:0:
328,144,30070,1,2,0:0:0:0:
466,106,30228,5,8,0:3:0:0:
408,60,30386,2,0,P|422:90|431:123,1,67.5000025749208,2|0,0:0|0:0,0:0:0:0:
360,264,30701,2,0,P|374:233|383:200,1,67.5000025749208,2|8,0:0|0:3,0:0:0:0:
256,36,31017,2,0,P|270:66|279:99,1,67.5000025749208,2|2,0:0|3:2,0:0:0:0:
212,244,31333,1,0,0:0:0:0:
96,112,31491,1,4,3:0:0:0:
32,244,31649,69,0,0:0:0:0:
36,256,31728,1,8,0:3:0:0:
44,264,31807,2,0,P|87:260|118:227,1,90,4|0,3:0|0:0,0:0:0:0:
172,136,32122,1,8,0:3:0:0:
32,64,32280,2,0,P|49:105|62:148,1,90,2|0,0:0|3:0,0:0:0:0:
193,284,32596,2,0,P|205:240|223:199,1,90,2|8,3:2|0:3,0:0:0:0:
348,112,32913,6,0,B|457:121|399:178|486:212,1,180,2|2,3:2|3:2,0:0:0:0:
496,112,33386,2,0,P|484:68|479:23,1,90,8|0,0:3|0:0,0:0:0:0:
456,8,33622,1,2,0:0:0:0:
452,0,33701,1,2,0:0:0:0:
304,20,33859,1,0,3:0:0:0:
308,28,33938,1,0,3:0:0:0:
312,36,34017,2,0,P|333:99|321:165,1,135,8|0,0:3|0:0,0:0:0:0:
268,220,34333,70,0,P|201:233|138:256,1,135,2|0,3:2|0:0,0:0:0:0:
103,343,34649,2,0,P|64:320|46:280,1,90,8|0,0:3|0:0,0:0:0:0:
4,212,34886,1,2,0:0:0:0:
4,204,34964,1,2,0:0:0:0:
112,152,35122,1,0,3:0:0:0:
8,104,35280,1,8,0:3:0:0:
112,236,35438,6,0,B|154:254|154:254|171:213,1,90,2|0,3:2|0:0,0:0:0:0:
260,116,35754,1,0,3:0:0:0:
184,40,35912,2,0,B|152:14|152:14|181:103,1,135,10|0,0:3|0:0,0:0:0:0:
244,192,36228,69,0,3:0:0:0:
320,240,36386,1,0,3:0:0:0:
344,156,36543,2,0,P|387:150|426:172,1,90,10|0,0:3|0:0,0:0:0:0:
488,224,36780,5,8,0:3:0:0:
492,232,36859,2,0,P|489:276|483:321,1,90,4|0,3:0|0:0,0:0:0:0:
496,132,37175,1,8,0:3:0:0:
400,292,37333,2,0,B|310:327|311:251|226:305,1,180,0|0,0:0|3:0,0:0:0:0:
352,220,37807,1,10,0:3:0:0:
180,368,37964,2,0,P|99:352|109:270,1,180,0|0,3:0|3:0,0:0:0:0:
235,127,38438,70,0,P|210:165|199:209,1,90,10|0,0:3|0:0,0:0:0:0:
74,181,38675,1,8,0:3:0:0:
74,189,38754,2,0,P|98:226|109:270,1,90,2|0,0:0|3:0,0:0:0:0:
227,303,39070,1,10,0:3:0:0:
235,315,39228,1,0,0:0:0:0:
344,256,39386,6,0,B|410:268|410:268|434:307|434:307|498:319,1,180,0|8,3:0|0:3,0:0:0:0:
480,216,39859,1,0,0:0:0:0:
476,208,39938,1,2,0:0:0:0:
472,200,40017,2,0,P|464:155|465:110,1,90,0|0,0:0|3:0,0:0:0:0:
388,24,40333,1,8,0:3:0:0:
384,32,40412,1,2,0:0:0:0:
380,40,40491,1,0,3:0:0:0:
296,136,40649,70,0,P|251:137|216:110,1,90,2|0,0:0|3:0,0:0:0:0:
68,52,40964,1,12,0:3:0:0:
144,8,41122,1,2,0:0:0:0:
151,16,41201,1,8,0:3:0:0:
153,29,41280,2,0,P|144:73|135:117,1,90,0|4,3:0|3:0,0:0:0:0:
164,208,41596,1,8,0:3:0:0:
72,168,41754,1,8,0:3:0:0:
204,292,41912,38,0,P|250:245|251:179,1,135.000005149842,4|0,3:0|0:0,0:0:0:0:
188,120,42386,1,0,0:0:0:0:
180,108,42543,2,0,P|115:124|48:131,1,135.000005149842,2|0,0:0|0:0,0:0:0:0:
11,208,43017,69,0,0:0:0:0:
8,220,43175,2,0,P|41:229|68:249,1,67.5000025749208,2|0,0:0|0:0,0:0:0:0:
132,336,43491,1,0,0:0:0:0:
224,304,43649,2,0,B|286:339|294:284|352:324,1,135.000005149842,2|0,0:0|0:0,0:0:0:0:
428,368,44122,2,0,P|460:362|482:337,1,67.5000025749208
496,196,44438,6,0,P|430:209|375:247,1,135.000005149842,2|0,0:0|0:0,0:0:0:0:
312,324,44912,1,0,0:0:0:0:
308,336,45070,2,0,P|297:269|277:205,1,135.000005149842,2|0,0:0|0:0,0:0:0:0:
116,180,45543,69,0,0:0:0:0:
120,188,45622,1,0,0:0:0:0:
128,196,45701,2,0,P|161:194|192:181,1,67.5000025749208,2|0,0:0|0:0,0:0:0:0:
260,112,46017,1,0,0:0:0:0:
352,156,46175,2,0,P|386:161|419:169,1,67.5000025749208,2|0,0:0|0:0,0:0:0:0:
480,60,46491,53,0,3:0:0:0:
472,56,46570,2,0,B|398:67|398:67|410:72|420:80,1,101.250003862381,0|0,0:0|3:0,0:0:0:0:
492,140,46964,22,0,P|459:198|446:264,1,135.000005149842,2|0,0:0|0:0,0:0:0:0:
480,360,47438,1,0,0:0:0:0:
484,376,47596,2,0,P|425:343|359:330,1,135.000005149842,2|0,0:0|0:0,0:0:0:0:
232,368,48070,5,0,0:0:0:0:
240,364,48149,1,0,0:0:0:0:
248,360,48228,2,0,P|259:328|259:294,1,67.5000025749208,2|0,0:0|0:0,0:0:0:0:
196,224,48543,1,0,0:0:0:0:
112,272,48701,2,0,P|78:265|45:260,1,67.5000025749208,2|0,0:0|0:0,0:0:0:0:
8,172,49017,1,0,0:0:0:0:
4,156,49175,1,0,0:0:0:0:
76,52,49333,69,0,0:0:0:0:
96,44,49412,1,0,0:0:0:0:
116,48,49491,2,0,B|83:105|136:113|111:178,1,135.000005149842,2|0,0:0|0:0,0:0:0:0:
208,68,49964,1,0,0:0:0:0:
220,64,50122,2,0,P|284:70|317:126,1,135.000005149842,2|0,0:0|0:0,0:0:0:0:
368,211,50596,5,0,0:0:0:0:
376,224,50754,2,0,P|408:216|442:209,1,67.5000025749208,2|0,0:0|0:0,0:0:0:0:
472,132,51070,1,0,0:0:0:0:
284,196,51228,2,0,B|248:176|236:204|196:185,1,90,2|0,0:0|0:0,0:0:0:0:
79,157,51543,53,0,3:0:0:0:
71,161,51622,1,0,0:0:0:0:
63,165,51701,2,0,B|88:188|88:188|117:173,1,67.5000025749208,0|0,0:0|3:0,0:0:0:0:
220,72,52017,70,0,L|215:38,3,33.7500012874604,4|0|0|0,3:0|0:0|0:0|3:0,0:0:0:0:
128,64,52333,2,0,L|123:30,3,33.7500012874604,0|0|0|0,3:0|0:0|0:0|3:0,0:0:0:0:
236,164,52649,2,0,L|241:198,3,33.7500012874604,0|0|0|0,3:0|0:0|0:0|0:0,0:0:0:0:
328,172,52965,2,0,L|333:206,3,33.7500012874604,0|0|0|8,3:0|0:0|0:0|0:3,0:0:0:0:
403,73,53281,6,0,L|408:39,3,33.7500012874604,0|0|0|0,3:0|0:0|0:0|0:0,0:0:0:0:
499,31,53597,2,0,L|494:65,1,33.7500012874604,2|0,3:2|0:0,0:0:0:0:
482,87,53755,2,0,L|477:121,1,33.7500012874604,2|0,0:0|0:0,0:0:0:0:
420,204,53913,2,0,L|454:199,3,33.7500012874604,0|0|0|0,3:0|0:0|0:0|0:0,0:0:0:0:
496,272,54228,2,0,L|462:277,3,33.7500012874604,0|0|0|0,3:0|0:0|3:0|0:0,0:0:0:0:
352,276,54543,70,0,L|357:310,3,33.7500012874604,0|0|0|0,3:0|0:0|0:0|0:0,0:0:0:0:
256,272,54859,2,0,L|261:306,3,33.7500012874604,0|0|0|0,3:0|0:0|3:0|0:0,0:0:0:0:
156,208,55175,2,0,L|151:174,3,33.7500012874604,0|0|0|0,3:0|0:0|0:0|0:0,0:0:0:0:
248,184,55491,2,0,L|243:150,3,33.7500012874604,0|0|0|0,3:0|0:0|0:0|3:0,0:0:0:0:
170,309,55807,6,0,L|165:343,3,33.7500012874604,0|0|0|8,3:0|0:0|0:0|0:3,0:0:0:0:
63,266,56123,1,2,3:2:0:0:
50,264,56202,1,0,0:0:0:0:
38,268,56281,1,2,3:2:0:0:
28,275,56360,1,8,0:3:0:0:
23,287,56439,2,0,L|28:321,3,33.7500012874604,0|2|2|0,3:0|0:2|0:0|3:0,0:0:0:0:
132,212,56754,2,0,L|127:178,3,33.7500012874604,0|2|8|8,3:0|0:0|0:3|0:3,0:0:0:0:
252,333,57070,69,0,3:0:0:0:
256,337,57149,1,8,0:3:0:0:
260,341,57228,2,0,L|265:375,1,33.7500012874604,8|8,0:3|0:3,0:0:0:0:
344,313,57386,2,0,L|349:347,3,33.7500012874604,0|0|10|10,3:0|0:0|3:3|0:3,0:0:0:0:
436,217,57702,1,0,3:0:0:0:
432,221,57781,1,8,0:3:0:0:
428,225,57860,2,0,L|423:259,1,33.7500012874604,8|8,0:3|0:3,0:0:0:0:
344,197,58017,2,0,L|339:231,3,33.7500012874604,0|0|10|10,3:0|0:0|3:3|0:3,0:0:0:0:
275,129,58333,5,0,3:0:0:0:
264,120,58412,1,8,0:3:0:0:
255,111,58492,1,8,0:3:0:0:
246,103,58570,1,8,0:3:0:0:
237,96,58649,2,0,L|242:62,3,33.7500012874604,2|8|2|8,3:2|0:3|3:2|0:3,0:0:0:0:
348,79,58965,69,0,3:0:0:0:
359,70,59044,1,8,0:3:0:0:
368,61,59124,1,8,0:3:0:0:
377,53,59202,1,8,0:3:0:0:
386,46,59281,2,0,L|381:12,3,33.7500012874604,0|8|8|8,3:0|0:3|0:3|0:3,0:0:0:0:
323,225,59596,38,0,L|234:213,1,90
233,212,60070,1,0,0:0:0:0:
156,156,60228,2,0,L|145:245,1,90
144,245,60701,1,0,0:0:0:0:
16,304,60859,70,0,L|106:315,1,90
184,364,61334,6,0,L|265:354,1,81,0|2,0:0|0:0,0:0:0:0:
253,346,63386,70,0,B|220:355|245:413|334:396|320:333|256:282|256:282|184:229|208:161|298:150|308:215,1,405.000015449525,8|0,0:3|0:0,0:0:0:0:
308,214,64018,22,0,L|22:247,2,288,4|4|8,3:0|3:0|0:3,0:0:0:0:
492,220,64807,2,0,B|450:268|457:320|457:320|449:267|401:232,1,216,4|0,3:0|0:0,0:0:0:0:
372,160,65123,5,8,0:3:0:0:
368,152,65202,1,8,0:3:0:0:
364,144,65281,2,0,B|338:110|338:110|468:102|468:102|446:138,1,216,4|0,3:0|0:0,0:0:0:0:
480,136,65596,1,8,0:3:0:0:
229,140,65754,2,0,L|371:159,1,144,4|0,3:0|0:0,0:0:0:0:
188,40,66070,69,8,0:3:0:0:
180,36,66149,1,8,0:3:0:0:
172,32,66228,2,0,B|104:40|104:40|137:145|137:145|151:110,1,216,4|0,3:0|0:0,0:0:0:0:
156,117,66544,1,8,0:3:0:0:
340,84,66702,6,0,B|339:63|355:43|355:43|319:-4|319:-4|263:23|263:23|271:51|259:71,1,216,4|0,3:0|0:0,0:0:0:0:
259,71,67018,1,8,0:3:0:0:
456,160,67175,70,0,B|455:180|471:200|471:200|435:248|435:248|379:220|379:220|387:192|375:172,1,216,4|0,3:0|0:0,0:0:0:0:
375,172,67491,1,8,0:3:0:0:
512,92,67649,6,0,L|229:147,1,288,4|8,3:0|0:3,0:0:0:0:
216,152,68044,1,8,0:3:0:0:
208,156,68123,1,4,3:0:0:0:
128,172,68281,1,0,3:0:0:0:
109,90,68439,38,0,P|199:61|207:155,1,216,2|0,0:0|0:0,0:0:0:0:
52,216,69070,22,0,B|12:296|12:296|136:360|136:360|164:308,1,288,4|8,3:0|0:3,0:0:0:0:
304,196,69544,6,0,B|157:226|157:226|195:226|220:244,1,216,4|0,3:0|0:0,0:0:0:0:
163,308,69860,1,8,0:3:0:0:
348,280,70018,70,0,B|371:309|371:309|364:343,1,72,4|0,3:0|0:0,0:0:0:0:
288,368,70175,1,0,3:0:0:0:
280,372,70254,1,8,0:3:0:0:
271,376,70333,2,0,B|248:347|248:347|255:313,1,72,8|8,0:3|0:3,0:0:0:0:
404,208,70491,6,0,B|407:152|407:152|418:128|418:128|422:65,2,144,4|8|8,3:0|0:3|0:3,0:0:0:0:
452,296,70965,1,8,0:3:0:0:
316,192,71123,2,0,B|307:137|307:137|310:115|310:115|298:49,1,144,4|8,3:0|0:3,0:0:0:0:
164,260,71439,69,0,0:0:0:0:
160,268,71518,1,8,0:3:0:0:
156,276,71596,2,0,P|56:284|23:189,1,216,6|0,3:0|0:0,0:0:0:0:
17,179,71912,2,0,L|2:109,1,72,8|0,0:3|0:0,0:0:0:0:
168,184,72070,6,0,P|220:113|132:113,1,216,6|0,3:0|0:0,0:0:0:0:
120,120,72386,2,0,L|135:190,1,72,8|8,0:3|0:3,0:0:0:0:
48,344,72544,70,0,P|126:273|232:273,1,216,6|0,3:0|0:0,0:0:0:0:
232,284,72860,2,0,L|302:299,1,72,8|0,0:3|0:0,0:0:0:0:
394,368,73018,6,0,P|464:315|380:290,1,216,6|8,3:0|0:3,0:0:0:0:
372,284,73333,2,0,L|302:299,1,72,8|0,0:3|0:0,0:0:0:0:
158,369,73491,70,0,P|137:263|109:159,1,216,6|0,3:0|0:0,0:0:0:0:
61,79,73807,1,6,3:0:0:0:
66,62,73886,1,8,0:3:0:0:
82,51,73965,1,8,0:3:0:0:
101,52,74044,1,8,0:3:0:0:
137,71,74123,54,0,B|101:99|113:160|171:174|207:145|210:110|210:110|214:65|272:41|316:82|311:128|283:150,1,360,2|0,0:0|0:0,0:0:0:0:
204,192,74912,1,0,3:0:0:0:
328,224,75070,2,0,L|468:254,1,144,6|8,3:0|0:3,0:0:0:0:
416,132,75386,22,0,B|404:216|404:216|428:260|428:260|416:340,1,216,6|0,3:0|0:0,0:0:0:0:
300,304,75702,5,8,0:3:0:0:
288,300,75781,1,8,0:3:0:0:
274,294,75860,2,0,B|225:245|119:244|112:340|162:399|235:375,1,288,4|0,3:0|0:0,0:0:0:0:
364,380,76254,1,8,0:3:0:0:
372,372,76333,2,0,P|375:267|299:196,1,216,6|0,3:0|0:0,0:0:0:0:
216,180,76649,69,8,0:3:0:0:
203,177,76728,1,8,0:3:0:0:
191,175,76807,2,0,B|87:156|87:156|78:97|78:97|85:126|106:140,1,216,4|0,3:0|0:0,0:0:0:0:
152,80,77123,5,8,0:3:0:0:
159,74,77202,1,8,0:3:0:0:
167,66,77281,2,0,L|27:100,1,144,6|0,3:0|0:0,0:0:0:0:
16,180,77596,1,8,0:3:0:0:
268,104,77754,70,0,P|290:42|231:13,1,144,4|0,3:0|0:0,0:0:0:0:
104,168,78070,1,0,3:0:0:0:
244,260,78228,2,0,B|310:298|316:235|382:256,1,144,8|0,0:3|0:0,0:0:0:0:
480,120,78544,6,0,B|458:48|458:48|425:108,1,144,2|0,3:2|3:0,0:0:0:0:
381,255,78860,2,0,B|403:327|403:327|435:266,1,144,8|0,0:3|0:0,0:0:0:0:
488,204,79096,1,8,0:3:0:0:
496,196,79175,70,0,B|446:190|446:190|440:186|440:186|432:188|432:188|373:180|373:180|402:176,1,144,6|0,3:0|0:0,0:0:0:0:
296,108,79491,1,8,0:3:0:0:
228,204,79649,1,8,0:3:0:0:
220,208,79728,1,8,0:3:0:0:
212,212,79807,2,0,L|140:200,1,72,8|0,0:3|0:0,0:0:0:0:
60,152,79965,5,0,3:0:0:0:
52,156,80044,1,8,0:3:0:0:
44,160,80123,1,8,0:3:0:0:
56,248,80281,1,8,0:3:0:0:
68,336,80439,1,8,0:3:0:0:
249,304,80596,70,0,B|241:264|191:244|151:280|158:319|158:319|164:359|123:395|74:374|67:335,1,288,12|12,0:3|0:3,0:0:0:0:
36,164,81070,2,0,P|106:178|177:187,1,144,2|0,0:0|3:0,0:0:0:0:
280,208,81386,1,10,0:3:0:0:
360,120,81544,21,8,0:3:0:0:
364,112,81623,1,8,0:3:0:0:
364,104,81702,2,0,L|358:70,3,33.7500012874604,4|2|2|0,3:0|0:0|0:0|0:0,0:0:0:0:
444,80,82018,2,0,L|477:74,1,33.7500012874604,0|2,3:0|0:0,0:0:0:0:
384,228,82175,6,0,L|378:194,3,33.7500012874604,0|2|0|2,0:0|0:0|3:0|0:0,0:0:0:0:
460,194,82491,2,0,L|493:188,1,33.7500012874604,8|2,0:3|0:0,0:0:0:0:
404,344,82649,70,0,L|398:310,3,33.7500012874604,0|2|10|0,3:0|0:0|0:3|0:3,0:0:0:0:
320,288,82965,5,0,3:0:0:0:
312,284,83044,1,10,0:3:0:0:
300,280,83123,1,0,3:0:0:0:
280,276,83202,1,8,0:3:0:0:
252,276,83281,1,10,0:3:0:0:
212,288,83360,1,10,0:3:0:0:
168,304,83439,1,8,0:3:0:0:
116,296,83518,1,10,0:3:0:0:
68,264,83596,2,0,L|34:258,1,33.7500012874604,0|10,3:0|0:3,0:0:0:0:
156,200,83754,53,10,0:3:0:0:
152,188,83833,1,10,0:3:0:0:
156,176,83912,2,0,L|159:142,1,33.7500012874604,0|8,3:0|0:3,0:0:0:0:
164,64,84070,2,0,L|161:30,1,33.7500012874604,8|8,0:3|0:3,0:0:0:0:
72,168,84228,22,0,B|143:204|149:137|229:187,1,161.999995056153,4|0,3:0|3:0,0:0:0:0:
296,232,84544,2,0,P|343:211|348:160,1,107.999996704102,8|2,0:3|0:0,0:0:0:0:
300,104,84781,1,8,0:3:0:0:
294,98,84860,1,0,0:0:0:0:
227,185,85018,1,0,3:0:0:0:
400,88,85175,1,8,0:3:0:0:
236,8,85333,70,0,P|186:25|161:72,1,107.999996704102,2|0,3:2|0:0,0:0:0:0:
104,120,85570,1,8,0:3:0:0:
104,128,85649,1,0,3:0:0:0:
0,12,85807,2,0,P|11:64|17:118,1,107.999996704102,8|0,0:3|3:0,0:0:0:0:
16,244,86044,1,8,0:3:0:0:
8,239,86123,2,0,P|45:202|96:212,1,107.999996704102,2|0,0:0|3:0,0:0:0:0:
176,272,86439,1,8,0:3:0:0:
80,328,86596,1,0,3:0:0:0:
192,184,86754,6,0,B|248:192|248:192|268:240|268:240|320:251,1,161.999995056153,2|0,0:0|0:0,0:0:0:0:
392,292,87070,1,8,0:3:0:0:
384,300,87149,1,8,0:3:0:0:
392,308,87228,2,0,L|385:361,1,53.9999983520508,2|0,0:0|0:0,0:0:0:0:
476,260,87386,69,0,3:0:0:0:
460,176,87544,1,0,3:0:0:0:
492,84,87702,2,0,L|438:94,1,53.9999983520508,10|0,0:3|0:0,0:0:0:0:
368,152,87860,53,0,3:0:0:0:
360,156,87939,1,8,0:3:0:0:
352,160,88018,2,0,B|311:193|311:193|283:145,1,107.999996704102,4|0,3:0|3:0,0:0:0:0:
228,52,88333,1,0,3:0:0:0:
176,152,88491,5,8,0:3:0:0:
168,160,88570,1,8,0:3:0:0:
152,164,88649,1,2,0:0:0:0:
124,160,88728,1,8,0:3:0:0:
92,152,88807,1,2,3:0:0:0:
61,159,88886,1,0,3:0:0:0:
32,176,88965,2,0,L|50:282,1,107.999996704102,10|0,0:3|0:0,0:0:0:0:
0,379,89281,22,0,P|87:320|192:334,1,215.999993408203,4|8,3:0|0:3,0:0:0:0:
352,332,89754,1,0,3:0:0:0:
361,343,89833,1,8,0:3:0:0:
368,355,89912,2,0,P|318:369|281:332,1,107.999996704102,0|0,3:0|3:0,0:0:0:0:
232,256,90228,1,8,0:3:0:0:
416,232,90386,70,0,B|475:173|475:173|505:245,1,161.999995056153,2|0,3:2|0:0,0:0:0:0:
512,256,90702,1,0,3:0:0:0:
356,156,90860,2,0,P|303:166|249:175,1,107.999996704102,8|0,0:3|0:0,0:0:0:0:
144,232,91175,5,2,0:0:0:0:
136,236,91254,1,8,0:3:0:0:
128,240,91333,1,0,3:0:0:0:
24,200,91491,1,8,0:3:0:0:
116,96,91649,69,8,0:3:0:0:
120,84,91728,1,8,0:3:0:0:
120,72,91807,1,6,3:0:0:0:
40,3,91965,53,8,0:3:0:0:
34,10,92044,1,8,0:3:0:0:
29,18,92123,2,0,L|39:70,2,53.9999983520508,8|8|6,0:3|0:3|3:0,0:0:0:0:
175,153,92439,1,8,0:3:0:0:
182,147,92518,1,8,0:3:0:0:
188,140,92596,2,0,L|198:87,2,53.9999983520508,8|8|6,0:3|0:3|3:0,0:0:0:0:
311,3,92912,1,8,0:3:0:0:
318,9,92991,1,8,0:3:0:0:
324,16,93069,2,0,L|334:69,2,53.9999983520508,8|8|6,0:3|0:3|3:0,0:0:0:0:
459,169,93386,1,8,0:3:0:0:
466,163,93465,1,8,0:3:0:0:
472,156,93543,2,0,L|482:103,2,53.9999983520508,8|8|8,0:3|0:3|0:3,0:0:0:0:
376,168,93860,5,0,3:0:0:0:
416,56,94018,1,10,0:3:0:0:
284,140,94175,5,0,3:0:0:0:
276,144,94254,1,8,0:3:0:0:
267,148,94333,2,0,B|193:176|185:107|110:156,1,161.999995056153,4|8,3:0|0:3,0:0:0:0:
33,185,94649,6,0,B|11:230|10:234|73:258,1,107.999996704102,8|0,0:3|3:0,0:0:0:0:
204,296,94965,2,0,B|226:251|227:247|163:222,1,107.999996704102,8|0,0:3|3:0,0:0:0:0:
68,340,95281,1,8,0:3:0:0:
200,316,95439,70,0,B|293:297|258:370|346:361,1,161.999995056153,2|0,3:2|0:0,0:0:0:0:
360,356,95754,1,0,3:0:0:0:
408,224,95912,2,0,P|356:221|324:263,1,107.999996704102,10|0,0:3|0:0,0:0:0:0:
416,300,96149,1,8,0:3:0:0:
424,308,96228,2,0,P|475:310|507:268,1,107.999996704102,2|0,3:0|3:0,0:0:0:0:
504,180,96544,1,8,0:3:0:0:
488,92,96702,1,0,0:0:0:0:
348,168,96860,6,0,B|272:156|272:156|236:112|236:112|154:100,1,215.999993408203,2|8,3:2|0:3,0:0:0:0:
32,68,97333,1,2,3:0:0:0:
32,56,97412,1,8,0:3:0:0:
37,49,97491,2,0,P|62:95|61:149,1,107.999996704102,0|0,0:0|3:0,0:0:0:0:
120,292,97807,1,8,0:3:0:0:
240,228,97965,38,0,P|186:218|133:209,1,107.999996704102,4|0,0:3|0:0,0:0:0:0:
8,355,98281,2,0,P|61:364|114:373,1,107.999996704102,2|8,3:2|0:3,0:0:0:0:
248,328,98596,21,0,3:0:0:0:
252,320,98675,2,0,L|258:373,1,53.9999983520508,8|0,0:3|0:0,0:0:0:0:
334,301,98833,1,8,0:3:0:0:
330,309,98912,2,0,L|323:255,1,53.9999983520508,0|0,3:0|0:0,0:0:0:0:
404,343,99070,2,0,P|432:269|415:191,1,161.999995056153,8|8,0:3|0:3,0:0:0:0:
344,160,99386,69,4,3:0:0:0:
330,161,99464,1,8,0:3:0:0:
317,162,99543,1,8,0:3:0:0:
303,164,99622,1,8,0:3:0:0:
290,165,99701,1,8,0:3:0:0:
196,244,99860,2,0,L|142:237,4,53.9999983520508,4|8|8|8|8,3:0|0:3|0:3|0:3|0:3,0:0:0:0:
12,120,100333,1,4,3:0:0:0:
13,133,100411,1,8,0:3:0:0:
15,146,100490,1,8,0:3:0:0:
16,160,100569,1,8,0:3:0:0:
18,173,100648,1,8,0:3:0:0:
64,272,100807,2,0,L|57:325,4,53.9999983520508,4|8|8|8|8,3:0|0:3|0:3|0:3|0:3,0:0:0:0:
128,136,101281,69,4,3:0:0:0:
128,128,101360,1,8,0:3:0:0:
128,120,101439,2,0,L|121:66,1,53.9999983520508,8|8,0:3|0:3,0:0:0:0:
200,60,101596,2,0,L|206:6,3,53.9999983520508,8|8|8|8,0:3|0:3|0:3|0:3,0:0:0:0:
248,176,101912,5,4,3:0:0:0:
360,164,102070,2,0,L|413:157,2,53.9999983520508,0|8|8,0:0|0:3|0:3,0:0:0:0:
240,168,102386,1,4,3:0:0:0:
252,280,102544,2,0,L|258:333,2,53.9999983520508,2|8|8,0:0|0:3|0:3,0:0:0:0:
232,160,102860,69,4,3:0:0:0:
120,172,103018,2,0,L|66:178,2,53.9999983520508,0|8|2,0:0|0:3|0:0,0:0:0:0:
12,276,103333,1,4,3:0:0:0:
124,288,103491,2,0,L|177:294,2,53.9999983520508,8|8|8,0:3|0:3|0:3,0:0:0:0:
324,236,103807,5,0,3:0:0:0:
400,252,103965,1,0,3:0:0:0:
476,268,104123,2,0,P|511:232|486:188,1,107.999996704102,8|0,0:3|0:0,0:0:0:0:
304,160,104439,6,0,P|342:241|360:329,1,180,4|2,3:0|0:0,0:0:0:0:
272,376,104912,1,0,3:0:0:0:
264,384,105070,2,0,P|176:363|87:350,1,180,8|2,0:3|0:0,0:0:0:0:
24,232,105544,1,0,3:0:0:0:
20,244,105702,2,0,P|59:263|104:263,1,90,2|8,0:0|0:3,0:0:0:0:
196,232,106018,1,2,0:0:0:0:
276,288,106175,2,0,P|300:201|338:119,1,180,2|0,3:2|0:0,0:0:0:0:
338,119,106649,1,0,3:0:0:0:
192,16,106807,5,8,0:3:0:0:
188,8,106886,1,2,0:0:0:0:
184,0,106965,2,0,P|231:74|225:162,1,180,0|2,3:0|0:0,0:0:0:0:
180,252,107439,1,0,3:0:0:0:
176,264,107596,2,0,P|89:240|0:226,1,180,8|2,0:3|3:2,0:0:0:0:
36,132,108070,1,2,3:2:0:0:
132,168,108228,1,4,3:0:0:0:
236,92,108386,38,0,L|280:97,2,45,0|8|8,0:0|0:3|0:3,0:0:0:0:
344,152,108702,1,0,3:0:0:0:
468,64,108860,1,8,0:3:0:0:
456,160,109018,1,8,0:3:0:0:
444,256,109175,1,8,0:3:0:0:
448,268,109333,1,8,0:3:0:0:
512,228,109491,38,0,P|425:253|337:268,1,180,4|2,3:0|0:0,0:0:0:0:
272,336,109965,1,0,3:0:0:0:
267,347,110123,2,0,P|182:315|93:311,1,180,8|2,0:3|0:0,0:0:0:0:
16,188,110596,1,0,3:0:0:0:
8,200,110754,2,0,P|39:230|83:232,1,90,0|8,3:0|0:3,0:0:0:0:
140,144,111070,1,2,0:0:0:0:
228,248,111228,2,0,P|245:159|264:71,1,180,2|0,3:2|0:0,0:0:0:0:
208,16,111702,1,0,3:0:0:0:
204,0,111860,1,8,0:3:0:0:
336,120,112018,70,0,P|417:130|433:50,1,180,0|2,3:0|0:0,0:0:0:0:
216,92,112491,1,0,3:0:0:0:
212,105,112649,2,0,P|236:191|253:279,1,180,8|2,0:3|0:0,0:0:0:0:
196,360,113123,1,0,3:0:0:0:
336,320,113281,70,0,P|380:321|419:342,1,90,4|8,3:0|0:3,0:0:0:0:
488,372,113518,1,8,0:3:0:0:
488,380,113596,1,2,3:2:0:0:
509,262,113754,2,0,P|499:218|492:173,1,90,4|0,3:0|0:0,0:0:0:0:
496,80,114070,1,0,3:0:0:0:
408,96,114228,1,8,0:3:0:0:
320,116,114386,1,10,0:3:0:0:
308,112,114465,1,8,0:3:0:0:
296,108,114544,38,0,L|252:95,3,45,4|0|0|0,3:0|0:0|0:0|0:0,0:0:0:0:
196,160,114860,2,0,L|152:172,3,45,0|0|0|8,3:0|0:0|0:0|0:3,0:0:0:0:
48,84,115175,2,0,L|35:127,3,45,0|0|0|0,3:0|0:0|0:0|0:0,0:0:0:0:
80,200,115491,2,0,L|92:243,3,45,0|0|0|8,3:0|0:0|0:0|0:3,0:0:0:0:
40,352,115807,6,0,L|27:308,3,45,0|0|0|0,3:0|0:0|0:0|0:0,0:0:0:0:
169,268,116123,2,0,L|156:311,3,45,2|0|2|0,3:2|0:0|0:0|0:0,0:0:0:0:
296,344,116439,2,0,L|283:300,3,45,0|0|0|8,3:0|0:0|0:0|0:3,0:0:0:0:
412,268,116754,2,0,L|399:311,3,45,0|0|8|0,0:0|0:0|0:3|3:0,0:0:0:0:
504,192,117070,70,0,L|460:179,3,45,0|0|0|0,3:0|0:0|0:0|0:0,0:0:0:0:
392,128,117386,2,0,L|348:140,3,45,0|0|0|0,3:0|0:0|0:0|0:0,0:0:0:0:
269,213,117702,2,0,L|256:169,3,45,0|0|0|0,3:0|0:0|0:0|0:0,0:0:0:0:
192,112,118018,2,0,L|204:68,3,45,0|0|8|0,3:0|0:0|0:3|0:0,0:0:0:0:
312,14,118333,6,0,L|324:57,3,45,0|0|0|8,3:0|0:0|0:0|0:3,0:0:0:0:
112,104,118649,2,0,L|124:60,3,45,2|0|2|0,3:2|0:0|0:0|0:0,0:0:0:0:
284,135,118965,2,0,L|296:178,3,45,0|2|2|8,3:0|0:0|0:0|0:3,0:0:0:0:
164,240,119281,2,0,L|176:196,3,45,0|8|8|8,3:0|0:3|0:3|0:3,0:0:0:0:
300,308,119596,37,0,3:0:0:0:
308,304,119675,1,8,0:3:0:0:
316,300,119754,2,0,L|359:287,1,45,8|8,0:3|0:3,0:0:0:0:
356,212,119912,2,0,L|399:199,3,45,0|8|2|2,3:0|0:3|0:0|0:0,0:0:0:0:
212,308,120228,1,0,3:0:0:0:
204,304,120307,1,8,0:3:0:0:
196,300,120386,2,0,L|152:287,1,45,8|8,0:3|0:3,0:0:0:0:
156,212,120544,2,0,L|112:199,3,45,0|8|2|2,3:0|0:3|0:0|0:0,0:0:0:0:
356,212,120860,53,0,3:0:0:0:
361,204,120939,1,8,0:3:0:0:
367,197,121018,2,0,L|400:167,1,45,8|8,0:3|0:3,0:0:0:0:
366,101,121176,2,0,L|399:71,3,45,2|8|2|0,3:2|0:3|0:0|0:0,0:0:0:0:
156,212,121491,1,0,3:0:0:0:
151,204,121570,1,8,0:3:0:0:
145,197,121649,2,0,L|111:167,1,45,8|8,0:3|0:3,0:0:0:0:
146,101,121807,2,0,L|112:71,3,45,0|8|8|8,3:0|0:3|0:3|0:3,0:0:0:0:
256,0,122123,70,0,L|256:72,1,72,2|0,0:0|0:0,0:0:0:0:
256,72,122596,1,0,0:0:0:0:
292,152,122754,70,0,L|220:152,1,72,2|0,0:0|0:0,0:0:0:0:
220,152,123227,1,0,0:0:0:0:
360,104,123386,6,0,P|374:136|374:172,1,72,2|0,0:0|0:0,0:0:0:0:
156,200,123860,2,0,P|141:167|141:131,1,72,2|0,0:0|0:0,0:0:0:0:
