osu file format v14

[General]
AudioFilename: audio.mp3
AudioLeadIn: 0
PreviewTime: 83912
Countdown: 0
SampleSet: Soft
StackLeniency: 0.4
Mode: 0
LetterboxInBreaks: 0
WidescreenStoryboard: 1

[Editor]
DistanceSpacing: 0.2
BeatDivisor: 4
GridSize: 32
TimelineZoom: 2.9

[Metadata]
Title:Isso Kono Mama de
TitleUnicode:いっそこのままで
Artist:mifumei (BNSI) feat. Aizawa
ArtistUnicode:ミフメイ (BNSI) feat. 相沢
Creator:KnightC0re
Version:Another
Source:太鼓の達人
Tags:Yusuke Yuusuke Yamauchi 山内祐介 Taiko no Tatsujin ニジイロVer. Nijiiro Rainbow Version Namco Original ナムコオリジナル rhythm video game Japanese Rock Pop milr_ Nagatoro
BeatmapID:3983431
BeatmapSetID:1794628

[Difficulty]
HPDrainRate:6.5
CircleSize:4.5
OverallDifficulty:8.2
ApproachRate:9.2
SliderMultiplier:1.2
SliderTickRate:1

[Events]
//Background and Video events
0,0,"75843264_p0e.png",0,0
//Break Periods
2,19376,20658
2,59718,62185
//Storyboard Layer 0 (Background)
//Storyboard Layer 1 (Fail)
//Storyboard Layer 2 (Pass)
//Storyboard Layer 3 (Foreground)
//Storyboard Layer 4 (Overlay)
//Storyboard Sound Samples

[TimingPoints]
1492,315.789473684211,4,2,1,80,1,0
1492,-50,4,2,1,80,0,0
1965,-100,4,2,1,35,0,0
3386,-50,4,2,1,80,0,0
4018,-100,4,2,1,80,0,0
4176,-50,4,2,1,80,0,0
4492,-100,4,2,1,35,0,0
6070,-100,4,2,1,80,0,0
6228,-50,4,2,1,80,0,0
6544,-100,4,2,1,35,0,0
7649,-50,4,2,1,80,0,0
7965,-100,4,2,1,80,0,0
8122,-100,4,2,1,35,0,0
8360,-100,4,2,1,80,0,0
8913,-50,4,2,1,80,0,0
10492,-50,4,2,2,80,0,0
10570,-50,4,2,1,80,0,0
11281,-100,4,2,1,45,0,0
11597,-100,4,2,1,55,0,0
18070,-100,4,2,1,65,0,0
18386,-100,4,2,1,75,0,0
19176,-100,4,2,1,50,0,0
21228,-100,4,2,1,65,0,0
21386,-66.6666666666667,4,2,1,65,0,0
21702,-100,4,2,1,55,0,0
22018,-100,4,2,1,40,0,0
26755,-100,4,2,1,55,0,0
27070,-100,4,2,1,40,0,0
29439,-100,4,2,1,45,0,0
31492,-50,4,2,1,70,0,0
31807,-66.6666666666667,4,2,1,65,0,0
32123,-66.6666666666667,4,2,1,55,0,0
32913,-100,4,2,1,55,0,0
34334,-66.6666666666667,4,2,1,55,0,0
34886,-66.6666666666667,4,2,1,65,0,0
34965,-66.6666666666667,4,2,1,75,0,0
35044,-66.6666666666667,4,2,1,65,0,0
35123,-66.6666666666667,4,2,1,55,0,0
35439,-100,4,2,1,55,0,0
36070,-66.6666666666667,4,2,1,55,0,0
37649,-100,4,2,1,55,0,0
38439,-66.6666666666667,4,2,1,55,0,0
40492,-100,4,2,1,55,0,0
41439,-100,4,2,1,45,0,0
41597,-100,4,2,2,35,0,0
41755,-100,4,2,3,25,0,0
41913,-200,4,2,1,30,0,0
46492,-200,4,2,1,45,0,0
46570,-133.333333333333,4,2,1,45,0,0
46965,-200,4,2,1,30,0,0
51544,-200,4,2,1,45,0,0
51623,-133.333333333333,4,2,1,45,0,0
52018,-200,4,2,1,45,0,0
54544,-133.333333333333,4,2,1,55,0,0
57070,-133.333333333333,4,2,1,65,0,0
57544,-100,4,2,1,65,0,0
58334,-100,4,2,1,70,0,0
58965,-100,4,2,1,75,0,0
59281,-100,4,2,1,80,0,0
62755,-100,4,2,1,30,0,1
63386,-400,4,2,1,75,0,0
64018,315.789473684211,4,2,1,80,1,0
64018,-133.333333333333,4,2,1,80,0,0
64333,-200,4,2,1,80,0,0
68439,-1000,4,2,1,40,0,1
69070,-200,4,2,1,80,0,0
70649,-200,4,2,2,80,0,0
70806,-200,4,2,3,80,0,0
70965,-200,4,2,1,80,0,0
74123,-1000,4,2,1,40,0,1
75070,-200,4,2,1,60,0,0
75386,-200,4,2,1,80,0,0
80281,-200,4,2,2,80,0,0
80438,-200,4,2,3,80,0,0
80596,-200,4,2,1,80,0,0
81702,-200,4,2,1,45,0,0
82175,-133.333333333333,4,2,1,50,0,0
82649,-133.333333333333,4,2,1,55,0,0
83123,-133.333333333333,4,2,1,60,0,0
83596,-133.333333333333,4,2,1,80,0,0
83754,-133.333333333333,4,2,1,65,0,0
83912,-100,4,2,1,50,0,0
84228,-66.6666666666667,4,2,1,75,0,1
88649,-100,4,2,1,75,0,1
89281,-66.6666666666667,4,2,1,75,0,1
91807,-100,4,2,1,85,0,1
93702,-66.6666666666667,4,2,1,85,0,1
94018,-57.1428571428571,4,2,1,85,0,1
94333,-66.6666666666667,4,2,1,75,0,1
97965,-57.1428571428571,4,2,1,75,0,1
98281,-66.6666666666667,4,2,1,75,0,1
99386,-100,4,2,1,85,0,1
101596,-100,4,2,2,85,0,1
101754,-100,4,2,3,85,0,1
101912,-100,4,2,1,85,0,1
103807,-100,4,2,1,75,0,1
104123,-66.6666666666667,4,2,1,75,0,0
104439,-100,4,2,1,70,0,1
109018,-100,4,2,2,70,0,1
109175,-100,4,2,3,70,0,1
109333,-100,4,2,1,70,0,1
113754,-80,4,2,1,70,0,1
114544,-200,4,2,1,45,0,0
116439,-133.333333333333,4,2,1,45,0,0
117070,-133.333333333333,4,2,1,55,0,0
118965,-133.333333333333,4,2,1,60,0,0
119596,-133.333333333333,4,2,1,65,0,0
120070,-100,4,2,1,65,0,0
120228,-100,4,2,1,70,0,0
120860,-100,4,2,1,75,0,0
121175,-100,4,2,1,80,0,0
121333,-100,4,2,1,85,0,0
121807,-100,4,2,1,90,0,0
122123,-100,4,2,1,90,0,1
122202,-100,4,2,1,90,0,0

[Colours]
Combo1 : 255,128,128
Combo2 : 0,128,255
Combo3 : 0,128,192
Combo4 : 128,128,128
Combo5 : 192,192,192
Combo6 : 255,0,0

[HitObjects]
447,150,1492,70,0,B|496:140|496:140|291:108,1,240,4|0,3:0|2:0,2:0:0:0:
320,103,1965,54,0,L|331:143,1,30,0|0,2:0|2:0,2:0:0:0:
498,33,2281,2,0,L|509:-7,1,30,2|0,2:0|2:0,2:0:0:0:
231,76,2597,6,0,B|191:94|191:94|237:106,1,90,2|0,2:0|2:0,2:0:0:0:
236,106,2913,1,0,2:0:0:0:
162,33,3070,1,2,2:0:0:0:
55,58,3228,1,2,2:0:0:0:
244,113,3386,22,0,B|101:142|101:142|58:128,1,180,4|0,3:0|2:0,2:0:0:0:
100,3,3702,2,0,L|136:179,1,180,4|0,3:0|2:0,2:0:0:0:
184,272,4018,70,0,L|177:310,1,30,8|0,2:3|2:0,2:0:0:0:
0,247,4176,2,0,B|25:235|25:235|183:262,1,180,4|0,3:0|2:0,2:0:0:0:
255,345,4492,70,0,L|248:307,2,30,0|2|2,2:0|2:0|2:0,2:0:0:0:
335,176,4807,2,0,B|318:200|318:200|332:233,1,60,0|0,2:0|2:0,2:0:0:0:
510,282,5123,2,0,L|386:263,2,120,2|0|0,2:0|2:0|2:0,2:0:0:0:
442,332,6070,6,0,L|449:292,1,30,8|0,2:3|2:0,2:0:0:0:
467,131,6228,2,0,L|438:314,1,180,4|0,3:0|2:0,2:0:0:0:
373,356,6544,54,0,P|355:334|325:330,1,60,2|0,2:0|2:0,2:0:0:0:
277,377,6781,1,0,2:0:0:0:
273,381,6860,2,0,L|242:385,1,30,0|0,2:0|2:0,2:0:0:0:
189,317,7018,2,0,L|185:348,1,30,2|0,2:0|2:0,2:0:0:0:
4,180,7334,2,0,L|0:149,1,30,2|0,2:0|2:0,2:0:0:0:
3,145,7492,1,8,2:3:0:0:
110,37,7649,38,0,B|258:53|258:53|220:65,1,180,4|0,3:0|2:0,2:0:0:0:
160,109,7965,54,0,L|167:73,2,30,0|0|2,2:0|2:0|2:0,2:0:0:0:
325,30,8281,1,0,3:0:0:0:
327,15,8360,1,8,2:3:0:0:
330,0,8439,1,8,2:3:0:0:
449,53,8597,2,0,L|456:122,1,60,0|0,3:0|3:0,2:0:0:0:
403,259,8913,6,0,B|306:245|306:245|264:266|264:266|162:249,1,240,4|0,3:0|2:0,2:0:0:0:
124,192,9386,1,8,2:3:0:0:
363,355,9544,2,0,B|480:362|480:362|402:243,1,240,4|0,3:0|2:0,2:0:0:0:
361,185,10018,1,8,2:3:0:0:
266,345,10176,6,0,B|281:281|281:281|251:248|251:248|268:170,1,180,4|0,3:0|2:0,2:0:0:0:
211,221,10492,1,8,2:3:0:0:
213,236,10570,1,8,2:3:0:0:
216,251,10649,1,8,2:3:0:0:
454,309,10807,70,0,L|519:295,1,60,4|0,2:0|2:0,2:0:0:0:
58,369,11123,2,0,L|-7:383,1,60,4|0,2:0|2:0,2:0:0:0:
107,308,11281,54,0,P|135:318|135:373,1,90,0|0,3:0|2:0,2:0:0:0:
210,384,11597,54,0,L|300:364,1,90,4|0,3:0|2:0,2:0:0:0:
305,355,11913,1,0,3:0:0:0:
380,371,12070,2,0,L|438:383,1,60,0|0,2:0|3:0,2:0:0:0:
290,276,12386,2,0,L|277:217,1,60,2|0,2:0|3:0,2:0:0:0:
404,44,12702,6,0,P|384:65|385:94,1,60,0|0,2:0|3:0,2:0:0:0:
491,129,13018,2,0,P|469:148|440:147,1,60,2|0,2:0|3:0,2:0:0:0:
359,223,13334,2,0,P|374:198|368:169,1,60,0|0,2:0|3:0,2:0:0:0:
224,91,13649,70,0,L|187:78,1,30,2|0,2:0|2:0,2:0:0:0:
288,68,13807,2,0,L|316:42,1,30,0|0,3:0|2:0,2:0:0:0:
274,134,13965,2,0,L|281:171,1,30,2|0,2:0|2:0,2:0:0:0:
146,180,14123,6,0,L|82:171,1,60,0|0,3:0|2:0,2:0:0:0:
19,161,14360,1,0,2:0:0:0:
17,154,14439,1,0,3:0:0:0:
44,226,14597,2,0,L|53:290,1,60,0|0,2:0|3:0,2:0:0:0:
23,83,14913,2,0,L|70:46,1,60,2|0,2:0|3:0,2:0:0:0:
212,0,15228,70,0,P|227:25|221:54,1,60,2|0,2:0|3:0,2:0:0:0:
317,150,15544,2,0,P|302:124|274:115,1,60,0|0,2:0|3:0,2:0:0:0:
301,40,15860,2,0,L|374:28,1,60,2|0,2:0|3:0,2:0:0:0:
465,4,16176,6,0,L|501:-2,1,30,2|0,2:0|2:0,2:0:0:0:
425,73,16334,2,0,L|431:109,1,30,0|0,3:0|2:0,2:0:0:0:
500,178,16492,1,8,2:3:0:0:
502,186,16570,1,8,2:3:0:0:
504,194,16649,70,0,L|413:180,1,90,0|0,3:0|2:0,2:0:0:0:
409,170,16965,1,0,3:0:0:0:
359,256,17123,2,0,L|390:251,2,30,2|0|0,2:0|2:0|3:0,2:0:0:0:
261,170,17439,2,0,L|265:138,2,30,2|0|0,2:0|2:0|3:0,2:0:0:0:
229,293,17755,6,0,P|218:305|214:322,1,30,8|8,2:3|2:3,2:0:0:0:
217,324,17913,1,0,3:0:0:0:
127,305,18070,2,0,P|127:321|136:336,1,30,8|8,2:3|2:3,2:0:0:0:
140,335,18228,1,0,3:0:0:0:
51,370,18386,2,0,P|63:381|80:384,1,30,8|8,2:3|2:3,2:0:0:0:
81,382,18544,1,0,3:0:0:0:
286,354,18702,54,0,L|323:347,1,30,10|8,2:3|2:3,2:0:0:0:
324,331,18860,2,0,L|361:324,1,30,10|8,2:3|2:3,2:0:0:0:
374,344,19018,2,0,L|411:337,1,30,10|8,2:3|2:3,2:0:0:0:
468,309,19176,53,2,2:0:0:0:
7,45,21228,5,0,3:0:0:0:
4,52,21307,1,0,3:0:0:0:
0,59,21386,2,0,P|30:71|73:-3,1,135,8|0,2:3|2:0,2:0:0:0:
148,31,21702,54,0,L|216:22,1,60,4|0,3:0|3:0,2:0:0:0:
390,0,22018,1,8,2:3:0:0:
450,29,22176,2,0,P|419:25|400:2,1,60,0|0,2:0|2:0,2:0:0:0:
340,52,22492,1,2,2:0:0:0:
499,244,22807,6,0,B|487:235|487:235|386:275,1,120,2|2,2:0|2:0,2:0:0:0:
478,319,23281,1,8,2:3:0:0:
312,288,23597,1,2,2:0:0:0:
172,384,23913,1,8,2:3:0:0:
244,363,24228,69,0,2:0:0:0:
118,331,24386,2,0,P|120:297|141:271,2,60,0|8|2,2:0|2:3|2:0,2:0:0:0:
85,229,24860,1,0,2:0:0:0:
85,229,25018,2,0,L|220:255,1,120,0|0,2:0|2:0,2:0:0:0:
21,367,25649,1,2,2:0:0:0:
21,367,25807,2,0,L|9:292,1,60,10|0,2:3|2:0,2:0:0:0:
116,206,26123,2,0,L|191:218,1,60,0|0,2:0|2:0,2:0:0:0:
3,190,26439,1,10,2:3:0:0:
255,90,26755,6,0,L|180:102,2,60,0|0|8,3:0|3:0|2:3,2:0:0:0:
115,111,27228,2,0,P|156:96|164:21,1,120,2|0,2:0|2:0,2:0:0:0:
61,9,27702,1,8,2:3:0:0:
11,63,27860,2,0,B|18:109|18:109|33:128|33:128|43:181,1,120,2|2,2:0|2:0,2:0:0:0:
0,240,28334,1,8,2:3:0:0:
171,179,28649,1,0,2:0:0:0:
171,179,28807,1,0,2:0:0:0:
171,179,28965,2,0,L|312:207,1,120,8|0,2:3|2:0,2:0:0:0:
352,163,29439,38,0,P|357:148|355:130,1,30,0|2,2:0|2:0,2:0:0:0:
351,129,29597,1,10,2:3:0:0:
419,96,29755,1,0,2:0:0:0:
453,162,29913,2,0,L|526:172,1,60,2|2,2:0|2:0,2:0:0:0:
338,12,30386,5,0,2:0:0:0:
338,12,30544,2,0,P|286:6|241:58,1,120,2|8,2:0|2:3,2:0:0:0:
176,10,31018,2,0,L|110:-2,2,60,0|2|0,2:0|3:2|2:0,2:0:0:0:
257,131,31492,38,1,L|134:109,1,120,4|0,3:0|2:0,2:0:0:0:
82,64,31728,1,8,2:3:0:0:
77,66,31807,22,0,P|58:105|77:150,1,90,4|0,3:0|2:0,2:0:0:0:
140,182,32123,1,8,2:3:0:0:
39,261,32281,1,0,2:0:0:0:
42,253,32360,1,2,2:0:0:0:
45,245,32439,1,2,3:2:0:0:
166,318,32597,2,0,B|153:308|153:308|74:335,1,90,2|8,3:2|2:3,2:0:0:0:
264,242,32913,6,0,L|343:252,1,60,2|0,3:2|2:0,2:0:0:0:
355,332,33228,2,0,L|434:342,1,60,2|8,3:2|2:3,2:0:0:0:
512,250,33544,1,0,2:0:0:0:
512,250,33623,1,2,2:0:0:0:
512,250,33702,1,0,2:0:0:0:
432,233,33860,1,0,3:0:0:0:
481,174,34018,1,8,2:3:0:0:
279,5,34334,70,0,B|263:26|263:26|303:192,1,180,2|8,3:2|2:3,2:0:0:0:
437,98,34807,1,0,2:0:0:0:
424,75,34886,1,2,2:0:0:0:
400,71,34965,1,2,2:0:0:0:
378,57,35044,1,2,2:0:0:0:
354,66,35123,1,0,3:0:0:0:
512,80,35281,1,8,2:3:0:0:
370,148,35439,6,0,L|289:133,1,60,2|0,3:2|2:0,2:0:0:0:
245,224,35755,2,0,L|164:209,1,60,2|8,3:2|2:3,2:0:0:0:
107,107,36070,70,0,B|94:61|94:61|137:21,1,90,2|0,2:0|3:0,2:0:0:0:
177,87,36386,1,0,3:0:0:0:
20,20,36544,1,10,2:3:0:0:
8,183,36702,1,8,2:3:0:0:
19,197,36781,1,8,2:3:0:0:
30,211,36860,6,0,L|221:179,1,180,4|8,3:0|2:3,2:0:0:0:
317,245,37334,1,0,2:0:0:0:
213,384,37492,1,2,2:0:0:0:
213,384,37570,1,2,2:0:0:0:
213,384,37649,2,0,P|196:351|212:314,1,60,0|8,3:0|2:3,2:0:0:0:
369,301,37965,70,0,L|447:312,1,60,2|0,3:2|2:0,2:0:0:0:
511,327,38281,1,0,3:0:0:0:
414,219,38439,2,0,P|391:169|453:116,1,135,10|8,2:3|2:3,2:0:0:0:
442,121,38755,2,0,P|405:144|360:130,1,90,2|0,2:0|3:0,2:0:0:0:
328,42,39070,1,8,2:3:0:0:
328,42,39228,1,2,2:0:0:0:
255,104,39386,5,0,3:0:0:0:
161,79,39544,2,0,B|140:120|140:120|176:158,1,90,2|8,2:0|2:3,2:0:0:0:
296,240,39860,1,0,2:0:0:0:
296,240,39939,1,2,2:0:0:0:
296,240,40018,2,0,L|143:220,1,135,0|0,2:0|2:0,2:0:0:0:
90,204,40334,1,8,2:3:0:0:
86,209,40413,1,2,2:0:0:0:
81,214,40492,70,0,B|78:243|78:243|101:268,1,60,0|0,3:0|2:0,2:0:0:0:
168,374,40807,2,0,B|188:350|188:350|185:321,1,60,2|12,3:2|2:3,2:0:0:0:
0,337,41123,2,0,L|66:327,1,60,2|0,2:0|3:0,2:0:0:0:
260,303,41439,69,4,3:0:0:0:
339,324,41597,1,8,2:3:0:0:
418,345,41755,1,8,2:3:0:0:
497,366,41913,38,0,L|513:307,7,60,4|0|0|0|0|0|0|0,3:0|2:0|2:0|2:0|2:0|2:0|2:0|2:0,2:0:0:0:
437,303,44439,2,0,L|453:244,6,60,2|0|0|0|0|0|0,2:0|2:0|2:0|2:0|2:0|2:0|2:0,2:0:0:0:
361,331,46492,53,0,3:0:0:0:
361,331,46570,2,0,P|334:310|301:307,1,67.5000000000002,0|0,2:0|3:0,2:0:0:0:
229,336,46965,22,0,L|218:276,7,60,2|0|0|0|0|0|0|0,2:0|2:0|2:0|2:0|2:0|2:0|2:0|2:0,2:0:0:0:
156,384,49492,2,0,L|145:324,6,60,2|0|0|0|0|0|0,2:0|2:0|2:0|2:0|2:0|2:0|2:0,2:0:0:0:
71,365,51544,69,0,3:0:0:0:
71,365,51623,2,0,P|29:356|13:335,1,67.5000000000002,0|0,2:0|3:0,2:0:0:0:
55,243,52018,70,0,L|122:253,1,60,4|0,3:0|3:0,2:0:0:0:
194,199,52492,1,0,2:0:0:0:
194,199,52570,1,0,3:0:0:0:
194,199,52649,2,0,L|261:209,1,60,0|0,3:0|3:0,2:0:0:0:
120,144,53123,1,0,2:0:0:0:
120,144,53202,1,8,2:3:0:0:
120,144,53281,2,0,L|115:177,1,30,0|0,3:0|2:0,2:0:0:0:
77,48,53597,2,0,L|72:81,1,30,2|2,3:2|2:0,2:0:0:0:
195,121,53913,2,0,L|262:111,1,60,0|0,3:0|3:0,2:0:0:0:
491,218,54544,6,0,L|457:223,4,22.5000000000001,0|0|0|8|0,3:0|2:0|2:0|2:3|3:0,2:0:0:0:
405,179,55018,1,0,3:0:0:0:
403,183,55097,1,2,2:0:0:0:
401,187,55176,2,0,L|367:192,4,22.5000000000001,0|8|0|0|0,3:0|2:3|2:0|2:0|3:0,2:0:0:0:
499,119,55649,1,2,2:0:0:0:
497,123,55728,1,8,2:3:0:0:
495,127,55807,2,0,L|438:118,1,45.0000000000001,0|0,3:0|2:0,2:0:0:0:
358,11,56123,1,2,3:2:0:0:
396,72,56281,1,2,3:2:0:0:
343,120,56439,2,0,L|309:115,3,22.5000000000001,0|2|2|0,3:0|2:0|2:0|3:0,2:0:0:0:
276,136,56755,2,0,L|242:131,3,22.5000000000001,0|2|8|8,3:0|2:0|2:3|2:3,2:0:0:0:
206,73,57070,69,0,3:0:0:0:
189,58,57149,1,8,2:3:0:0:
168,49,57228,1,8,2:3:0:0:
146,49,57307,1,8,2:3:0:0:
125,56,57386,1,0,3:0:0:0:
55,27,57544,2,0,L|49:79,1,30,2|2,3:0|2:3,2:0:0:0:
28,163,57702,5,0,3:0:0:0:
49,170,57781,1,8,2:3:0:0:
71,170,57860,1,8,2:3:0:0:
92,161,57939,1,8,2:3:0:0:
109,146,58018,1,0,3:0:0:0:
177,179,58176,2,0,L|183:231,1,30,2|2,3:0|2:3,2:0:0:0:
110,306,58334,69,0,3:0:0:0:
137,294,58413,1,8,2:3:0:0:
167,295,58492,1,8,2:3:0:0:
194,307,58570,1,8,2:3:0:0:
214,329,58649,2,0,L|266:335,1,30,2|0,3:2|2:0,2:0:0:0:
324,367,58807,2,0,L|318:326,1,30,2|0,3:2|2:0,2:0:0:0:
360,271,58965,5,0,3:0:0:0:
369,259,59044,1,8,2:3:0:0:
374,245,59123,1,8,2:3:0:0:
376,230,59202,1,8,2:3:0:0:
343,190,59281,1,0,3:0:0:0:
373,215,59360,1,8,2:3:0:0:
412,225,59439,1,8,2:3:0:0:
450,217,59518,1,8,2:3:0:0:
256,0,62755,21,2,2:0:0:0:
256,0,63386,2,0,L|256:52,1,52.5,8|0,2:3|2:0,2:0:0:0:
312,124,64018,6,0,P|333:121|349:105,1,45.0000000000001,4|0,3:0|2:0,2:0:0:0:
497,208,64333,2,0,P|482:192|459:190,1,45,4|0,3:0|2:0,2:0:0:0:
409,144,64649,1,8,2:3:0:0:
393,351,64807,2,0,P|414:346|427:327,1,45,4|0,3:0|2:0,2:0:0:0:
320,233,65123,1,8,2:3:0:0:
274,245,65202,1,8,2:3:0:0:
228,257,65281,6,0,L|183:250,1,45,4|0,3:0|2:0,2:0:0:0:
137,196,65596,1,8,2:3:0:0:
20,340,65754,2,0,L|13:295,1,45,4|0,3:0|2:0,2:0:0:0:
46,96,66070,1,8,2:3:0:0:
34,142,66149,1,8,2:3:0:0:
22,188,66228,2,0,L|67:181,1,45,4|0,3:0|2:0,2:0:0:0:
137,196,66544,69,8,2:3:0:0:
151,369,66702,2,0,P|136:363|122:339,1,45,4|0,3:0|2:0,2:0:0:0:
151,273,67018,1,8,2:3:0:0:
298,176,67175,2,0,L|343:169,1,45,4|0,3:0|2:0,2:0:0:0:
415,158,67491,1,8,2:3:0:0:
199,67,67649,2,0,P|184:73|170:97,1,45,4|0,3:0|2:0,2:0:0:0:
240,223,67965,1,8,2:3:0:0:
252,269,68044,1,8,2:3:0:0:
264,315,68123,2,0,P|290:315|309:328,1,45,4|0,3:0|2:0,2:0:0:0:
488,381,68439,70,0,L|492:361,1,21,2|0,2:0|2:0,2:0:0:0:
408,306,69070,22,0,L|462:298,1,45,4|0,3:0|2:0,2:0:0:0:
505,246,69386,1,8,2:3:0:0:
353,133,69544,2,0,P|351:114|376:93,1,45,4|0,3:0|2:0,2:0:0:0:
440,84,69860,1,8,2:3:0:0:
226,0,70018,2,0,L|230:19,1,15,4|0,3:0|2:0,2:0:0:0:
289,74,70175,69,0,3:0:0:0:
282,109,70254,1,8,2:3:0:0:
275,145,70333,1,8,2:3:0:0:
268,181,70412,1,8,2:3:0:0:
261,216,70491,1,4,3:0:0:0:
161,166,70649,2,0,L|199:156,1,30,8|8,2:3|2:3,2:0:0:0:
440,350,70965,2,0,L|430:312,1,30,8|4,2:3|3:0,2:0:0:0:
172,269,71281,2,0,P|156:274|142:291,1,30,8|0,2:3|2:0,2:0:0:0:
92,336,71518,1,8,2:3:0:0:
62,319,71596,6,0,L|70:266,1,45,6|0,3:0|2:0,2:0:0:0:
14,220,71912,1,8,2:3:0:0:
190,28,72070,2,0,P|208:51|205:71,1,45,6|0,3:0|2:0,2:0:0:0:
141,129,72386,1,8,2:3:0:0:
92,119,72465,1,8,2:3:0:0:
43,109,72544,70,0,L|53:160,1,45,6|0,3:0|2:0,2:0:0:0:
3,214,72860,1,8,2:3:0:0:
224,381,73018,2,0,P|234:363|253:359,1,30,6|0,3:0|2:0,2:0:0:0:
304,322,73254,1,8,2:3:0:0:
309,327,73333,1,8,2:3:0:0:
498,292,73491,6,0,L|503:326,1,30,6|8,3:0|2:3,2:0:0:0:
408,182,73807,1,6,3:0:0:0:
413,132,73886,1,8,2:3:0:0:
419,82,73965,1,8,2:3:0:0:
425,32,74044,1,8,2:3:0:0:
463,2,74123,38,0,L|480:0,1,18,2|2,2:0|2:0,2:0:0:0:
242,142,75070,22,0,L|216:139,1,15,6|0,3:0|2:0,2:0:0:0:
155,128,75228,2,0,L|129:125,1,15,8|0,2:3|2:0,2:0:0:0:
27,105,75386,6,0,P|22:87|32:59,1,45,6|0,3:0|2:0,2:0:0:0:
151,0,75702,1,8,2:3:0:0:
193,28,75781,1,8,2:3:0:0:
235,56,75860,2,0,L|280:49,1,45,4|0,3:0|2:0,2:0:0:0:
363,123,76175,1,8,2:3:0:0:
351,172,76254,1,8,2:3:0:0:
339,221,76333,2,0,P|348:232|370:236,1,30,6|0,3:0|2:0,2:0:0:0:
460,193,76570,1,8,2:3:0:0:
465,199,76649,70,0,L|459:226,1,15,8|8,2:3|2:3,2:0:0:0:
371,350,76807,2,0,L|323:342,1,45,4|0,3:0|2:0,2:0:0:0:
259,265,77123,1,8,2:3:0:0:
210,278,77202,1,8,2:3:0:0:
161,291,77281,2,0,P|155:267|132:250,1,45,6|0,3:0|2:0,2:0:0:0:
158,180,77596,1,8,2:3:0:0:
50,356,77754,6,0,L|57:305,1,45,4|0,3:0|2:0,2:0:0:0:
7,227,78070,1,0,3:0:0:0:
201,369,78228,2,0,L|239:362,1,30,8|0,2:3|2:0,2:0:0:0:
337,338,78465,1,8,2:3:0:0:
344,344,78544,2,0,L|339:382,1,30,2|0,3:2|3:0,2:0:0:0:
506,162,78860,1,8,2:3:0:0:
372,88,79018,1,8,2:3:0:0:
382,137,79096,1,8,2:3:0:0:
392,186,79175,70,0,P|418:184|437:193,1,45,6|0,3:0|2:0,2:0:0:0:
462,261,79491,1,8,2:3:0:0:
307,354,79649,1,0,2:0:0:0:
303,346,79728,1,8,2:3:0:0:
299,338,79807,1,8,2:3:0:0:
197,202,79965,1,0,3:0:0:0:
193,210,80044,1,8,2:3:0:0:
189,218,80123,1,8,2:3:0:0:
24,289,80281,2,0,L|29:318,1,30,8|8,2:3|2:3,2:0:0:0:
80,98,80596,6,0,P|55:80|36:80,1,45,12|0,2:3|2:0,2:0:0:0:
102,5,80912,2,0,L|158:-1,1,45,12|0,2:3|2:0,2:0:0:0:
210,30,81228,1,0,3:0:0:0:
454,123,81386,2,0,L|447:83,1,30,10|8,2:3|2:3,2:0:0:0:
503,54,81623,1,8,2:3:0:0:
509,57,81702,1,4,3:0:0:0:
290,327,82018,5,0,3:0:0:0:
239,275,82175,2,0,L|213:279,4,22.5000000000001,0|2|0|2|8,2:0|2:0|3:0|2:0|2:3,2:0:0:0:
103,300,82649,1,0,3:0:0:0:
96,303,82728,1,2,2:0:0:0:
89,306,82807,2,0,L|85:332,2,22.5000000000001,10|0|0,2:3|2:3|3:0,2:0:0:0:
41,199,83123,1,0,3:0:0:0:
48,196,83202,1,8,2:3:0:0:
55,193,83281,2,0,L|59:167,2,22.5000000000001,10|10|8,2:3|2:3|2:3,2:0:0:0:
0,46,83596,69,0,3:0:0:0:
18,79,83675,1,10,2:3:0:0:
53,97,83754,1,10,2:3:0:0:
91,96,83833,1,10,2:3:0:0:
125,75,83912,2,0,L|120:36,3,30,0|8|8|8,3:0|2:3|2:3|2:3,2:0:0:0:
182,0,84228,6,0,P|226:10|240:95,1,135,4|0,3:0|3:0,2:0:0:0:
243,88,84544,1,8,2:3:0:0:
398,131,84702,1,2,2:0:0:0:
398,131,84781,2,0,B|417:109|417:109|312:128,1,135,8|0,2:3|3:0,2:0:0:0:
373,34,85175,1,8,2:3:0:0:
499,182,85333,6,0,P|460:183|445:238,1,90,2|0,3:2|2:0,2:0:0:0:
440,225,85570,1,8,2:3:0:0:
440,225,85649,1,0,3:0:0:0:
512,340,85807,2,0,L|418:322,1,90,10|0,2:3|3:0,2:0:0:0:
359,359,86044,1,8,2:3:0:0:
345,351,86123,70,0,P|332:311|364:273,1,90,0|0,2:0|3:0,2:0:0:0:
224,218,86439,2,0,L|318:200,1,90,10|0,2:3|3:0,2:0:0:0:
154,384,86754,6,0,P|127:331|55:336,1,135,2|0,2:0|2:0,2:0:0:0:
0,293,87070,1,8,2:3:0:0:
9,280,87149,1,8,2:3:0:0:
9,175,87307,1,8,2:3:0:0:
18,188,87386,70,0,L|120:206,1,90,0|0,3:0|3:0,2:0:0:0:
257,95,87702,1,10,2:3:0:0:
179,18,87860,1,0,2:0:0:0:
161,43,87939,1,8,2:3:0:0:
143,69,88018,54,0,L|191:179,1,90,4|0,3:0|3:0,2:0:0:0:
216,221,88333,1,0,3:0:0:0:
60,332,88491,1,8,2:3:0:0:
60,332,88570,1,8,2:3:0:0:
60,332,88649,6,0,L|54:382,1,30,2|8,2:0|2:3,2:0:0:0:
157,354,88807,2,0,L|151:404,1,30,2|0,3:0|2:0,2:0:0:0:
257,322,88965,2,0,L|251:272,1,30,8|0,2:3|2:0,2:0:0:0:
354,300,89123,2,0,L|348:250,1,30,2|0,2:0|2:0,2:0:0:0:
454,332,89281,22,0,L|471:221,1,90,4|0,3:0|2:0,2:0:0:0:
328,130,89596,2,0,L|430:107,1,90,8|0,2:3|2:0,2:0:0:0:
470,155,89833,1,8,2:3:0:0:
481,167,89912,1,0,3:0:0:0:
357,216,90070,2,0,P|328:176|341:134,1,90,2|8,3:2|2:3,2:0:0:0:
499,53,90386,70,0,L|299:22,1,180,2|0,3:2|3:0,2:0:0:0:
122,106,90860,2,0,L|139:216,1,90,8|0,2:3|2:0,2:0:0:0:
205,230,91096,1,8,2:3:0:0:
218,236,91175,2,0,P|240:193|206:150,1,90,2|0,2:0|3:0,2:0:0:0:
49,215,91491,1,8,2:3:0:0:
119,357,91649,1,8,2:3:0:0:
162,368,91728,1,8,2:3:0:0:
205,379,91807,54,0,L|251:372,1,30,6|0,3:0|2:0,2:0:0:0:
384,373,91965,1,8,2:3:0:0:
388,370,92044,1,8,2:3:0:0:
392,367,92123,1,8,2:3:0:0:
396,364,92202,1,8,2:3:0:0:
400,362,92281,6,0,L|397:328,1,30,6|0,3:0|2:0,2:0:0:0:
395,179,92439,1,8,2:3:0:0:
392,175,92518,1,8,2:3:0:0:
389,171,92596,1,8,2:3:0:0:
386,167,92675,1,8,2:3:0:0:
384,163,92754,70,0,L|350:166,1,30,6|0,3:0|2:0,2:0:0:0:
201,159,92912,1,8,2:3:0:0:
197,162,92991,1,8,2:3:0:0:
193,165,93070,1,8,2:3:0:0:
189,168,93149,1,8,2:3:0:0:
185,170,93228,6,0,L|188:204,1,30,6|0,3:0|2:0,2:0:0:0:
294,297,93386,1,8,2:3:0:0:
298,295,93465,1,8,2:3:0:0:
302,293,93544,1,8,2:3:0:0:
306,291,93623,1,8,2:3:0:0:
310,289,93702,70,0,P|313:249|274:219,1,90,8|0,2:3|3:0,2:0:0:0:
318,140,94018,2,0,L|445:162,1,105,10|0,2:3|2:0,2:0:0:0:
480,203,94254,1,8,2:3:0:0:
494,214,94333,22,0,P|521:180|512:137,1,90,4|0,3:0|2:0,2:0:0:0:
478,71,94570,1,8,2:3:0:0:
464,82,94649,2,0,L|371:96,1,90,8|0,2:3|3:0,2:0:0:0:
278,13,94965,5,8,2:3:0:0:
278,13,95123,1,0,3:0:0:0:
210,196,95281,69,8,2:3:0:0:
210,196,95439,1,0,3:0:0:0:
78,47,95596,5,8,2:3:0:0:
78,47,95754,1,0,3:0:0:0:
0,171,95912,70,0,L|93:157,1,90,10|0,2:3|2:0,2:0:0:0:
156,117,96149,1,8,2:3:0:0:
168,103,96228,2,0,P|199:150|186:192,1,90,2|0,3:0|3:0,2:0:0:0:
89,283,96544,2,0,L|-4:269,1,90,8|0,2:3|2:0,2:0:0:0:
211,370,96860,6,0,P|272:362|293:271,1,135,2|0,3:2|2:0,2:0:0:0:
315,316,97175,2,0,L|438:332,1,90,8|2,2:3|2:0,2:0:0:0:
473,309,97412,1,8,2:3:0:0:
489,322,97491,2,0,P|513:280|498:237,1,90,0|0,2:0|3:0,2:0:0:0:
369,189,97807,1,8,2:3:0:0:
486,95,97965,38,0,P|497:21|420:5,1,157.5,4|0,2:3|2:0,2:0:0:0:
417,17,98281,2,0,P|385:59|344:57,1,90,2|8,3:2|2:3,2:0:0:0:
215,19,98596,1,0,3:0:0:0:
208,1,98675,1,8,2:3:0:0:
123,102,98833,1,8,2:3:0:0:
141,109,98912,1,0,3:0:0:0:
102,1,99070,1,8,2:3:0:0:
0,128,99228,1,8,2:3:0:0:
12,171,99307,1,8,2:3:0:0:
24,214,99386,6,0,L|68:222,3,30,4|8|8|8,3:0|2:3|2:3|2:3,2:0:0:0:
120,187,99702,2,0,L|126:224,1,30,2|8,2:0|2:3,2:0:0:0:
134,357,99860,70,0,L|178:349,3,30,4|8|8|8,3:0|2:3|2:3|2:3,2:0:0:0:
230,384,100175,2,0,L|236:347,1,30,2|8,2:0|2:3,2:0:0:0:
250,192,100333,6,0,L|256:229,1,30,4|8,3:0|2:3,2:0:0:0:
342,328,100491,1,2,2:0:0:0:
347,328,100570,1,8,2:3:0:0:
352,330,100649,1,8,2:3:0:0:
357,330,100728,1,8,2:3:0:0:
362,332,100807,70,0,L|368:295,1,30,4|8,3:0|2:3,2:0:0:0:
435,176,100965,1,2,2:0:0:0:
440,176,101044,1,8,2:3:0:0:
445,174,101123,1,8,2:3:0:0:
450,174,101202,1,8,2:3:0:0:
455,172,101281,6,0,L|461:209,1,30,4|8,3:0|2:3,2:0:0:0:
369,330,101439,2,0,L|375:293,1,30,8|8,2:3|2:3,2:0:0:0:
254,187,101596,1,8,2:3:0:0:
234,178,101675,1,8,2:3:0:0:
212,180,101754,1,8,2:3:0:0:
194,193,101833,1,8,2:3:0:0:
183,213,101912,70,0,L|148:220,1,30,4|0,3:0|2:0,2:0:0:0:
69,187,102070,2,0,L|34:194,3,30,8|8|8|8,2:3|2:3|2:3|2:3,2:0:0:0:
30,99,102386,6,0,L|60:94,1,30,4|0,3:0|2:0,2:0:0:0:
144,125,102544,2,0,L|174:120,3,30,2|8|8|8,2:0|2:3|2:3|2:3,2:0:0:0:
135,32,102860,70,0,L|164:26,1,30,4|0,3:0|2:0,2:0:0:0:
285,96,103018,1,8,2:3:0:0:
290,96,103096,1,8,2:3:0:0:
295,94,103175,1,2,2:0:0:0:
300,94,103254,1,8,2:3:0:0:
305,92,103333,6,0,L|310:45,1,30,4|0,3:0|2:0,2:0:0:0:
412,0,103491,1,8,2:3:0:0:
417,0,103570,1,8,2:3:0:0:
422,2,103649,1,8,2:3:0:0:
427,2,103728,1,8,2:3:0:0:
432,4,103807,69,0,3:0:0:0:
512,105,103965,1,0,3:0:0:0:
410,187,104123,2,0,L|267:167,1,135,8|0,2:3|2:0,2:0:0:0:
213,114,104439,22,0,P|179:171|194:229,1,120,4|2,3:0|2:0,2:0:0:0:
262,242,104912,1,0,3:0:0:0:
74,322,105070,2,0,L|207:341,1,120,8|2,2:3|2:0,2:0:0:0:
262,318,105544,1,0,3:0:0:0:
417,384,105702,5,2,2:0:0:0:
475,337,105860,2,0,L|459:266,1,60,8|0,2:3|2:0,2:0:0:0:
427,106,106175,1,2,3:2:0:0:
512,195,106333,2,0,L|401:179,1,90,8|0,2:3|2:0,2:0:0:0:
402,195,106649,1,0,3:0:0:0:
334,132,106807,1,8,2:3:0:0:
180,210,106965,70,0,P|218:212|257:138,1,120,0|2,3:0|2:0,2:0:0:0:
225,84,107439,1,0,3:0:0:0:
90,40,107596,2,0,P|61:65|85:144,1,120,8|2,2:3|3:2,2:0:0:0:
152,137,108070,1,2,3:2:0:0:
38,250,108228,54,0,L|23:322,1,60,4|0,3:0|2:0,2:0:0:0:
25,308,108465,1,8,2:3:0:0:
25,308,108544,1,8,2:3:0:0:
80,375,108702,1,0,3:0:0:0:
266,303,108860,5,8,2:3:0:0:
250,231,109018,1,8,2:3:0:0:
197,282,109175,1,8,2:3:0:0:
311,384,109333,1,8,2:3:0:0:
465,320,109491,6,0,P|472:273|411:240,1,120,4|2,3:0|2:0,2:0:0:0:
498,194,109965,1,0,3:0:0:0:
347,123,110123,2,0,P|340:76|401:43,1,120,8|2,2:3|2:0,2:0:0:0:
457,80,110596,1,0,3:0:0:0:
235,121,110754,5,0,3:0:0:0:
314,2,110912,2,0,B|306:62,1,60,8|0,2:3|2:0,2:0:0:0:
352,199,111228,1,0,3:0:0:0:
166,148,111386,2,0,L|70:163,1,90,8|0,2:3|2:0,2:0:0:0:
59,150,111702,1,0,3:0:0:0:
117,49,111860,1,8,2:3:0:0:
232,194,112018,70,0,P|224:254|170:268,1,120,0|2,3:0|2:0,2:0:0:0:
114,227,112491,1,0,3:0:0:0:
286,331,112649,2,0,L|426:311,1,120,8|2,2:3|2:0,2:0:0:0:
340,283,113123,1,0,3:0:0:0:
186,384,113281,54,0,L|120:371,1,60,4|8,3:0|2:3,2:0:0:0:
123,367,113518,1,8,2:3:0:0:
119,361,113596,1,2,3:2:0:0:
55,248,113754,2,0,L|227:228,1,150,4|0,3:0|3:0,2:0:0:0:
374,212,114228,1,8,2:3:0:0:
447,248,114386,1,10,2:3:0:0:
447,248,114465,1,8,2:3:0:0:
447,248,114544,70,0,L|455:316,1,60,4|0,3:0|3:0,2:0:0:0:
379,370,115018,1,0,2:0:0:0:
376,373,115096,1,8,2:3:0:0:
373,376,115175,2,0,L|365:308,1,60,0|0,3:0|3:0,2:0:0:0:
291,248,115649,1,0,2:0:0:0:
288,251,115728,1,8,2:3:0:0:
285,254,115807,2,0,L|289:288,1,30,0|0,3:0|2:0,2:0:0:0:
131,384,116123,2,0,L|127:350,1,30,2|2,3:2|2:0,2:0:0:0:
187,239,116439,2,0,L|191:273,4,22.5000000000001,0|0|8|8|0,3:0|2:0|2:3|2:3|3:0,2:0:0:0:
116,154,116912,1,8,2:3:0:0:
113,151,116991,1,0,3:0:0:0:
110,148,117070,70,0,L|114:114,4,22.5000000000001,0|0|0|0|0,3:0|2:0|2:0|2:0|3:0,2:0:0:0:
184,27,117544,1,0,2:0:0:0:
187,30,117623,1,2,2:0:0:0:
190,33,117702,6,0,L|186:67,4,22.5000000000001,0|8|0|0|0,3:0|2:3|2:0|2:0|3:0,2:0:0:0:
239,175,118175,1,8,2:3:0:0:
242,172,118254,1,2,2:0:0:0:
245,169,118333,2,0,L|251:112,1,45.0000000000001,0|0,3:0|2:0,2:0:0:0:
418,63,118649,2,0,L|414:97,1,22.5000000000001,2|0,3:2|2:0,2:0:0:0:
338,133,118807,2,0,L|342:99,1,22.5000000000001,2|0,2:0|2:0,2:0:0:0:
343,17,118965,2,0,L|339:51,3,22.5000000000001,0|2|2|8,3:0|2:0|2:0|2:3,2:0:0:0:
415,156,119281,2,0,L|413:179,3,22.5000000000001,0|8|8|8,3:0|2:3|2:3|2:3,2:0:0:0:
356,273,119596,37,0,3:0:0:0:
334,279,119675,1,8,2:3:0:0:
312,278,119754,1,8,2:3:0:0:
291,271,119833,1,8,2:3:0:0:
274,256,119912,1,0,3:0:0:0:
199,277,120070,2,0,L|193:231,1,30,2|2,2:0|2:0,2:0:0:0:
216,140,120228,5,0,3:0:0:0:
194,134,120307,1,8,2:3:0:0:
172,135,120386,1,8,2:3:0:0:
151,142,120465,1,8,2:3:0:0:
134,157,120544,1,0,3:0:0:0:
59,136,120702,2,0,L|53:182,1,30,2|2,2:0|2:0,2:0:0:0:
0,310,120860,37,0,3:0:0:0:
27,299,120939,1,8,2:3:0:0:
57,300,121018,1,8,2:3:0:0:
84,313,121096,1,8,2:3:0:0:
103,336,121175,2,0,L|155:328,1,30,2|0,3:2|2:0,2:0:0:0:
241,378,121333,1,2,2:0:0:0:
241,378,121412,1,8,2:3:0:0:
241,378,121491,5,0,3:0:0:0:
252,367,121570,1,8,2:3:0:0:
264,361,121649,1,8,2:3:0:0:
279,359,121728,1,8,2:3:0:0:
280,332,121807,1,0,3:0:0:0:
305,362,121886,1,8,2:3:0:0:
341,377,121965,1,8,2:3:0:0:
381,372,122044,1,8,2:3:0:0:
