osu file format v14

[General]
AudioFilename: audio.mp3
AudioLeadIn: 0
PreviewTime: 53019
Countdown: 0
SampleSet: Soft
StackLeniency: 0.7
Mode: 0
LetterboxInBreaks: 0
WidescreenStoryboard: 1

[Editor]
Bookmarks: 10686,32019,53353,64019,85353,106686
DistanceSpacing: 0.4
BeatDivisor: 4
GridSize: 4
TimelineZoom: 1.9

[Metadata]
Title:riddle
TitleUnicode:riddle
Artist:midwxst
ArtistUnicode:midwxst
Creator:v0ltia
Version:we vibing's hard?
Source:
Tags:hip-hop hyperpop hip hop english 0pp 0ppinosu voltia we_vibing xx A3THER_XX
BeatmapID:3510693
BeatmapSetID:1695218

[Difficulty]
HPDrainRate:4.5
CircleSize:3.7
OverallDifficulty:7
ApproachRate:8
SliderMultiplier:2
SliderTickRate:1

[Events]
//Background and Video events
0,0,"jr-korpa-zXprpYmBbPQ-unsplash.jpg",0,0
//Break Periods
//Storyboard Layer 0 (Background)
//Storyboard Layer 1 (Fail)
//Storyboard Layer 2 (Pass)
//Storyboard Layer 3 (Foreground)
//Storyboard Layer 4 (Overlay)
//Storyboard Sound Samples

[TimingPoints]
20,333.333333333333,4,2,2,50,1,0
10519,-142.857142857143,4,2,2,50,0,0
21353,-142.857142857143,4,2,2,60,0,0
32019,-100,4,2,1,90,0,1
32353,-100,4,2,1,90,0,0
33353,-100,4,2,1,90,0,1
33853,-100,4,2,1,90,0,0
34686,-166.666666666667,4,2,1,90,0,1
35019,-100,4,2,1,90,0,1
35353,-71.4285714285714,4,2,1,90,0,1
35686,-71.4285714285714,4,2,1,90,0,0
37353,-76.9230769230769,4,2,1,90,0,1
38019,-100,4,2,1,90,0,1
38686,-76.9230769230769,4,2,1,90,0,1
39353,-100,4,2,1,90,0,1
40019,-76.9230769230769,4,2,1,90,0,1
40686,-100,4,2,1,90,0,1
41353,-76.9230769230769,4,2,1,90,0,1
41853,-100,4,2,1,90,0,1
42353,-100,4,2,1,90,0,0
42686,-76.9230769230769,4,2,1,90,0,1
43019,-76.9230769230769,4,2,1,90,0,0
44019,-76.9230769230769,4,2,1,90,0,1
44353,-76.9230769230769,4,2,1,90,0,0
45353,-76.9230769230769,4,2,1,90,0,1
46019,-100,4,2,1,90,0,1
46686,-76.9230769230769,4,2,1,90,0,1
47186,-100,4,2,1,90,0,1
48019,-76.9230769230769,4,2,1,90,0,1
48686,-100,4,2,1,90,0,1
49353,-76.9230769230769,4,2,1,90,0,1
50019,-100,4,2,1,90,0,1
50686,-76.9230769230769,4,2,1,90,0,1
51353,-100,4,2,1,90,0,1
52019,-76.9230769230769,4,2,1,90,0,1
52519,-100,4,2,1,90,0,1
52853,-100,4,2,2,90,0,1
53353,-100,4,2,3,38,0,0
63519,-100,4,2,2,50,0,0
63853,-142.857142857143,4,2,2,50,0,0
74686,-142.857142857143,4,2,2,60,0,0
82686,-142.857142857143,4,2,3,38,0,0
84686,-142.857142857143,4,2,2,50,0,0
85353,-100,4,2,1,90,0,1
85686,-100,4,2,1,90,0,0
86686,-100,4,2,1,90,0,1
87186,-100,4,2,1,90,0,0
88019,-166.666666666667,4,2,1,90,0,1
88353,-100,4,2,1,90,0,1
88686,-71.4285714285714,4,2,1,90,0,1
89019,-71.4285714285714,4,2,1,90,0,0
90686,-76.9230769230769,4,2,1,90,0,1
91353,-100,4,2,1,90,0,1
92019,-76.9230769230769,4,2,1,90,0,1
92686,-100,4,2,1,90,0,1
93353,-76.9230769230769,4,2,1,90,0,1
94019,-100,4,2,1,90,0,1
94686,-76.9230769230769,4,2,1,90,0,1
95186,-100,4,2,1,90,0,1
95686,-100,4,2,1,90,0,0
96019,-76.9230769230769,4,2,1,90,0,1
96353,-76.9230769230769,4,2,1,90,0,0
97353,-76.9230769230769,4,2,1,90,0,1
97686,-76.9230769230769,4,2,1,90,0,0
98686,-76.9230769230769,4,2,1,90,0,1
99353,-100,4,2,1,90,0,1
100019,-76.9230769230769,4,2,1,90,0,1
100519,-100,4,2,1,90,0,1
101353,-76.9230769230769,4,2,1,90,0,1
102019,-100,4,2,1,90,0,1
102686,-76.9230769230769,4,2,1,90,0,1
103353,-100,4,2,1,90,0,1
104019,-76.9230769230769,4,2,1,90,0,1
104686,-100,4,2,1,90,0,1
105353,-76.9230769230769,4,2,1,90,0,1
105853,-100,4,2,1,90,0,1
106186,-100,4,2,2,90,0,1
106686,-100,4,2,2,90,0,0

[Colours]
Combo1 : 255,0,0
Combo2 : 255,100,26
Combo3 : 81,168,255
Combo4 : 243,171,1

[HitObjects]
484,348,10019,5,0,3:0:0:0:
411,305,10186,1,8,2:0:0:0:
339,349,10353,1,0,3:0:0:0:
325,345,10436,1,0,3:0:0:0:
312,341,10519,2,0,L|278:331,1,35,0|0,3:0|3:0,2:0:0:0:
264,328,10686,6,0,L|289:239,1,69.9999999999999,0|0,3:0|2:0,2:0:0:0:
340,198,11019,2,0,L|272:178,1,69.9999999999999,8|2,2:0|2:0,2:0:0:0:
207,125,11353,2,0,P|245:141|324:83,1,140,0|8,3:0|2:0,2:0:0:0:
377,29,11853,1,0,2:0:0:0:
431,92,12019,2,0,L|411:159,1,69.9999999999999,0|0,3:0|2:0,2:0:0:0:
470,219,12353,2,0,L|489:286,1,69.9999999999999,8|2,2:0|2:0,2:0:0:0:
438,354,12686,2,0,B|405:373|364:353|379:335|345:317|308:333,1,140,0|8,3:0|2:0,2:0:0:0:
230,363,13186,1,0,2:0:0:0:
159,317,13353,6,0,L|139:249,1,69.9999999999999,0|0,3:0|2:0,2:0:0:0:
202,193,13686,2,0,L|221:260,1,69.9999999999999,10|0,2:0|2:0,2:0:0:0:
285,206,14019,2,0,L|265:138,1,69.9999999999999,0|0,3:0|2:0,2:0:0:0:
244,57,14353,1,10,2:0:0:0:
244,57,14519,1,0,2:0:0:0:
168,95,14686,2,0,P|132:103|91:83,1,69.9999999999999,0|0,3:0|2:0,2:0:0:0:
104,7,15019,2,0,P|140:-1|181:19,1,69.9999999999999,8|2,2:0|2:0,2:0:0:0:
244,57,15353,1,0,3:0:0:0:
314,10,15519,1,0,3:0:0:0:
375,67,15686,1,8,2:0:0:0:
371,81,15769,1,0,3:0:0:0:
367,94,15853,1,0,3:0:0:0:
306,153,16019,6,0,L|325:220,1,69.9999999999999,0|0,3:0|2:0,2:0:0:0:
383,280,16353,2,0,L|315:299,1,69.9999999999999,8|2,2:0|2:0,2:0:0:0:
252,355,16686,2,0,L|213:220,1,140,0|8,3:0|2:0,2:0:0:0:
154,160,17186,1,0,2:0:0:0:
93,217,17353,2,0,P|74:167|84:123,1,69.9999999999999,0|0,3:0|2:0,2:0:0:0:
59,68,17686,2,0,P|111:76|144:107,1,69.9999999999999,8|2,2:0|2:0,2:0:0:0:
201,111,18019,2,0,P|167:152|124:165,1,69.9999999999999,0|0,3:0|2:0,2:0:0:0:
74,151,18353,1,8,2:0:0:0:
74,151,18519,1,0,2:0:0:0:
7,202,18686,6,0,L|26:269,1,69.9999999999999,0|0,3:0|2:0,2:0:0:0:
91,321,19019,2,0,L|110:253,1,69.9999999999999,10|0,2:0|2:0,2:0:0:0:
169,194,19353,2,0,L|207:328,1,140,0|10,3:0|2:0,2:0:0:0:
282,366,19853,1,0,2:0:0:0:
344,309,20019,2,0,P|377:296|423:320,1,69.9999999999999,0|0,3:0|2:0,2:0:0:0:
475,356,20353,1,8,2:0:0:0:
475,356,20519,1,2,2:0:0:0:
407,305,20686,2,0,P|382:253|427:202,1,105,0|0,3:0|2:0,2:0:0:0:
414,208,21019,2,0,P|439:156|394:105,1,105,8|0,2:0|2:0,2:0:0:0:
413,100,21353,6,0,L|345:119,1,69.9999999999999,2|0,3:2|2:0,2:0:0:0:
285,179,21686,2,0,L|217:159,1,69.9999999999999,10|0,2:0|2:0,2:0:0:0:
202,76,22019,2,0,L|269:95,1,69.9999999999999,2|0,3:2|2:0,2:0:0:0:
332,39,22353,2,0,L|399:19,1,69.9999999999999,10|0,2:0|2:0,2:0:0:0:
483,7,22686,2,0,L|463:74,1,69.9999999999999,2|0,3:2|2:0,2:0:0:0:
406,135,23019,1,10,2:0:0:0:
458,200,23186,1,2,2:0:0:0:
387,245,23353,1,2,3:2:0:0:
387,245,23519,1,2,2:0:0:0:
446,304,23686,2,0,B|420:318|389:303|401:289|375:275|347:288,1,105,10|0,2:0|2:0,2:0:0:0:
337,295,24019,6,0,L|269:275,1,69.9999999999999,2|0,3:2|2:0,2:0:0:0:
207,218,24353,2,0,L|139:237,1,69.9999999999999,10|0,2:0|2:0,2:0:0:0:
73,289,24686,2,0,L|53:221,1,69.9999999999999,2|0,3:2|2:0,2:0:0:0:
102,153,25019,1,10,2:0:0:0:
102,153,25186,1,2,2:0:0:0:
41,94,25353,2,0,P|88:67|158:88,1,105,2|0,3:2|2:0,2:0:0:0:
146,83,25686,1,8,2:0:0:0:
194,151,25853,1,0,2:0:0:0:
150,223,26019,2,0,L|169:290,1,69.9999999999999,2|2,3:2|3:2,2:0:0:0:
202,367,26353,1,10,2:0:0:0:
216,363,26436,1,0,3:0:0:0:
229,359,26519,1,0,3:0:0:0:
286,296,26686,6,0,L|353:315,1,69.9999999999999,2|0,3:2|2:0,2:0:0:0:
406,250,27019,2,0,L|338:230,1,69.9999999999999,10|0,2:0|2:0,2:0:0:0:
384,160,27353,2,0,L|451:179,1,69.9999999999999,2|0,3:2|2:0,2:0:0:0:
477,99,27686,1,10,2:0:0:0:
463,95,27769,1,0,3:0:0:0:
450,91,27852,1,0,3:0:0:0:
408,17,28019,2,0,P|361:9|309:48,1,105,2|0,3:2|2:0,2:0:0:0:
309,51,28353,1,10,2:0:0:0:
237,94,28519,1,2,2:0:0:0:
168,48,28686,1,2,3:2:0:0:
168,48,28853,1,2,2:0:0:0:
107,106,29019,2,0,L|136:208,1,105,10|0,2:0|2:0,2:0:0:0:
139,220,29353,6,0,P|103:212|62:232,1,69.9999999999999,2|2,3:2|2:0,2:0:0:0:
75,308,29686,2,0,P|111:316|152:296,1,69.9999999999999,10|2,2:0|2:0,2:0:0:0:
213,261,30019,2,0,P|245:250|279:258,1,69.9999999999999,2|0,3:2|2:0,2:0:0:0:
350,304,30353,1,10,2:0:0:0:
364,300,30436,1,0,3:0:0:0:
377,296,30519,1,0,3:0:0:0:
437,236,30686,2,0,L|408:134,1,105,2|0,3:2|2:0,2:0:0:0:
404,121,31019,1,10,2:0:0:0:
455,54,31186,1,2,2:0:0:0:
373,51,31353,2,0,L|322:36,1,35,2|0,3:2|2:0,2:0:0:0:
325,37,31519,1,10,2:0:0:0:
259,90,31686,1,2,3:2:0:0:
245,94,31769,1,0,3:0:0:0:
232,98,31853,2,0,L|198:108,1,35,0|0,3:0|3:0,2:0:0:0:
184,111,32019,6,0,P|179:153|197:101,1,200,6|0,3:0|2:0,2:0:0:0:
426,221,33353,2,0,P|432:279|407:207,1,300,2|0,3:0|2:0,2:0:0:0:
147,239,34686,6,0,P|144:260|153:233,1,89.9999999999998,2|0,3:0|2:0,2:0:0:0:
155,235,35019,2,0,P|151:268|165:227,1,150,2|0,3:0|2:0,2:0:0:0:
165,236,35353,2,0,P|158:293|182:222,1,280,2|0,3:0|2:0,2:0:0:0:
38,36,37353,6,0,B|73:56|114:46|114:46|61:150|61:150|99:146|138:172,1,260,6|0,3:0|2:0,2:0:0:0:
209,213,37853,1,0,2:0:0:0:
209,213,38019,2,0,L|311:184,1,100,8|0,2:0|2:0,2:0:0:0:
372,112,38353,1,0,2:0:0:0:
430,193,38519,2,0,L|415:245,1,50,0|0,3:0|2:0,2:0:0:0:
412,267,38686,6,0,B|348:232|271:269|301:303|237:338|168:306,1,260,2|0,3:0|2:0,2:0:0:0:
88,252,39186,1,0,2:0:0:0:
88,252,39353,2,0,L|117:150,1,100,8|0,2:0|2:0,2:0:0:0:
50,82,39686,1,0,2:0:0:0:
139,38,39853,1,0,2:0:0:0:
218,105,40019,6,0,B|288:151|392:135|392:135|347:159|344:202,1,260,2|0,3:0|2:0,2:0:0:0:
440,223,40519,1,0,2:0:0:0:
440,223,40686,2,0,L|411:323,1,100,8|0,2:0|2:0,2:0:0:0:
324,361,41019,1,0,2:0:0:0:
231,322,41186,1,8,2:0:0:0:
134,358,41353,6,0,P|181:306|41:261,1,260,2|0,3:0|2:0,2:0:0:0:
26,139,41853,2,0,L|39:90,1,50,2|0,3:0|2:0,2:0:0:0:
30,72,42019,2,0,L|130:100,1,100,8|0,2:0|2:0,2:0:0:0:
221,127,42353,1,0,2:0:0:0:
221,127,42519,1,0,2:0:0:0:
260,223,42686,6,0,B|324:258|401:221|371:187|435:152|504:184,1,260,6|0,3:0|2:0,2:0:0:0:
298,96,44019,6,0,B|234:131|157:94|187:60|123:25|54:57,1,260,2|0,3:0|2:0,2:0:0:0:
437,95,45353,6,0,B|477:72|464:18|464:18|504:84|501:138|453:184,1,260,2|0,3:0|2:0,2:0:0:0:
379,234,45853,1,0,2:0:0:0:
379,234,46019,2,0,L|278:205,1,100,8|0,2:0|2:0,2:0:0:0:
189,170,46353,1,0,2:0:0:0:
269,110,46519,1,8,2:0:0:0:
170,76,46686,6,0,B|121:80|66:28|66:28|103:90|79:168,1,260,2|0,3:0|2:0,2:0:0:0:
20,245,47186,2,0,L|33:293,1,50,2|0,3:0|2:0,2:0:0:0:
20,308,47353,2,0,L|120:279,1,100,8|0,2:0|2:0,2:0:0:0:
214,257,47686,1,0,2:0:0:0:
214,257,47853,1,0,2:0:0:0:
294,323,48019,6,0,P|362:356|357:212,1,260,2|0,3:0|2:0,2:0:0:0:
317,155,48519,1,0,2:0:0:0:
317,155,48686,2,0,L|344:58,1,100,8|0,2:0|2:0,2:0:0:0:
432,10,49019,1,0,2:0:0:0:
499,84,49186,2,0,L|485:132,1,50,0|0,3:0|2:0,2:0:0:0:
480,157,49353,6,0,B|276:91|449:152|224:83,1,260,2|0,3:0|2:0,2:0:0:0:
160,13,49853,1,0,2:0:0:0:
160,13,50019,2,0,L|132:109,1,100,8|0,2:0|2:0,2:0:0:0:
53,171,50353,1,0,2:0:0:0:
107,255,50519,1,0,2:0:0:0:
24,319,50686,6,0,B|96:268|153:309|153:309|203:394|288:301,1,260,2|0,3:0|2:0,2:0:0:0:
333,272,51186,1,0,2:0:0:0:
333,272,51353,2,0,L|429:300,1,100,8|0,2:0|2:0,2:0:0:0:
507,237,51686,1,0,2:0:0:0:
427,177,51853,2,0,L|441:129,1,50,8|0,2:0|2:0,2:0:0:0:
449,104,52019,6,0,B|388:114|344:85|344:85|310:46|310:46|264:8|203:20,1,260,2|0,3:0|2:0,2:0:0:0:
141,82,52519,2,0,L|155:130,1,50,2|0,3:0|2:0,2:0:0:0:
162,148,52686,1,8,2:0:0:0:
81,206,52853,1,8,2:0:0:0:
166,257,53019,1,0,3:0:0:0:
160,277,53103,1,0,3:0:0:0:
154,296,53186,2,0,L|140:344,1,50,0|0,3:0|3:0,2:0:0:0:
136,361,53353,5,8,2:0:0:0:
216,337,53686,1,8,2:0:0:0:
296,311,54019,1,8,2:0:0:0:
376,286,54353,1,8,2:0:0:0:
397,204,54686,5,8,2:0:0:0:
317,229,55019,1,8,2:0:0:0:
237,255,55353,1,8,2:0:0:0:
157,279,55686,1,8,2:0:0:0:
97,219,56019,5,8,2:0:0:0:
177,195,56353,1,8,2:0:0:0:
257,169,56686,1,8,2:0:0:0:
337,144,57019,1,8,2:0:0:0:
353,61,57353,5,8,2:0:0:0:
273,86,57686,1,8,2:0:0:0:
193,112,58019,1,8,2:0:0:0:
113,136,58353,1,8,2:0:0:0:
31,113,58686,5,8,2:0:0:0:
55,193,59019,1,8,2:0:0:0:
81,273,59353,1,8,2:0:0:0:
106,353,59686,1,8,2:0:0:0:
188,376,60019,5,8,2:0:0:0:
163,296,60353,1,8,2:0:0:0:
137,216,60686,1,8,2:0:0:0:
113,136,61019,1,8,2:0:0:0:
170,74,61353,5,8,2:0:0:0:
194,154,61686,1,8,2:0:0:0:
220,234,62019,1,8,2:0:0:0:
245,314,62353,1,8,2:0:0:0:
327,332,62686,5,8,2:0:0:0:
302,252,63019,1,8,2:0:0:0:
276,172,63353,5,8,2:0:0:0:
358,187,63519,1,8,2:0:0:0:
440,171,63686,1,0,3:0:0:0:
436,157,63769,1,0,3:0:0:0:
432,144,63853,2,0,L|422:110,1,35,0|0,3:0|3:0,2:0:0:0:
419,96,64019,6,0,L|314:66,1,105,2|0,3:2|2:0,2:0:0:0:
306,59,64353,2,0,L|201:88,1,105,10|0,2:0|2:0,2:0:0:0:
195,98,64686,2,0,L|90:68,1,105,2|0,3:2|2:0,2:0:0:0:
80,66,65019,1,10,2:0:0:0:
23,128,65186,1,2,2:0:0:0:
84,184,65353,2,0,L|65:251,1,69.9999999999999,2|2,3:2|2:0,2:0:0:0:
6,313,65686,2,0,L|73:332,1,69.9999999999999,10|2,2:0|2:0,2:0:0:0:
145,375,66019,2,0,L|212:356,1,69.9999999999999,2|0,3:2|2:0,2:0:0:0:
293,333,66353,1,10,2:0:0:0:
293,333,66519,1,2,2:0:0:0:
229,278,66686,6,0,P|207:221|218:168,1,105,2|0,3:2|2:0,2:0:0:0:
221,167,67019,2,0,P|243:110|232:57,1,105,10|0,2:0|2:0,2:0:0:0:
231,54,67353,2,0,L|298:73,1,69.9999999999999,2|2,3:2|2:0,2:0:0:0:
382,61,67686,2,0,L|363:128,1,69.9999999999999,10|2,2:0|2:0,2:0:0:0:
425,184,68019,2,0,L|444:251,1,69.9999999999999,2|2,3:2|2:0,2:0:0:0:
400,323,68353,1,10,2:0:0:0:
400,323,68519,1,2,2:0:0:0:
329,276,68686,2,0,L|262:295,1,69.9999999999999,2|0,3:2|3:0,2:0:0:0:
194,345,69019,1,10,2:0:0:0:
180,341,69103,1,0,3:0:0:0:
167,337,69186,1,2,3:2:0:0:
101,283,69353,6,0,L|130:178,1,105,2|0,3:2|2:0,2:0:0:0:
133,168,69686,2,0,L|237:197,1,105,10|0,2:0|2:0,2:0:0:0:
246,202,70019,2,0,L|275:97,1,105,2|0,3:2|2:0,2:0:0:0:
279,87,70353,1,10,2:0:0:0:
201,55,70519,1,2,2:0:0:0:
127,95,70686,2,0,P|91:103|50:83,1,69.9999999999999,2|2,3:2|2:0,2:0:0:0:
63,7,71019,2,0,P|99:-1|140:19,1,69.9999999999999,10|2,2:0|2:0,2:0:0:0:
201,55,71353,2,0,L|268:36,1,69.9999999999999,2|0,3:2|2:0,2:0:0:0:
349,11,71686,1,10,2:0:0:0:
349,11,71853,1,2,2:0:0:0:
426,42,72019,6,0,P|464:110|446:161,1,105,2|0,3:2|2:0,2:0:0:0:
454,145,72353,2,0,L|387:126,1,69.9999999999999,10|2,2:0|2:0,2:0:0:0:
336,193,72686,2,0,L|403:212,1,69.9999999999999,2|2,3:2|2:0,2:0:0:0:
460,274,73019,1,10,2:0:0:0:
460,274,73186,1,2,2:0:0:0:
404,336,73353,2,0,L|337:355,1,69.9999999999999,2|2,3:2|2:0,2:0:0:0:
262,314,73686,1,10,2:0:0:0:
262,314,73853,1,2,2:0:0:0:
186,352,74019,2,0,L|119:333,1,69.9999999999999,2|0,3:2|2:0,2:0:0:0:
84,255,74353,1,10,2:0:0:0:
88,241,74436,1,0,3:0:0:0:
92,228,74519,1,0,3:0:0:0:
152,170,74686,6,0,P|206:162|235:190,1,69.9999978637696,2|2,3:2|2:0,2:0:0:0:
289,210,75019,2,0,P|343:218|372:190,1,69.9999999999999,10|2,2:0|2:0,2:0:0:0:
354,127,75353,2,0,P|321:116|288:128,1,69.9999999999999,2|0,3:2|2:0,2:0:0:0:
217,168,75686,1,10,2:0:0:0:
217,168,75853,1,2,2:0:0:0:
158,107,76019,2,0,L|177:40,1,69.9999999999999,2|2,3:2|2:0,2:0:0:0:
95,17,76353,2,0,L|76:84,1,69.9999999999999,10|2,2:0|2:0,2:0:0:0:
19,147,76686,2,0,L|38:214,1,69.9999999999999,2|0,3:2|2:0,2:0:0:0:
111,264,77019,1,10,2:0:0:0:
111,264,77186,1,2,2:0:0:0:
168,202,77353,6,0,L|235:183,1,69.9999999999999,2|2,3:2|2:0,2:0:0:0:
319,193,77686,2,0,L|300:126,1,69.9999999999999,10|2,2:0|2:0,2:0:0:0:
245,61,78019,2,0,L|312:42,1,69.9999999999999,2|0,3:2|2:0,2:0:0:0:
396,20,78353,1,10,2:0:0:0:
396,20,78519,1,2,2:0:0:0:
459,74,78686,2,0,P|475:113|461:161,1,69.9999999999999,2|2,3:2|2:0,2:0:0:0:
400,183,79019,2,0,P|384:222|398:270,1,69.9999999999999,10|2,2:0|2:0,2:0:0:0:
430,321,79353,1,2,3:2:0:0:
430,321,79519,1,0,3:0:0:0:
348,342,79686,1,8,2:0:0:0:
334,338,79769,1,0,3:0:0:0:
321,334,79853,1,0,3:0:0:0:
259,276,80019,6,0,L|192:295,1,69.9999999999999,2|2,3:2|2:0,2:0:0:0:
109,314,80353,1,10,2:0:0:0:
109,314,80519,1,2,2:0:0:0:
31,281,80686,2,0,L|59:179,1,105,2|0,3:2|2:0,2:0:0:0:
64,166,81019,2,0,P|101:183|137:167,1,69.9999999999999,10|0,2:0|2:0,2:0:0:0:
210,160,81353,2,0,L|191:93,1,69.9999999999999,2|2,3:2|2:0,2:0:0:0:
172,10,81686,1,10,2:0:0:0:
172,10,81853,1,2,2:0:0:0:
251,38,82019,2,0,P|298:58|345:39,1,105,2|0,3:2|2:0,2:0:0:0:
356,30,82353,2,0,L|337:97,1,69.9999999999999,10|0,2:0|2:0,2:0:0:0:
358,179,82686,5,8,2:0:0:0:
278,155,83019,1,8,2:0:0:0:
198,129,83353,1,8,2:0:0:0:
118,104,83686,1,8,2:0:0:0:
59,164,84019,5,8,2:0:0:0:
139,189,84353,1,8,2:0:0:0:
219,215,84686,5,0,3:0:0:0:
156,271,84853,1,8,2:0:0:0:
223,321,85019,1,8,3:2:0:0:
237,317,85103,1,0,3:0:0:0:
250,313,85186,2,0,L|284:303,1,35,0|0,3:0|3:0,2:0:0:0:
307,293,85353,6,0,P|302:335|320:283,1,200,6|0,3:0|2:0,2:0:0:0:
108,152,86687,2,0,P|102:210|127:138,1,300,2|0,3:0|2:0,2:0:0:0:
422,98,88020,6,0,P|425:77|416:104,1,89.9999999999998,2|0,3:0|2:0,2:0:0:0:
414,102,88353,2,0,P|418:69|404:110,1,150,2|0,3:0|2:0,2:0:0:0:
404,101,88687,2,0,P|411:44|387:115,1,280,2|0,3:0|2:0,2:0:0:0:
492,360,90686,6,0,B|472:325|482:284|482:284|378:337|378:337|382:299|356:260,1,260,6|0,3:0|2:0,2:0:0:0:
300,197,91186,1,0,2:0:0:0:
300,197,91353,2,0,L|203:224,1,100,8|0,2:0|2:0,2:0:0:0:
123,284,91686,1,0,2:0:0:0:
53,212,91853,2,0,L|66:163,1,50,0|0,3:0|2:0,2:0:0:0:
77,139,92019,6,0,B|145:125|152:41|152:41|156:130|251:135,1,260,2|0,3:0|2:0,2:0:0:0:
256,36,92519,1,0,2:0:0:0:
256,36,92686,2,0,L|353:63,1,100,8|0,2:0|2:0,2:0:0:0:
435,6,93019,1,0,2:0:0:0:
477,103,93186,1,0,2:0:0:0:
385,151,93353,6,0,B|361:231|371:294|393:331|444:350|461:263|413:209,1,260,2|0,3:0|2:0,2:0:0:0:
358,307,93853,1,0,2:0:0:0:
358,307,94019,2,0,L|261:280,1,100,8|0,2:0|2:0,2:0:0:0:
165,252,94353,1,0,2:0:0:0:
193,348,94519,1,8,2:0:0:0:
90,365,94686,6,0,P|122:268|39:138,1,260,2|0,3:0|2:0,2:0:0:0:
126,82,95186,2,0,L|174:95,1,50,2|0,3:0|2:0,2:0:0:0:
188,109,95353,2,0,L|285:82,1,100,8|0,2:0|2:0,2:0:0:0:
380,52,95686,1,0,2:0:0:0:
380,52,95853,1,0,2:0:0:0:
460,118,96019,6,0,B|405:191|405:191|482:358,1,260,6|0,3:0|2:0,2:0:0:0:
78,255,97353,6,0,B|133:182|133:182|56:15,1,260,2|0,3:0|2:0,2:0:0:0:
472,330,98686,6,0,B|408:365|331:328|361:294|297:259|231:289,1,260,2|0,3:0|2:0,2:0:0:0:
141,330,99186,1,0,2:0:0:0:
141,330,99353,2,0,L|114:233,1,100,8|0,2:0|2:0,2:0:0:0:
28,179,99686,1,0,2:0:0:0:
108,120,99853,1,8,2:0:0:0:
18,65,100019,6,0,P|82:87|300:52,1,260,2|0,3:0|2:0,2:0:0:0:
365,38,100519,2,0,L|351:86,1,50,2|0,3:0|2:0,2:0:0:0:
349,106,100686,2,0,L|446:79,1,100,8|0,2:0|2:0,2:0:0:0:
481,172,101019,1,0,2:0:0:0:
401,233,101186,1,0,2:0:0:0:
311,181,101353,6,0,B|241:227|137:211|137:211|182:235|185:278,1,260,2|0,3:0|2:0,2:0:0:0:
266,336,101853,1,0,2:0:0:0:
266,336,102019,2,0,L|363:309,1,100,8|0,2:0|2:0,2:0:0:0:
441,371,102353,1,0,2:0:0:0:
498,289,102519,2,0,L|484:240,1,50,0|0,3:0|2:0,2:0:0:0:
482,214,102686,6,0,B|278:148|451:209|232:141,1,260,2|0,3:0|2:0,2:0:0:0:
166,73,103186,1,0,2:0:0:0:
166,73,103353,2,0,L|69:100,1,100,8|0,2:0|2:0,2:0:0:0:
11,181,103686,1,0,2:0:0:0:
85,247,103853,1,0,2:0:0:0:
10,319,104019,6,0,B|82:268|139:309|139:309|189:394|274:301,1,260,2|0,3:0|2:0,2:0:0:0:
313,265,104519,1,0,2:0:0:0:
313,265,104686,2,0,L|286:168,1,100,8|0,2:0|2:0,2:0:0:0:
202,113,105019,1,0,2:0:0:0:
285,57,105186,1,8,2:0:0:0:
363,125,105353,6,0,P|427:152|379:54,1,260,2|0,3:0|2:0,2:0:0:0:
285,57,105853,2,0,L|236:43,1,50,2|0,3:0|2:0,2:0:0:0:
217,38,106019,1,8,2:0:0:0:
128,84,106186,1,8,2:0:0:0:
54,16,106353,1,0,3:0:0:0:
48,36,106436,1,0,3:0:0:0:
42,55,106519,2,0,L|28:103,1,50,0|0,3:0|3:0,2:0:0:0:
