osu file format v14

[General]
AudioFilename: audio.mp3
AudioLeadIn: 0
PreviewTime: 53019
Countdown: 0
SampleSet: Soft
StackLeniency: 0.7
Mode: 0
LetterboxInBreaks: 0
WidescreenStoryboard: 1

[Editor]
Bookmarks: 28686,32019,42478,53353,64019,74686,85353,106686
DistanceSpacing: 1.1
BeatDivisor: 8
GridSize: 8
TimelineZoom: 3.099999

[Metadata]
Title:riddle
TitleUnicode:riddle
Artist:midwxst
ArtistUnicode:midwxst
Creator:v0ltia
Version:0pp's u hav lovely words?
Source:
Tags:hip-hop hyperpop hip hop english 0pp 0ppinosu voltia we_vibing xx A3THER_XX
BeatmapID:3513037
BeatmapSetID:1695218

[Difficulty]
HPDrainRate:5.5
CircleSize:4
OverallDifficulty:8.7
ApproachRate:9.2
SliderMultiplier:2.22
SliderTickRate:1

[Events]
//Background and Video events
0,0,"jr-korpa-zXprpYmBbPQ-unsplash.jpg",0,0
//Break Periods
//Storyboard Layer 0 (Background)
//Storyboard Layer 1 (Fail)
//Storyboard Layer 2 (Pass)
//Storyboard Layer 3 (Foreground)
//Storyboard Layer 4 (Overlay)
//Storyboard Sound Samples

[TimingPoints]
20,333.333333333333,4,2,2,50,1,0
10686,-111.111111111111,4,2,2,50,0,0
21353,-111.111111111111,4,2,2,60,0,0
32019,-55.5555555555556,4,2,1,90,0,1
32353,-66.6666666666667,4,2,1,90,0,0
33353,-47.6190476190476,4,2,1,90,0,1
33686,-83.3333333333333,4,2,1,90,0,1
33853,-111.111111111111,4,2,1,90,0,0
34686,-55.5555555555556,4,2,1,90,0,1
34936,-55.5555555555556,4,2,1,90,0,0
35019,-55.5555555555556,4,2,1,90,0,1
35269,-55.5555555555556,4,2,1,90,0,0
35353,-55.5555555555556,4,2,1,90,0,1
35686,-55.5555555555556,4,2,1,90,0,0
37019,-333.333333333333,4,2,1,90,0,0
37353,-47.6190476190476,4,2,1,90,0,1
37686,-55.5555555555556,4,2,1,90,0,1
38019,-111.111111111111,4,2,1,90,0,1
38519,-66.6666666666667,4,2,1,90,0,1
38686,-47.6190476190476,4,2,1,90,0,1
39186,-66.6666666666667,4,2,1,90,0,1
39353,-111.111111111111,4,2,1,90,0,1
40019,-55.5555555555556,4,2,1,90,0,1
40436,-66.6666666666667,4,2,1,90,0,1
40686,-83.3333333333333,4,2,1,90,0,1
41019,-166.666666666667,4,2,1,90,0,1
41186,-83.3333333333333,4,2,1,90,0,1
41353,-47.6190476190476,4,2,1,90,0,1
42019,-66.6666666666667,4,2,1,90,0,1
42353,-66.6666666666667,4,2,1,90,0,0
42686,-66.6666666666667,4,2,1,90,0,1
43019,-333.333333333333,4,2,1,90,0,0
43186,-166.666666666667,4,2,1,90,0,0
44019,-55.5555555555556,4,2,1,90,0,1
44353,-333.333333333333,4,2,1,90,0,0
44519,-166.666666666667,4,2,1,90,0,0
45353,-47.6190476190476,4,2,1,90,0,1
45686,-333.333333333333,4,2,1,90,0,1
46019,-66.6666666666667,4,2,1,90,0,1
46519,-111.111111111111,4,2,1,90,0,1
46686,-47.6190476190476,4,2,1,90,0,1
47769,-111.111111111111,4,2,1,90,0,1
48019,-47.6190476190476,4,2,1,90,0,1
48686,-100,4,2,1,90,0,1
49186,-47.6190476190476,4,2,1,90,0,1
49686,-83.3333333333333,4,2,1,90,0,1
50019,-333.333333333333,4,2,1,90,0,1
50353,-111.111111111111,4,2,1,90,0,1
50686,-47.6190476190476,4,2,1,90,0,1
51103,-55.5555555555556,4,2,1,90,0,1
51603,-66.6666666666667,4,2,1,90,0,1
52019,-47.6190476190476,4,2,1,90,0,1
52686,-111.111111111111,4,2,1,90,0,1
52853,-111.111111111111,4,2,2,90,0,1
53353,-111.111111111111,4,2,3,38,0,0
54353,-333.333333333333,4,2,3,38,0,0
63519,-333.333333333333,4,2,2,50,0,0
63686,-111.111111111111,4,2,2,50,0,0
74686,-111.111111111111,4,2,2,60,0,0
82686,-333.333333333332,4,2,3,38,0,0
83353,-166.666666666666,4,2,3,38,0,0
84686,-111.111111111111,4,2,2,50,0,0
85353,-55.5555555555556,4,2,1,90,0,1
85686,-66.6666666666667,4,2,1,90,0,0
86686,-47.6190476190476,4,2,1,90,0,1
87019,-83.3333333333333,4,2,1,90,0,1
87186,-111.111111111111,4,2,1,90,0,0
88019,-55.5555555555556,4,2,1,90,0,1
88269,-55.5555555555556,4,2,1,90,0,0
88353,-55.5555555555556,4,2,1,90,0,1
88603,-55.5555555555556,4,2,1,90,0,0
88686,-55.5555555555556,4,2,1,90,0,1
89019,-55.5555555555556,4,2,1,90,0,0
90353,-333.333333333333,4,2,1,90,0,0
90686,-47.6190476190476,4,2,1,90,0,1
91019,-55.5555555555556,4,2,1,90,0,1
91353,-111.111111111111,4,2,1,90,0,1
91853,-66.6666666666667,4,2,1,90,0,1
92019,-47.6190476190476,4,2,1,90,0,1
92353,-83.3333333333333,4,2,1,90,0,1
93353,-55.5555555555556,4,2,1,90,0,1
93769,-66.6666666666667,4,2,1,90,0,1
94019,-83.3333333333333,4,2,1,90,0,1
94353,-166.666666666667,4,2,1,90,0,1
94519,-83.3333333333333,4,2,1,90,0,1
94686,-47.6190476190476,4,2,1,90,0,1
95353,-66.6666666666667,4,2,1,90,0,1
95686,-66.6666666666667,4,2,1,90,0,0
96019,-66.6666666666667,4,2,1,90,0,1
96353,-333.333333333333,4,2,1,90,0,0
96519,-111.111111111111,4,2,1,90,0,0
97353,-55.5555555555556,4,2,1,90,0,1
97686,-333.333333333333,4,2,1,90,0,0
97853,-166.666666666667,4,2,1,90,0,0
98686,-47.6190476190476,4,2,1,90,0,1
99019,-333.333333333333,4,2,1,90,0,1
99353,-66.6666666666667,4,2,1,90,0,1
99853,-111.111111111111,4,2,1,90,0,1
100019,-47.6190476190476,4,2,1,90,0,1
101103,-333.333333333332,4,2,1,90,0,1
101353,-47.6190476190476,4,2,1,90,0,1
101769,-66.6666666666667,4,2,1,90,0,1
102019,-111.111111111111,4,2,1,90,0,1
102519,-47.6190476190476,4,2,1,90,0,1
103019,-83.3333333333333,4,2,1,90,0,1
103353,-333.333333333333,4,2,1,90,0,1
103769,-111.111111111111,4,2,1,90,0,1
104019,-47.6190476190476,4,2,1,90,0,1
104353,-55.5555555555556,4,2,1,90,0,1
104936,-66.6666666666667,4,2,1,90,0,1
105353,-47.6190476190476,4,2,1,90,0,1
106019,-111.111111111111,4,2,1,90,0,1
106186,-111.111111111111,4,2,2,90,0,1
106686,-111.111111111111,4,2,2,90,0,0

[Colours]
Combo1 : 255,0,0
Combo2 : 255,100,26
Combo3 : 81,168,255
Combo4 : 243,171,1

[HitObjects]
107,44,10019,5,0,3:0:0:0:
295,91,10186,1,8,2:0:0:0:
46,143,10353,6,0,P|58:117|84:120,1,55.5,0|0,3:0|3:0,2:0:0:0:
184,38,10519,2,0,P|210:28|227:48,1,55.5,0|0,3:0|3:0,2:0:0:0:
284,97,10686,6,0,L|242:249,1,149.85,0|0,3:0|2:0,2:0:0:0:
190,305,11019,2,0,P|164:282|177:207,1,99.9000000000001,8|2,2:0|2:0,2:0:0:0:
408,269,11353,2,0,P|312:294|248:368,1,199.8,0|8,3:0|2:0,2:0:0:0:
459,210,11853,1,0,2:0:0:0:
459,210,12019,6,0,P|485:233|472:308,1,99.9000000000001,0|0,3:0|2:0,2:0:0:0:
377,189,12353,2,0,L|401:79,1,99.9000000000001,8|2,2:0|2:0,2:0:0:0:
497,0,12686,2,0,P|415:54|316:54,1,199.8,0|8,3:0|2:0,2:0:0:0:
260,0,13186,1,0,2:0:0:0:
398,91,13353,6,0,L|376:188,1,99.9000000000001,0|0,3:0|2:0,2:0:0:0:
246,164,13686,2,0,L|224:261,1,99.9000000000001,10|0,2:0|2:0,2:0:0:0:
113,309,14019,1,0,3:0:0:0:
67,250,14186,1,0,2:0:0:0:
135,212,14353,5,10,2:0:0:0:
135,212,14464,5,2,2:0:0:0:
289,315,14686,6,0,P|266:341|191:328,1,99.9000000000001,0|0,3:0|2:0,2:0:0:0:
0,115,15019,2,0,P|34:121|60:193,1,99.9000000000001,8|2,2:0|2:0,2:0:0:0:
91,379,15353,6,0,P|56:360|49:343,1,49.9500000000001,0|0,3:0|2:0,2:0:0:0:
224,261,15519,2,0,P|212:223|218:205,1,49.9500000000001,0|0,3:0|2:0,2:0:0:0:
401,268,15686,2,0,P|418:232|435:224,2,49.9500000000001,8|0|0,2:0|3:0|3:0,2:0:0:0:
289,314,16019,6,0,P|252:345|204:340,1,99.9000000000001,0|0,3:0|2:0,2:0:0:0:
269,152,16353,1,8,2:0:0:0:
298,231,16519,1,2,2:0:0:0:
141,282,16686,2,0,P|97:227|-5:218,1,149.85,0|0,3:0|2:0,2:0:0:0:
0,288,17019,6,0,L|34:388,1,99.9000000000001,8|0,2:0|2:0,2:0:0:0:
203,339,17353,2,0,P|245:313|265:269,1,99.9000000000001,0|0,3:0|2:0,2:0:0:0:
22,210,17686,1,8,2:0:0:0:
98,231,17853,1,2,2:0:0:0:
152,100,18019,2,0,L|5:130,1,149.85,0|0,3:0|2:0,2:0:0:0:
131,124,18353,5,8,2:0:0:0:
153,119,18464,5,2,2:0:0:0:
426,334,18686,6,0,L|328:313,1,99.9000000000001,0|0,3:0|2:0,2:0:0:0:
465,208,19019,2,0,P|504:259|483:310,1,99.9000000000001,10|0,2:0|2:0,2:0:0:0:
260,362,19353,2,0,P|213:308|106:286,1,149.85,0|0,3:0|2:0,2:0:0:0:
126,295,19686,1,10,2:0:0:0:
112,370,19853,1,0,2:0:0:0:
222,254,20019,6,0,P|223:205|188:171,1,99.9000000000001,0|0,3:0|2:0,2:0:0:0:
107,201,20353,2,0,P|105:249|140:283,1,99.9000000000001,8|2,2:0|2:0,2:0:0:0:
304,286,20686,2,0,P|339:252|338:204,1,99.9000000000001,0|0,3:0|2:0,2:0:0:0:
112,370,21019,1,8,2:0:0:0:
337,203,21353,6,0,L|317:95,1,99.9000000000001,2|0,3:2|2:0,2:0:0:0:
107,201,21686,2,0,L|87:93,1,99.9000000000001,10|0,2:0|2:0,2:0:0:0:
328,26,22019,2,0,P|273:108|180:141,2,199.8,2|10|2,3:2|2:0|3:2,2:0:0:0:
253,0,22853,1,0,2:0:0:0:
88,102,23019,2,0,L|107:201,1,99.9000000000001,10|2,2:0|2:0,2:0:0:0:
253,298,23353,2,0,P|238:251|195:230,1,99.9000000000001,2|2,3:2|2:0,2:0:0:0:
24,301,23686,2,0,P|99:285|170:317,1,149.85,10|0,2:0|2:0,2:0:0:0:
177,350,24019,6,0,L|78:368,1,99.9000000000001,2|0,3:2|2:0,2:0:0:0:
293,212,24353,2,0,L|194:230,1,99.9000000000001,10|0,2:0|2:0,2:0:0:0:
339,291,24686,2,0,P|407:318|479:302,1,149.85,2|0,3:2|2:0,2:0:0:0:
386,292,25019,5,10,2:0:0:0:
347,338,25131,5,2,2:0:0:0:
512,384,25353,2,0,L|469:176,1,199.8,2|8,3:2|2:0,2:0:0:0:
405,83,25853,1,0,2:0:0:0:
437,171,26019,6,0,P|472:153|480:137,1,49.9500000000001,2|0,3:2|2:0,2:0:0:0:
317,46,26186,2,0,P|330:8|325:-9,1,49.9500000000001,2|0,3:2|2:0,2:0:0:0:
140,42,26353,2,0,P|124:5|108:-3,2,49.9500000000001,10|0|0,2:0|3:0|3:0,2:0:0:0:
121,124,26686,6,0,P|169:129|206:98,1,99.9000000000001,2|0,3:2|2:0,2:0:0:0:
17,0,27019,2,0,L|46:99,1,99.9000000000001,10|0,2:0|2:0,2:0:0:0:
52,319,27353,2,0,P|32:270|60:179,1,149.85,2|0,3:2|2:0,2:0:0:0:
139,285,27686,6,0,L|129:393,1,99.9000000000001,10|0,2:0|2:0,2:0:0:0:
216,333,28019,2,0,P|243:264|222:194,1,149.85,2|0,3:2|2:0,2:0:0:0:
209,193,28353,1,10,2:0:0:0:
335,290,28519,1,2,2:0:0:0:
510,174,28686,1,2,3:2:0:0:
510,174,28769,2,0,L|364:210,1,149.85,2|10,2:0|2:0,2:0:0:0:
364,209,29353,6,0,P|400:230|424:288,1,99.9000000000001,2|2,3:2|2:0,2:0:0:0:
286,140,29686,2,0,P|317:112|379:107,1,99.9000000000001,10|2,2:0|2:0,2:0:0:0:
335,290,30019,2,0,L|181:257,1,149.85,2|0,3:2|2:0,2:0:0:0:
266,254,30353,5,10,2:0:0:0:
257,300,30464,5,2,2:0:0:0:
34,210,30686,2,0,P|30:137|73:78,1,149.85,2|0,3:2|2:0,2:0:0:0:
146,39,31019,2,0,P|159:72|135:133,1,99.9000000000001,10|2,2:0|2:0,2:0:0:0:
16,15,31353,5,2,3:2:0:0:
219,190,31519,1,10,2:0:0:0:
114,246,31686,1,2,3:2:0:0:
105,242,31769,1,0,3:0:0:0:
105,234,31853,1,0,3:0:0:0:
114,230,31936,1,0,3:0:0:0:
123,238,32019,6,0,B|83:276|9:184|9:184|-12:319|59:315,1,299.7,6|0,3:0|2:0,2:0:0:0:
134,326,32353,2,0,P|252:265|399:245,1,249.75,0|0,2:0|2:0,2:0:0:0:
382,242,33353,6,0,B|331:232|323:285|322:321|421:374|459:391|272:376|162:279|240:181|299:185,1,349.65,2|0,3:0|2:0,2:0:0:0:
313,163,33686,2,0,B|343:147|343:147|320:170,1,66.6,0|0,2:0|2:0,2:0:0:0:
173,285,33853,2,0,P|126:266|78:251,2,99.9000000000001,0|0|0,2:0|2:0|2:0,2:0:0:0:
218,358,34353,1,0,2:0:0:0:
218,358,34519,1,0,2:0:0:0:
41,105,34686,6,0,P|182:56|331:46,1,299.7,2|0,3:0|2:0,2:0:0:0:
79,252,35019,2,0,P|208:178|352:138,1,299.7,2|0,3:0|2:0,2:0:0:0:
140,384,35353,2,0,P|252:286|387:221,1,299.7,2|0,3:0|2:0,2:0:0:0:
387,221,37019,6,0,L|378:242,1,16.65,0|0,2:0|2:0,2:0:0:0:
445,279,37186,1,0,2:0:0:0:
298,147,37353,6,0,B|218:166|219:338|487:354|407:355|314:292|395:220,1,349.65,6|0,3:0|2:0,2:0:0:0:
203,121,37686,6,0,B|186:72|164:171|234:172,1,99.8999999999999,0|0,2:0|2:0,2:0:0:0:
342,207,37853,2,0,B|407:176|471:182|471:182|485:167,1,149.85,0|0,2:0|2:0,2:0:0:0:
512,153,38019,2,0,B|529:95|430:47|430:47|453:84|430:125,1,199.8,8|0,2:0|2:0,2:0:0:0:
353,314,38519,2,0,P|365:274|380:236,1,83.25,0|0,3:0|2:0,2:0:0:0:
199,7,38686,6,0,B|86:88|117:203|266:41|313:36|348:49|382:127,1,349.65,2|0,3:0|2:0,2:0:0:0:
298,147,39019,2,0,B|278:160|278:160|214:139|214:139|206:115,1,116.55,0|0,2:0|2:0,2:0:0:0:
370,25,39186,6,0,P|394:16|369:32,1,83.25,0|0,2:0|2:0,2:0:0:0:
132,138,39353,2,0,B|37:169|-2:47|59:7|66:53,1,199.8,8|0,2:0|2:0,2:0:0:0:
193,190,39853,1,0,2:0:0:0:
86,51,40019,6,0,B|74:78|74:78|161:171|174:333,1,299.7,2|0,3:0|2:0,2:0:0:0:
73,280,40353,1,0,2:0:0:0:
58,270,40436,2,0,B|48:248|-4:251|-4:251|63:225|95:289,1,166.5,0|0,2:0|2:0,2:0:0:0:
378,345,40686,2,0,B|271:390|190:302,1,199.8,8|0,2:0|2:0,2:0:0:0:
160,292,41019,6,0,L|173:325,1,33.2999999999999,0|0,2:0|2:0,2:0:0:0:
344,258,41186,2,0,P|359:214|376:175,1,66.6,8|0,2:0|2:0,2:0:0:0:
148,116,41353,6,0,B|82:150|30:249|45:360|51:255|91:212|199:188,1,349.65,2|0,3:0|2:0,2:0:0:0:
279,19,41686,2,0,B|280:18|194:22|230:99,1,116.55,0|0,2:0|2:0,2:0:0:0:
340,118,41853,2,0,B|367:105|392:53|389:-4|385:58|365:87|310:92,1,174.825,2|0,3:0|2:0,2:0:0:0:
305,142,42019,2,0,B|289:124|289:124|111:114|14:0,2,333,8|0|6,2:0|2:0|3:0,2:0:0:0:
16,2,43019,6,0,L|10:17,1,16.65,0|0,2:0|2:0,2:0:0:0:
64,70,43186,2,0,P|117:31|182:21,1,133.2,0|0,2:0|2:0,2:0:0:0:
179,5,43686,1,0,2:0:0:0:
106,21,43853,1,0,2:0:0:0:
60,240,44019,6,0,B|81:195|176:272|176:272|159:147|87:147,1,299.7,2|0,3:0|2:0,2:0:0:0:
0,159,44353,2,0,L|17:164,1,16.65,0|0,2:0|2:0,2:0:0:0:
219,131,44519,2,0,P|126:166|60:239,1,199.8,0|0,2:0|2:0,2:0:0:0:
352,10,45353,6,0,B|491:64|536:-9|405:-60|254:56|345:138,1,349.65,2|0,3:0|2:0,2:0:0:0:
411,113,45686,6,0,L|426:115,1,16.65,0|0,2:0|2:0,2:0:0:0:
280,181,45853,2,0,L|274:197,1,16.65,0|0,2:0|2:0,2:0:0:0:
445,226,46019,6,0,B|414:219|414:219|333:141|219:130,1,249.75,8|0,2:0|2:0,2:0:0:0:
269,290,46353,2,0,B|274:295|334:300|332:240,1,83.25,0|0,2:0|2:0,2:0:0:0:
177,125,46519,2,0,P|189:146|199:169,1,49.9500000000001,8|0,2:0|2:0,2:0:0:0:
125,344,46686,6,0,B|30:353|-16:294|-22:121|171:54|174:226|135:262|-15:288,1,466.2,2|0,3:0|2:0,2:0:0:0:
177,125,47186,6,0,B|155:75|210:89|235:167|179:180,1,116.55,2|0,3:0|2:0,2:0:0:0:
87,364,47353,2,0,P|115:262|283:55,1,349.65,8|0,2:0|2:0,2:0:0:0:
338,61,47686,5,0,2:0:0:0:
338,61,47769,2,0,B|363:46|327:-22|294:3,1,99.9000000000001,0|0,2:0|2:0,2:0:0:0:
157,13,48019,6,0,B|72:78|93:142|321:31|393:188|337:260|216:287|92:176|178:98|199:115,1,466.2,2|0,3:0|2:0,2:0:0:0:
261,70,48519,1,0,2:0:0:0:
162,124,48686,2,0,P|91:83|52:72,2,111,8|0|0,2:0|2:0|2:0,2:0:0:0:
274,223,49186,6,0,B|265:302|190:283|192:283,1,116.55,0|0,3:0|2:0,2:0:0:0:
72,257,49353,2,0,P|232:187|406:172,1,349.65,2|0,3:0|2:0,2:0:0:0:
487,168,49686,6,0,B|470:207|521:230|563:200|518:275|408:297|410:240,1,199.8,0|0,2:0|2:0,2:0:0:0:
506,26,50019,2,0,L|514:7,1,16.65,8|0,2:0|2:0,2:0:0:0:
366,264,50353,6,0,P|399:264|415:245,1,49.9500000000001,0|0,2:0|2:0,2:0:0:0:
387,293,50519,2,0,P|410:269|408:244,1,49.9500000000001,0|0,2:0|2:0,2:0:0:0:
400,68,50686,2,0,B|352:129|413:284|504:317|562:214|485:167,1,349.65,2|0,3:0|2:0,2:0:0:0:
375,174,51019,1,0,2:0:0:0:
358,171,51103,2,0,B|329:181|329:181|283:260|203:289,1,199.8,0|0,2:0|2:0,2:0:0:0:
114,163,51353,6,0,B|175:139|193:224,1,99.8999999999999,8|0,2:0|2:0,2:0:0:0:
186,371,51519,1,0,2:0:0:0:
166,358,51603,2,0,P|185:288|255:115,1,249.75,0|8,2:0|2:0,2:0:0:0:
411,254,52019,6,0,B|477:254|580:407|538:425|474:401|450:343|292:232|250:363,1,466.2,2|0,3:0|2:0,2:0:0:0:
491,285,52519,2,0,P|423:312|316:380,1,174.825,2|0,3:0|2:0,2:0:0:0:
256,347,52686,6,0,P|227:327|232:300,1,49.9500000000001,8|0,2:0|2:0,2:0:0:0:
393,244,52853,2,0,P|386:209|408:193,1,49.9500000000001,8|0,2:0|2:0,2:0:0:0:
507,368,53019,1,0,3:0:0:0:
510,371,53103,1,0,3:0:0:0:
507,376,53186,1,0,3:0:0:0:
502,374,53269,1,0,3:0:0:0:
502,369,53353,1,8,2:0:0:0:
502,369,54353,6,0,L|455:359,1,33.3,8|0,2:0|2:0,2:0:0:0:
393,338,54686,2,0,P|390:305|407:277,2,66.6000000000001,8|8|8,2:0|2:0|2:0,2:0:0:0:
492,335,55686,1,8,2:0:0:0:
502,315,56019,6,0,L|465:326,1,33.3,8|0,2:0|2:0,2:0:0:0:
444,250,56353,2,0,L|475:240,1,33.3,8|0,2:0|2:0,2:0:0:0:
392,339,56686,5,8,2:0:0:0:
383,351,56853,1,0,2:0:0:0:
366,353,57019,2,0,L|334:343,1,33.3,8|0,2:0|2:0,2:0:0:0:
327,210,57353,2,0,P|355:250|357:277,2,66.6000000000001,8|8|8,2:0|2:0|2:0,2:0:0:0:
264,251,58353,5,8,2:0:0:0:
264,251,58436,1,0,2:0:0:0:
336,343,58686,6,0,L|326:311,1,33.3,8|0,2:0|2:0,2:0:0:0:
413,312,59019,2,0,L|403:280,1,33.3,8|0,2:0|2:0,2:0:0:0:
258,352,59353,5,8,2:0:0:0:
255,364,59519,1,0,2:0:0:0:
262,378,59686,1,8,2:0:0:0:
484,344,59853,1,0,2:0:0:0:
490,336,60019,5,8,2:0:0:0:
474,264,60186,1,0,2:0:0:0:
336,343,60353,5,8,2:0:0:0:
408,359,60519,1,0,2:0:0:0:
382,265,60686,5,8,2:0:0:0:
382,265,61019,5,8,2:0:0:0:
382,265,61103,1,0,2:0:0:0:
502,369,61353,6,0,L|455:359,1,33.3,8|0,2:0|2:0,2:0:0:0:
455,236,61686,2,0,P|481:254|490:286,2,66.6000000000001,8|8|8,2:0|2:0|2:0,2:0:0:0:
336,343,62686,2,0,L|330:358,2,16.65,8|0|0,2:0|2:0|2:0,2:0:0:0:
266,308,63019,2,0,L|253:348,1,33.3,8|0,2:0|2:0,2:0:0:0:
406,384,63353,5,8,2:0:0:0:
183,323,63519,1,8,2:0:0:0:
301,283,63686,6,0,P|289:309|263:306,1,49.9500000000001,0|0,3:0|3:0,2:0:0:0:
126,378,63853,2,0,P|100:388|83:368,1,49.9500000000001,0|0,3:0|3:0,2:0:0:0:
34,310,64019,6,0,L|57:212,1,99.9000000000001,2|0,3:2|2:0,2:0:0:0:
216,249,64353,2,0,L|239:151,1,99.9000000000001,10|0,2:0|2:0,2:0:0:0:
462,111,64686,2,0,P|417:170|346:189,1,149.85,2|0,3:2|2:0,2:0:0:0:
330,173,65019,1,10,2:0:0:0:
309,80,65186,1,2,2:0:0:0:
494,249,65353,5,2,3:2:0:0:
412,275,65519,1,2,2:0:0:0:
330,173,65686,2,0,L|427:196,1,99.9000000000001,10|2,2:0|2:0,2:0:0:0:
320,302,66019,2,0,L|174:336,1,149.85,2|0,3:2|2:0,2:0:0:0:
86,319,66353,2,0,P|108:275|153:254,1,99.9000000000001,10|2,2:0|2:0,2:0:0:0:
412,275,66686,6,0,L|388:372,1,99.9000000000001,2|0,3:2|2:0,2:0:0:0:
176,157,67019,2,0,L|152:254,1,99.9000000000001,10|0,2:0|2:0,2:0:0:0:
24,89,67353,2,0,P|68:110|91:153,1,99.9000000000001,2|2,3:2|2:0,2:0:0:0:
58,299,67686,2,0,P|7:246|6:173,1,149.85,10|0,2:0|2:0,2:0:0:0:
91,153,68019,1,2,3:2:0:0:
421,269,68353,2,0,P|460:228|460:172,1,99.9000000000001,10|2,2:0|2:0,2:0:0:0:
510,75,68686,6,0,P|498:51|499:28,1,49.9500000000001,2|0,3:2|2:0,2:0:0:0:
377,193,68853,2,0,P|353:185|337:166,1,49.9500000000001,0|0,3:0|2:0,2:0:0:0:
365,371,69019,2,0,P|342:381|318:379,2,49.9500000000001,10|0|2,2:0|3:0|3:2,2:0:0:0:
335,283,69353,6,0,L|237:259,1,99.9000000000001,2|0,3:2|2:0,2:0:0:0:
264,87,69686,2,0,L|166:63,1,99.9000000000001,10|0,2:0|2:0,2:0:0:0:
59,279,70019,2,0,P|130:259|174:201,1,149.85,2|0,3:2|2:0,2:0:0:0:
131,133,70353,1,10,2:0:0:0:
33,157,70519,1,2,2:0:0:0:
134,313,70686,5,2,3:2:0:0:
212,332,70853,1,2,2:0:0:0:
308,202,71019,2,0,P|261:217|236:259,1,99.9000000000001,10|2,2:0|2:0,2:0:0:0:
283,384,71353,2,0,L|428:349,1,149.85,2|0,3:2|2:0,2:0:0:0:
347,349,71686,5,10,2:0:0:0:
284,365,71797,1,2,2:0:0:0:
437,214,72019,2,0,P|483:228|508:270,1,99.9000000000001,2|0,3:2|2:0,2:0:0:0:
390,274,72353,2,0,L|424:128,1,149.85,10|0,2:0|2:0,2:0:0:0:
448,52,72686,1,2,3:2:0:0:
505,112,72853,1,2,2:0:0:0:
255,198,73019,1,10,2:0:0:0:
75,79,73353,6,0,L|122:274,2,199.8,2|10|2,3:2|2:0|3:2,2:0:0:0:
7,272,74353,1,10,2:0:0:0:
7,272,74686,6,0,P|25:224|79:199,1,99.9000000000001,2|2,3:2|2:0,2:0:0:0:
157,350,75019,1,10,2:0:0:0:
73,336,75186,1,2,2:0:0:0:
201,249,75353,2,0,P|276:237|385:297,1,199.8,2|10,3:2|2:0,2:0:0:0:
368,374,75853,1,2,2:0:0:0:
311,210,76019,6,0,L|275:78,1,99.9000000000001,2|2,3:2|2:0,2:0:0:0:
449,71,76353,2,0,P|423:126|362:147,1,99.9000000000001,10|2,2:0|2:0,2:0:0:0:
198,85,76686,2,0,P|114:32|16:40,1,199.8,2|10,3:2|2:0,2:0:0:0:
66,122,77186,1,2,2:0:0:0:
272,35,77353,2,0,L|410:49,1,99.9000000000001,2|2,3:2|2:0,2:0:0:0:
311,210,77686,2,0,P|276:159|288:96,1,99.9000000000001,10|2,2:0|2:0,2:0:0:0:
489,53,78019,2,0,P|408:152|397:232,2,199.8,2|10|2,3:2|2:0|3:2,2:0:0:0:
496,171,78853,1,2,2:0:0:0:
311,210,79019,1,10,2:0:0:0:
276,122,79186,1,2,2:0:0:0:
468,250,79353,6,0,P|487:268|509:274,1,49.9500000000001,2|0,3:2|2:0,2:0:0:0:
314,339,79519,2,0,P|314:364|327:385,1,49.9500000000001,0|0,3:0|2:0,2:0:0:0:
140,285,79686,2,0,P|123:303|117:327,2,49.9500000000001,8|0|0,2:0|3:0|3:0,2:0:0:0:
221,301,80019,2,0,P|201:370|162:390,1,99.9000000000001,2|2,3:2|2:0,2:0:0:0:
29,214,80353,2,0,P|78:214|117:184,1,99.9000000000001,10|2,2:0|2:0,2:0:0:0:
227,116,80686,2,0,L|25:86,2,199.8,2|10|2,3:2|2:0|3:2,2:0:0:0:
386,30,81519,1,2,2:0:0:0:
306,72,81686,2,0,L|337:173,1,99.9000000000001,10|2,2:0|2:0,2:0:0:0:
512,321,82019,2,0,P|472:276|337:252,1,199.8,2|10,3:2|2:0,2:0:0:0:
339,251,82686,6,0,L|349:214,1,33.3000000000001,8|0,2:0|2:0,2:0:0:0:
413,270,83019,2,0,L|423:233,1,33.3000000000001,8|0,2:0|2:0,2:0:0:0:
277,301,83353,6,0,P|207:330|182:344,1,99.9000000000004,8|0,2:0|2:0,2:0:0:0:
177,328,83686,2,0,B|173:329|135:316|142:277,1,66.6000000000003,8|0,2:0|2:0,2:0:0:0:
395,162,84019,5,8,2:0:0:0:
347,218,84186,1,0,2:0:0:0:
237,228,84353,1,8,2:0:0:0:
139,121,84519,1,0,2:0:0:0:
258,83,84686,6,0,P|270:101|294:113,1,49.9500000000001,0|0,3:0|2:0,2:0:0:0:
313,261,84853,2,0,P|336:253|353:235,1,49.9500000000001,8|0,2:0|2:0,2:0:0:0:
428,261,85019,1,8,3:2:0:0:
423,263,85103,1,0,3:0:0:0:
423,268,85186,1,0,3:0:0:0:
428,270,85269,1,0,3:0:0:0:
431,267,85353,6,0,B|377:236|390:143|390:143|359:298|442:276,1,299.7,6|0,3:0|2:0,2:0:0:0:
507,71,85686,2,0,B|500:97|500:97|382:165|337:363,1,333,0|0,2:0|2:0,2:0:0:0:
341,349,86686,6,0,B|432:278|322:181|135:166|125:266|240:374|243:309,1,349.65,2|0,3:0|2:0,2:0:0:0:
211,341,87019,2,0,B|220:327|220:327|289:304,1,66.6,0|0,2:0|2:0,2:0:0:0:
481,210,87186,2,0,P|463:262|457:308,2,99.9000000000001,0|0|0,2:0|2:0|2:0,2:0:0:0:
488,272,87686,1,0,2:0:0:0:
488,272,87853,1,0,2:0:0:0:
333,46,88019,6,0,P|183:55|42:104,1,299.7,2|0,3:0|2:0,2:0:0:0:
355,138,88353,2,0,P|210:177|81:252,1,299.7,2|0,3:0|2:0,2:0:0:0:
389,221,88686,2,0,P|254:285|141:384,1,299.7,2|0,3:0|2:0,2:0:0:0:
77,200,90353,6,0,L|86:221,1,16.65,0|0,2:0|2:0,2:0:0:0:
64,288,90519,1,0,2:0:0:0:
76,103,90686,6,0,B|41:92|100:10|204:51|162:288|-3:243,1,349.65,6|0,3:0|2:0,2:0:0:0:
150,152,91019,6,0,B|163:147|163:147|187:184|242:196,1,99.8999999999999,0|0,2:0|2:0,2:0:0:0:
432,83,91186,2,0,P|354:97|286:118,1,149.85,0|0,2:0|2:0,2:0:0:0:
272,123,91353,2,0,B|224:154|280:243|402:282|345:170|345:170,1,199.8,8|0,2:0|2:0,2:0:0:0:
234,0,91853,2,0,P|218:38|206:78,1,83.25,0|0,3:0|2:0,2:0:0:0:
408,292,92019,6,0,B|459:205|482:328|561:199|480:103|316:142|396:231,1,291.374991107941,2|0,3:0|2:0,2:0:0:0:
387,288,92353,2,0,B|389:294|354:374|282:319,1,133.2,0|0,2:0|2:0,2:0:0:0:
83,142,92686,2,0,B|103:161|103:161|218:154|321:256,1,266.4,8|0,2:0|2:0,2:0:0:0:
170,178,93186,1,0,2:0:0:0:
247,150,93353,6,0,B|361:75|218:-29|62:-46|289:17|190:93,1,299.7,2|0,3:0|2:0,2:0:0:0:
113,68,93686,1,0,2:0:0:0:
99,60,93769,2,0,B|89:38|37:41|37:41|104:15|136:79,1,166.5,0|0,2:0|2:0,2:0:0:0:
170,178,94019,2,0,B|67:197|-3:277,1,199.8,8|0,2:0|2:0,2:0:0:0:
15,270,94353,6,0,P|26:250|24:233,1,33.2999999999999,0|0,2:0|2:0,2:0:0:0:
108,239,94519,2,0,P|98:209|77:179,1,66.6,8|0,2:0|2:0,2:0:0:0:
399,86,94686,6,0,B|408:0|659:35|523:-24|284:59|361:139,1,349.65,2|0,3:0|2:0,2:0:0:0:
433,244,95019,2,0,B|446:273|498:193|402:155,1,116.55,0|0,2:0|2:0,2:0:0:0:
274,52,95186,2,0,P|336:166|357:243,1,174.825,2|0,3:0|2:0,2:0:0:0:
328,280,95353,2,0,B|348:267|348:267|376:101|490:-7,1,333,8|0,2:0|2:0,2:0:0:0:
265,223,95853,1,0,2:0:0:0:
265,223,96019,6,0,P|123:296|12:336,1,249.75,6|0,3:0|2:0,2:0:0:0:
220,287,96353,6,0,L|214:302,1,16.65,0|0,2:0|2:0,2:0:0:0:
138,301,96519,2,0,B|118:185|-11:204|-11:246|42:250,1,199.8,0|0,2:0|2:0,2:0:0:0:
193,168,97019,1,0,2:0:0:0:
120,152,97186,1,0,2:0:0:0:
421,191,97353,6,0,B|500:182|597:292|485:285|479:205|357:326,1,299.7,2|0,3:0|2:0,2:0:0:0:
300,380,97686,2,0,P|308:373|307:364,1,16.65,0|0,2:0|2:0,2:0:0:0:
359,314,97853,6,0,P|373:244|350:122,1,166.499994918823,0|0,2:0|2:0,2:0:0:0:
334,78,98353,1,0,2:0:0:0:
334,78,98436,1,2,0:0:0:0:
69,147,98686,6,0,B|-75:183|-39:45|155:-16|190:-5|-44:56|64:147,1,349.65,2|0,3:0|2:0,2:0:0:0:
227,50,99019,6,0,L|210:45,1,16.65,0|0,2:0|2:0,2:0:0:0:
142,83,99186,2,0,L|136:99,1,16.65,0|0,2:0|2:0,2:0:0:0:
371,24,99353,6,0,B|323:39|323:39|312:36|312:36|301:45|301:45|125:101,1,249.75,8|0,2:0|2:0,2:0:0:0:
145,176,99686,2,0,B|108:214|168:219|166:159,1,83.25,0|0,2:0|2:0,2:0:0:0:
0,0,99853,2,0,P|12:21|22:44,1,49.9500000000001,8|0,2:0|2:0,2:0:0:0:
193,263,100019,2,0,B|181:343|72:409|-167:326|6:365|146:251|68:146,1,466.2,2|0,3:0|2:0,2:0:0:0:
284,260,100519,6,0,B|313:258|293:185|233:166|220:211,1,116.55,2|0,3:0|2:0,2:0:0:0:
0,198,100686,2,0,B|20:224|20:224|174:243|296:375,1,349.65,8|0,2:0|2:0,2:0:0:0:
512,289,101019,5,0,2:0:0:0:
503,291,101103,2,0,L|468:302,1,33.3000000000001,0|0,2:0|2:0,2:0:0:0:
392,318,101353,2,0,B|445:286|471:353|471:353|450:220|251:241|277:141|526:159|482:228,1,466.2,2|0,3:0|2:0,2:0:0:0:
477,225,101769,2,0,P|427:92|396:20,1,166.5,0|0,2:0|2:0,2:0:0:0:
511,0,102019,6,0,P|493:25|489:79,1,49.9500000000001,8|0,2:0|2:0,2:0:0:0:
303,120,102186,2,0,L|371:84,1,49.9500000000001,0|0,2:0|2:0,2:0:0:0:
347,110,102353,2,0,L|297:106,1,49.9500000000001,0|0,2:0|2:0,2:0:0:0:
303,31,102519,6,0,B|290:-58|220:1|217:0,1,116.55,0|0,3:0|2:0,2:0:0:0:
78,176,102686,2,0,B|22:112|87:-89|260:51|136:-40|37:64|137:122,1,349.649989329529,2|0,3:0|2:0,2:0:0:0:
233,78,103019,6,0,B|215:89|215:89|136:96|47:167,1,199.8,0|0,2:0|2:0,2:0:0:0:
417,69,103353,2,0,L|440:63,1,16.65,8|0,2:0|2:0,2:0:0:0:
171,287,103686,5,0,2:0:0:0:
165,297,103769,2,0,B|155:329|196:361|213:309|183:290,1,99.9000000000001,0|0,2:0|2:0,2:0:0:0:
85,291,104019,6,0,B|2:252|-53:159|-20:97|98:273|209:194,1,349.65,2|0,3:0|2:0,2:0:0:0:
512,372,104353,2,0,B|484:364|484:364|396:246|225:251,1,299.7,0|0,2:0|2:0,2:0:0:0:
407,133,104686,6,0,B|469:170|419:231,1,99.8999999999999,8|0,2:0|2:0,2:0:0:0:
317,339,104853,1,0,2:0:0:0:
301,350,104936,2,0,P|320:280|369:152,1,166.5,0|0,2:0|2:0,2:0:0:0:
412,330,105186,2,0,B|434:368|424:377|390:317,1,83.25,8|0,2:0|2:0,2:0:0:0:
227,49,105353,6,0,B|198:-6|271:-90|372:-26|371:174|232:213|17:176|169:46,1,466.2,2|0,3:0|2:0,2:0:0:0:
321,80,105853,2,0,B|355:132|467:74|432:8,1,174.825,2|0,3:0|2:0,2:0:0:0:
431,0,106019,6,0,P|453:9|461:32,1,49.9500000000001,8|0,2:0|2:0,2:0:0:0:
351,147,106186,2,0,P|361:169|351:191,1,49.9500000000001,8|0,2:0|2:0,2:0:0:0:
270,176,106353,1,0,3:0:0:0:
273,179,106436,1,0,3:0:0:0:
270,184,106519,1,0,3:0:0:0:
265,182,106603,1,0,3:0:0:0:
