osu file format v14

[General]
AudioFilename: audio.mp3
AudioLeadIn: 0
PreviewTime: 66195
Countdown: 0
SampleSet: Normal
StackLeniency: 0
Mode: 1
LetterboxInBreaks: 0
EpilepsyWarning: 1
WidescreenStoryboard: 1

[Editor]
Bookmarks: 2696,24029,45362,66696,88029,109362
DistanceSpacing: 0.8
BeatDivisor: 6
GridSize: 32
TimelineZoom: 2.4

[Metadata]
Title:kizu/na
TitleUnicode:キズ/ナ
Artist:midorijeon
ArtistUnicode:midorijeon
Creator:midorijeon
Version:muzu/kashii
Source:
Tags:Lo-fi Lofi Instrumental kizuna 菊千代 壬生 Kikuchiyo Mibu ドーナドーナ いっしょにわるいことをしよう doHna:doHna -Issho ni Warui Koto o Shiyou- Let's Do Bad Things Together
BeatmapID:3384830
BeatmapSetID:1654327

[Difficulty]
HPDrainRate:6
CircleSize:2
OverallDifficulty:4
ApproachRate:8
SliderMultiplier:1.4
SliderTickRate:1

[Events]
//Background and Video events
0,0,"BG.jpg",0,40
//Break Periods
//Storyboard Layer 0 (Background)
//Storyboard Layer 1 (Fail)
//Storyboard Layer 2 (Pass)
//Storyboard Layer 3 (Foreground)
//Storyboard Layer 4 (Overlay)
//Storyboard Sound Samples

[TimingPoints]
2696,666.666666666667,4,1,0,45,1,0
2696,-111.111111111111,4,1,0,45,0,0
23362,-111.111111111111,4,1,0,45,0,0
23584,-107.181136120043,4,1,0,45,0,0
23807,-103.51966873706,4,1,0,45,0,0
24029,-100,4,1,0,60,0,0
44696,-100,4,1,0,60,0,0
44918,-96.8054211035818,4,1,0,60,0,0
45140,-93.8086303939962,4,1,0,60,0,0
45362,-90.9090909090909,4,1,0,70,0,0
66029,-90.9090909090909,4,1,0,70,0,0
66362,-86.9565217391304,4,1,0,70,0,0
66696,-83.3333333333333,4,1,0,80,0,0
87362,-83.3333333333333,4,1,0,80,0,0
87584,-81.10300081103,4,1,0,80,0,0
87807,-78.9889415481832,4,1,0,80,0,0
88029,-76.9230769230769,4,1,0,80,0,0

[HitObjects]
256,192,2696,1,8,0:0:0:0:
256,192,5362,1,8,0:0:0:0:
256,192,6696,1,0,0:0:0:0:
256,192,8029,1,0,0:0:0:0:
256,192,10696,1,8,0:0:0:0:
256,192,13362,1,0,0:0:0:0:
256,192,14029,1,8,0:0:0:0:
256,192,15362,1,8,0:0:0:0:
256,192,16029,1,0,0:0:0:0:
256,192,16696,1,8,0:0:0:0:
256,192,17362,1,0,0:0:0:0:
256,192,18029,1,8,0:0:0:0:
256,192,18696,1,0,0:0:0:0:
256,192,19362,1,8,0:0:0:0:
256,192,20696,1,8,0:0:0:0:
256,192,21362,1,0,0:0:0:0:
256,192,22029,1,8,0:0:0:0:
256,192,23362,1,8,0:0:0:0:
256,192,24029,1,4,0:0:0:0:
256,192,24362,1,0,0:0:0:0:
256,192,24696,1,8,0:0:0:0:
256,192,25251,1,0,0:0:0:0:
256,192,25696,1,0,0:0:0:0:
256,192,26029,1,8,0:0:0:0:
256,192,26584,1,0,0:0:0:0:
256,192,26696,1,0,0:0:0:0:
256,192,27029,1,0,0:0:0:0:
256,192,27362,1,8,0:0:0:0:
256,192,27696,1,8,0:0:0:0:
256,192,27918,1,0,0:0:0:0:
256,192,28362,1,0,0:0:0:0:
256,192,28696,1,8,0:0:0:0:
256,192,29029,1,8,0:0:0:0:
256,192,29251,1,8,0:0:0:0:
256,192,29362,1,0,0:0:0:0:
256,192,29696,1,0,0:0:0:0:
256,192,30029,1,8,0:0:0:0:
256,192,30584,1,0,0:0:0:0:
256,192,31029,1,0,0:0:0:0:
256,192,31362,1,8,0:0:0:0:
256,192,31918,1,8,0:0:0:0:
256,192,32029,1,0,0:0:0:0:
256,192,32362,1,0,0:0:0:0:
256,192,32696,1,8,0:0:0:0:
256,192,33251,1,0,0:0:0:0:
256,192,33696,1,0,0:0:0:0:
256,192,34029,1,12,0:0:0:0:
256,192,34696,1,4,0:0:0:0:
256,192,35029,1,0,0:0:0:0:
256,192,35362,1,8,0:0:0:0:
256,192,35918,1,0,0:0:0:0:
256,192,36362,1,0,0:0:0:0:
256,192,36696,1,8,0:0:0:0:
256,192,37251,1,0,0:0:0:0:
256,192,37362,1,0,0:0:0:0:
256,192,37696,1,0,0:0:0:0:
256,192,38029,1,8,0:0:0:0:
256,192,38362,1,8,0:0:0:0:
256,192,38584,1,0,0:0:0:0:
256,192,39029,1,0,0:0:0:0:
256,192,39362,1,8,0:0:0:0:
256,192,39696,1,8,0:0:0:0:
256,192,39918,1,8,0:0:0:0:
256,192,40029,1,0,0:0:0:0:
256,192,40362,1,0,0:0:0:0:
256,192,40696,1,8,0:0:0:0:
256,192,41251,1,0,0:0:0:0:
256,192,41696,1,0,0:0:0:0:
256,192,42029,1,8,0:0:0:0:
256,192,42584,1,8,0:0:0:0:
256,192,42696,1,0,0:0:0:0:
256,192,43029,1,0,0:0:0:0:
256,192,43362,1,8,0:0:0:0:
256,192,43918,1,0,0:0:0:0:
256,192,44362,1,0,0:0:0:0:
256,192,44696,1,12,0:0:0:0:
256,192,45362,1,4,0:0:0:0:
256,192,45696,1,0,0:0:0:0:
256,192,46029,1,8,0:0:0:0:
256,192,46362,1,8,0:0:0:0:
256,192,46584,1,0,0:0:0:0:
256,192,46918,1,0,0:0:0:0:
256,192,47029,1,0,0:0:0:0:
256,192,47362,1,8,0:0:0:0:
256,192,47918,1,8,0:0:0:0:
256,192,48029,1,0,0:0:0:0:
256,192,48362,1,0,0:0:0:0:
256,192,48696,1,8,0:0:0:0:
256,192,49029,1,0,0:0:0:0:
256,192,49251,1,0,0:0:0:0:
256,192,49584,1,8,0:0:0:0:
256,192,49696,1,0,0:0:0:0:
256,192,50029,1,8,0:0:0:0:
256,192,50362,1,8,0:0:0:0:
256,192,50584,1,8,0:0:0:0:
256,192,50696,1,0,0:0:0:0:
256,192,51029,1,0,0:0:0:0:
256,192,51362,1,8,0:0:0:0:
256,192,51696,1,8,0:0:0:0:
256,192,51918,1,0,0:0:0:0:
256,192,52251,1,8,0:0:0:0:
256,192,52362,1,0,0:0:0:0:
256,192,52696,1,8,0:0:0:0:
256,192,53251,1,0,0:0:0:0:
256,192,53362,1,0,0:0:0:0:
256,192,53696,1,0,0:0:0:0:
256,192,54029,1,8,0:0:0:0:
256,192,54362,1,0,0:0:0:0:
256,192,54584,1,0,0:0:0:0:
256,192,54918,1,8,0:0:0:0:
256,192,55029,1,0,0:0:0:0:
256,192,55362,1,12,0:0:0:0:
256,192,56028,1,4,0:0:0:0:
256,192,56362,1,0,0:0:0:0:
256,192,56695,1,8,0:0:0:0:
256,192,57028,1,8,0:0:0:0:
256,192,57250,1,0,0:0:0:0:
256,192,57584,1,0,0:0:0:0:
256,192,57695,1,0,0:0:0:0:
256,192,58028,1,8,0:0:0:0:
256,192,58584,1,8,0:0:0:0:
256,192,58695,1,0,0:0:0:0:
256,192,59028,1,0,0:0:0:0:
256,192,59362,1,8,0:0:0:0:
256,192,59695,1,0,0:0:0:0:
256,192,59917,1,0,0:0:0:0:
256,192,60250,1,8,0:0:0:0:
256,192,60362,1,0,0:0:0:0:
256,192,60695,1,8,0:0:0:0:
256,192,61028,1,8,0:0:0:0:
256,192,61250,1,8,0:0:0:0:
256,192,61362,1,0,0:0:0:0:
256,192,61695,1,0,0:0:0:0:
256,192,62028,1,8,0:0:0:0:
256,192,62362,1,8,0:0:0:0:
256,192,62584,1,0,0:0:0:0:
256,192,62917,1,8,0:0:0:0:
256,192,63028,1,0,0:0:0:0:
256,192,63362,1,8,0:0:0:0:
256,192,63917,1,0,0:0:0:0:
256,192,64028,1,0,0:0:0:0:
256,192,64362,1,0,0:0:0:0:
256,192,64695,1,8,0:0:0:0:
256,192,65028,1,0,0:0:0:0:
256,192,65250,1,0,0:0:0:0:
256,192,65584,1,8,0:0:0:0:
256,192,65695,1,0,0:0:0:0:
256,192,66029,1,12,0:0:0:0:
256,192,66696,1,4,0:0:0:0:
256,192,67029,1,0,0:0:0:0:
256,192,67251,1,0,0:0:0:0:
256,192,67362,1,8,0:0:0:0:
256,192,67584,1,0,0:0:0:0:
256,192,67696,1,8,0:0:0:0:
256,192,67918,1,0,0:0:0:0:
256,192,68251,1,8,0:0:0:0:
256,192,68362,1,0,0:0:0:0:
256,192,68696,1,8,0:0:0:0:
256,192,69029,1,8,0:0:0:0:
256,192,69140,1,0,0:0:0:0:
256,192,69251,1,8,0:0:0:0:
256,192,69362,1,0,0:0:0:0:
256,192,69696,1,0,0:0:0:0:
256,192,69918,1,0,0:0:0:0:
256,192,70029,1,8,0:0:0:0:
256,192,70251,1,0,0:0:0:0:
256,192,70362,1,8,0:0:0:0:
256,192,70584,1,8,0:0:0:0:
256,192,71029,1,0,0:0:0:0:
256,192,71251,1,0,0:0:0:0:
256,192,71362,1,8,0:0:0:0:
256,192,71584,1,8,0:0:0:0:
256,192,71696,1,8,0:0:0:0:
256,192,71807,1,8,0:0:0:0:
256,192,72029,1,4,0:0:0:0:
256,192,72362,1,0,0:0:0:0:
256,192,72584,1,0,0:0:0:0:
256,192,72696,1,8,0:0:0:0:
256,192,72918,1,0,0:0:0:0:
256,192,73029,1,8,0:0:0:0:
256,192,73251,1,0,0:0:0:0:
256,192,73584,1,0,0:0:0:0:
256,192,73696,1,0,0:0:0:0:
256,192,74029,1,8,0:0:0:0:
256,192,74362,1,8,0:0:0:0:
256,192,74473,1,0,0:0:0:0:
256,192,74584,1,8,0:0:0:0:
256,192,74696,1,0,0:0:0:0:
256,192,75029,1,0,0:0:0:0:
256,192,75251,1,8,0:0:0:0:
256,192,75362,1,8,0:0:0:0:
256,192,75584,1,0,0:0:0:0:
256,192,75696,1,8,0:0:0:0:
256,192,75918,1,8,0:0:0:0:
256,192,76362,1,0,0:0:0:0:
256,192,76696,1,12,0:0:0:0:
256,192,77362,1,4,0:0:0:0:
256,192,77696,1,0,0:0:0:0:
256,192,77918,1,0,0:0:0:0:
256,192,78029,1,8,0:0:0:0:
256,192,78251,1,0,0:0:0:0:
256,192,78362,1,8,0:0:0:0:
256,192,78584,1,0,0:0:0:0:
256,192,79029,1,0,0:0:0:0:
256,192,79362,1,8,0:0:0:0:
256,192,79696,1,8,0:0:0:0:
256,192,79807,1,0,0:0:0:0:
256,192,79918,1,8,0:0:0:0:
256,192,80029,1,0,0:0:0:0:
256,192,80362,1,0,0:0:0:0:
256,192,80584,1,0,0:0:0:0:
256,192,80696,1,8,0:0:0:0:
256,192,80918,1,0,0:0:0:0:
256,192,81029,1,8,0:0:0:0:
256,192,81251,1,8,0:0:0:0:
256,192,81696,1,0,0:0:0:0:
256,192,81918,1,0,0:0:0:0:
256,192,82029,1,8,0:0:0:0:
256,192,82251,1,8,0:0:0:0:
256,192,82362,1,8,0:0:0:0:
256,192,82473,1,8,0:0:0:0:
256,192,82696,1,4,0:0:0:0:
256,192,83029,1,0,0:0:0:0:
256,192,83251,1,0,0:0:0:0:
256,192,83362,1,8,0:0:0:0:
256,192,83584,1,0,0:0:0:0:
256,192,83696,1,8,0:0:0:0:
256,192,83918,1,0,0:0:0:0:
256,192,84362,1,0,0:0:0:0:
256,192,84696,1,8,0:0:0:0:
256,192,85029,1,8,0:0:0:0:
256,192,85251,1,8,0:0:0:0:
256,192,85362,1,0,0:0:0:0:
256,192,85696,1,0,0:0:0:0:
256,192,85918,1,8,0:0:0:0:
256,192,86029,1,8,0:0:0:0:
256,192,86251,1,0,0:0:0:0:
256,192,86362,1,8,0:0:0:0:
256,192,86584,1,8,0:0:0:0:
256,192,86918,1,8,0:0:0:0:
256,192,87029,1,0,0:0:0:0:
256,192,87362,1,12,0:0:0:0:
256,192,88029,1,4,0:0:0:0:
256,192,88362,1,8,0:0:0:0:
256,192,88584,1,0,0:0:0:0:
256,192,88696,1,8,0:0:0:0:
256,192,88918,1,0,0:0:0:0:
256,192,89029,1,8,0:0:0:0:
256,192,89251,1,0,0:0:0:0:
256,192,89696,1,8,0:0:0:0:
256,192,90029,1,8,0:0:0:0:
256,192,90362,1,8,0:0:0:0:
256,192,90473,1,0,0:0:0:0:
256,192,90584,1,8,0:0:0:0:
256,192,90696,1,0,0:0:0:0:
256,192,91029,1,8,0:0:0:0:
256,192,91251,1,0,0:0:0:0:
256,192,91362,1,8,0:0:0:0:
256,192,91584,1,0,0:0:0:0:
256,192,91696,1,8,0:0:0:0:
256,192,91918,1,8,0:0:0:0:
256,192,92362,1,8,0:0:0:0:
256,192,92584,1,0,0:0:0:0:
256,192,92696,1,8,0:0:0:0:
256,192,92918,1,8,0:0:0:0:
256,192,93029,1,8,0:0:0:0:
256,192,93140,1,8,0:0:0:0:
256,192,93362,1,4,0:0:0:0:
256,192,93696,1,8,0:0:0:0:
256,192,93918,1,0,0:0:0:0:
256,192,94029,1,8,0:0:0:0:
256,192,94251,1,0,0:0:0:0:
256,192,94362,1,8,0:0:0:0:
256,192,94584,1,0,0:0:0:0:
256,192,95029,1,8,0:0:0:0:
256,192,95362,1,8,0:0:0:0:
256,192,95696,1,8,0:0:0:0:
256,192,95807,1,0,0:0:0:0:
256,192,95918,1,8,0:0:0:0:
256,192,96029,1,0,0:0:0:0:
256,192,96362,1,8,0:0:0:0:
256,192,96584,1,8,0:0:0:0:
256,192,96696,1,8,0:0:0:0:
256,192,96918,1,0,0:0:0:0:
256,192,97029,1,8,0:0:0:0:
256,192,97251,1,8,0:0:0:0:
256,192,97696,1,0,0:0:0:0:
256,192,98029,1,12,0:0:0:0:
256,192,98696,1,4,0:0:0:0:
256,192,99029,1,8,0:0:0:0:
256,192,99251,1,0,0:0:0:0:
256,192,99362,1,8,0:0:0:0:
256,192,99584,1,0,0:0:0:0:
256,192,99696,1,8,0:0:0:0:
256,192,99918,1,0,0:0:0:0:
256,192,100362,1,8,0:0:0:0:
256,192,100696,1,8,0:0:0:0:
256,192,101029,1,8,0:0:0:0:
256,192,101140,1,0,0:0:0:0:
256,192,101251,1,8,0:0:0:0:
256,192,101362,1,0,0:0:0:0:
256,192,101696,1,8,0:0:0:0:
256,192,101918,1,0,0:0:0:0:
256,192,102029,1,8,0:0:0:0:
256,192,102251,1,0,0:0:0:0:
256,192,102362,1,8,0:0:0:0:
256,192,102584,1,8,0:0:0:0:
256,192,103029,1,8,0:0:0:0:
256,192,103251,1,0,0:0:0:0:
256,192,103362,1,8,0:0:0:0:
256,192,103584,1,8,0:0:0:0:
256,192,103696,1,8,0:0:0:0:
256,192,103807,1,8,0:0:0:0:
256,192,104029,1,4,0:0:0:0:
256,192,104362,1,8,0:0:0:0:
256,192,104584,1,0,0:0:0:0:
256,192,104696,1,8,0:0:0:0:
256,192,104918,1,0,0:0:0:0:
256,192,105029,1,8,0:0:0:0:
256,192,105251,1,0,0:0:0:0:
256,192,105696,1,8,0:0:0:0:
256,192,106029,1,8,0:0:0:0:
256,192,106362,1,8,0:0:0:0:
256,192,106584,1,8,0:0:0:0:
256,192,106696,1,0,0:0:0:0:
256,192,107029,1,8,0:0:0:0:
256,192,107251,1,8,0:0:0:0:
256,192,107362,1,8,0:0:0:0:
256,192,107584,1,0,0:0:0:0:
256,192,107696,1,8,0:0:0:0:
256,192,107918,1,8,0:0:0:0:
256,192,108251,1,0,0:0:0:0:
256,192,108362,1,8,0:0:0:0:
256,192,108696,1,12,0:0:0:0:
256,192,108918,1,12,0:0:0:0:
256,192,109140,1,12,0:0:0:0:
256,192,109362,1,0,0:0:0:0:
