osu file format v14

[General]
AudioFilename: audio.mp3
AudioLeadIn: 0
PreviewTime: 66195
Countdown: 0
SampleSet: Normal
StackLeniency: 0
Mode: 1
LetterboxInBreaks: 0
EpilepsyWarning: 1
WidescreenStoryboard: 1

[Editor]
Bookmarks: 2696,24029,45362,66696,88029,109362
DistanceSpacing: 0.7
BeatDivisor: 12
GridSize: 32
TimelineZoom: 2.4

[Metadata]
Title:kizu/na
TitleUnicode:キズ/ナ
Artist:midorijeon
ArtistUnicode:midorijeon
Creator:midorijeon
Version:fut/suu
Source:
Tags:Lo-fi Lofi Instrumental kizuna 菊千代 壬生 Kikuchiyo Mibu ドーナドーナ いっしょにわるいことをしよう doHna:doHna -Issho ni Warui Koto o Shiyou- Let's Do Bad Things Together
BeatmapID:3384829
BeatmapSetID:1654327

[Difficulty]
HPDrainRate:7
CircleSize:2
OverallDifficulty:3
ApproachRate:8
SliderMultiplier:1.4
SliderTickRate:1

[Events]
//Background and Video events
0,0,"BG.jpg",0,40
//Break Periods
//Storyboard Layer 0 (Background)
//Storyboard Layer 1 (Fail)
//Storyboard Layer 2 (Pass)
//Storyboard Layer 3 (Foreground)
//Storyboard Layer 4 (Overlay)
//Storyboard Sound Samples

[TimingPoints]
2696,666.666666666667,4,1,0,45,1,0
2696,-111.111111111111,4,1,0,45,0,0
23362,-111.111111111111,4,1,0,45,0,0
23584,-107.181136120043,4,1,0,45,0,0
23807,-103.51966873706,4,1,0,45,0,0
24029,-100,4,1,0,60,0,0
44696,-100,4,1,0,60,0,0
44918,-96.8054211035818,4,1,0,60,0,0
45140,-93.8086303939962,4,1,0,60,0,0
45362,-90.9090909090909,4,1,0,70,0,0
66029,-90.9090909090909,4,1,0,70,0,0
66362,-86.9565217391304,4,1,0,70,0,0
66696,-83.3333333333333,4,1,0,80,0,0
87362,-83.3333333333333,4,1,0,80,0,0
87584,-81.10300081103,4,1,0,80,0,0
87807,-78.9889415481832,4,1,0,80,0,0
88029,-76.9230769230769,4,1,0,80,0,0

[HitObjects]
256,192,2696,1,8,0:0:0:0:
256,192,5362,1,8,0:0:0:0:
256,192,6696,1,0,0:0:0:0:
256,192,8029,1,0,0:0:0:0:
256,192,10696,1,8,0:0:0:0:
256,192,13362,1,0,0:0:0:0:
256,192,14029,1,8,0:0:0:0:
256,192,16029,1,0,0:0:0:0:
256,192,17362,1,0,0:0:0:0:
256,192,18696,1,0,0:0:0:0:
256,192,21362,1,0,0:0:0:0:
256,192,23362,1,8,0:0:0:0:
256,192,24029,1,4,0:0:0:0:
256,192,24696,1,8,0:0:0:0:
256,192,25251,1,0,0:0:0:0:
256,192,26029,1,8,0:0:0:0:
256,192,26696,1,0,0:0:0:0:
256,192,27362,1,8,0:0:0:0:
256,192,27918,1,0,0:0:0:0:
256,192,28362,1,0,0:0:0:0:
256,192,28696,1,8,0:0:0:0:
256,192,29029,1,8,0:0:0:0:
256,192,29362,1,0,0:0:0:0:
256,192,30029,1,8,0:0:0:0:
256,192,30584,1,0,0:0:0:0:
256,192,31362,1,8,0:0:0:0:
256,192,32029,1,0,0:0:0:0:
256,192,32696,1,8,0:0:0:0:
256,192,33251,1,0,0:0:0:0:
256,192,33696,1,0,0:0:0:0:
256,192,34029,1,12,0:0:0:0:
256,192,34696,1,4,0:0:0:0:
256,192,35362,1,8,0:0:0:0:
256,192,35918,1,0,0:0:0:0:
256,192,36696,1,8,0:0:0:0:
256,192,37362,1,0,0:0:0:0:
256,192,38029,1,8,0:0:0:0:
256,192,38584,1,0,0:0:0:0:
256,192,39029,1,0,0:0:0:0:
256,192,39362,1,8,0:0:0:0:
256,192,39696,1,8,0:0:0:0:
256,192,40029,1,0,0:0:0:0:
256,192,40696,1,8,0:0:0:0:
256,192,41251,1,0,0:0:0:0:
256,192,42029,1,8,0:0:0:0:
256,192,42696,1,0,0:0:0:0:
256,192,43362,1,8,0:0:0:0:
256,192,43918,1,0,0:0:0:0:
256,192,44696,1,12,0:0:0:0:
256,192,45362,1,4,0:0:0:0:
256,192,45696,1,0,0:0:0:0:
256,192,46029,1,8,0:0:0:0:
256,192,46584,1,0,0:0:0:0:
256,192,47029,1,0,0:0:0:0:
256,192,47362,1,8,0:0:0:0:
256,192,48029,1,0,0:0:0:0:
256,192,48362,1,0,0:0:0:0:
256,192,48696,1,8,0:0:0:0:
256,192,49029,1,8,0:0:0:0:
256,192,49251,1,0,0:0:0:0:
256,192,49696,1,0,0:0:0:0:
256,192,50029,1,8,0:0:0:0:
256,192,50362,1,8,0:0:0:0:
256,192,50696,1,0,0:0:0:0:
256,192,51029,1,0,0:0:0:0:
256,192,51362,1,8,0:0:0:0:
256,192,51918,1,0,0:0:0:0:
256,192,52362,1,0,0:0:0:0:
256,192,52696,1,8,0:0:0:0:
256,192,53362,1,8,0:0:0:0:
256,192,53696,1,0,0:0:0:0:
256,192,54029,1,8,0:0:0:0:
256,192,54584,1,0,0:0:0:0:
256,192,55029,1,0,0:0:0:0:
256,192,55362,1,12,0:0:0:0:
256,192,56029,1,4,0:0:0:0:
256,192,56362,1,0,0:0:0:0:
256,192,56696,1,8,0:0:0:0:
256,192,57251,1,0,0:0:0:0:
256,192,57696,1,0,0:0:0:0:
256,192,58029,1,8,0:0:0:0:
256,192,58696,1,0,0:0:0:0:
256,192,59029,1,0,0:0:0:0:
256,192,59362,1,8,0:0:0:0:
256,192,59696,1,8,0:0:0:0:
256,192,59918,1,0,0:0:0:0:
256,192,60362,1,0,0:0:0:0:
256,192,60696,1,8,0:0:0:0:
256,192,61029,1,8,0:0:0:0:
256,192,61362,1,0,0:0:0:0:
256,192,61696,1,0,0:0:0:0:
256,192,62029,1,8,0:0:0:0:
256,192,62584,1,0,0:0:0:0:
256,192,63029,1,0,0:0:0:0:
256,192,63362,1,8,0:0:0:0:
256,192,64029,1,8,0:0:0:0:
256,192,64362,1,0,0:0:0:0:
256,192,64696,1,8,0:0:0:0:
256,192,65251,1,0,0:0:0:0:
256,192,65696,1,0,0:0:0:0:
256,192,66029,1,12,0:0:0:0:
256,192,66696,1,4,0:0:0:0:
256,192,67029,1,0,0:0:0:0:
256,192,67362,1,8,0:0:0:0:
256,192,67584,1,0,0:0:0:0:
256,192,67918,1,0,0:0:0:0:
256,192,68362,1,0,0:0:0:0:
256,192,68696,1,8,0:0:0:0:
256,192,69362,1,0,0:0:0:0:
256,192,69696,1,0,0:0:0:0:
256,192,70029,1,8,0:0:0:0:
256,192,70251,1,0,0:0:0:0:
256,192,70584,1,8,0:0:0:0:
256,192,71029,1,0,0:0:0:0:
256,192,71362,1,8,0:0:0:0:
256,192,71696,1,8,0:0:0:0:
256,192,72029,1,4,0:0:0:0:
256,192,72362,1,0,0:0:0:0:
256,192,72696,1,8,0:0:0:0:
256,192,72918,1,0,0:0:0:0:
256,192,73251,1,0,0:0:0:0:
256,192,73696,1,0,0:0:0:0:
256,192,74029,1,8,0:0:0:0:
256,192,74362,1,8,0:0:0:0:
256,192,74696,1,0,0:0:0:0:
256,192,75029,1,0,0:0:0:0:
256,192,75362,1,8,0:0:0:0:
256,192,75584,1,0,0:0:0:0:
256,192,75918,1,0,0:0:0:0:
256,192,76362,1,8,0:0:0:0:
256,192,76696,1,12,0:0:0:0:
256,192,77362,1,4,0:0:0:0:
256,192,77695,1,0,0:0:0:0:
256,192,78028,1,8,0:0:0:0:
256,192,78250,1,0,0:0:0:0:
256,192,78584,1,0,0:0:0:0:
256,192,79028,1,0,0:0:0:0:
256,192,79362,1,8,0:0:0:0:
256,192,80028,1,0,0:0:0:0:
256,192,80362,1,0,0:0:0:0:
256,192,80695,1,8,0:0:0:0:
256,192,80917,1,0,0:0:0:0:
256,192,81250,1,8,0:0:0:0:
256,192,81695,1,0,0:0:0:0:
256,192,82028,1,8,0:0:0:0:
256,192,82362,1,8,0:0:0:0:
256,192,82695,1,4,0:0:0:0:
256,192,83028,1,0,0:0:0:0:
256,192,83362,1,8,0:0:0:0:
256,192,83584,1,0,0:0:0:0:
256,192,83917,1,0,0:0:0:0:
256,192,84362,1,0,0:0:0:0:
256,192,84695,1,8,0:0:0:0:
256,192,85028,1,8,0:0:0:0:
256,192,85362,1,0,0:0:0:0:
256,192,85695,1,0,0:0:0:0:
256,192,86028,1,8,0:0:0:0:
256,192,86250,1,0,0:0:0:0:
256,192,86584,1,0,0:0:0:0:
256,192,87028,1,8,0:0:0:0:
256,192,87362,1,12,0:0:0:0:
256,192,88029,1,4,0:0:0:0:
256,192,88362,1,8,0:0:0:0:
256,192,88696,1,8,0:0:0:0:
256,192,88918,1,0,0:0:0:0:
256,192,89251,1,0,0:0:0:0:
256,192,89696,1,0,0:0:0:0:
256,192,90029,1,8,0:0:0:0:
256,192,90696,1,0,0:0:0:0:
256,192,91029,1,0,0:0:0:0:
256,192,91362,1,8,0:0:0:0:
256,192,91584,1,0,0:0:0:0:
256,192,91918,1,8,0:0:0:0:
256,192,92362,1,0,0:0:0:0:
256,192,92696,1,8,0:0:0:0:
256,192,93029,1,8,0:0:0:0:
256,192,93362,1,4,0:0:0:0:
256,192,93696,1,8,0:0:0:0:
256,192,94029,1,8,0:0:0:0:
256,192,94251,1,0,0:0:0:0:
256,192,94584,1,0,0:0:0:0:
256,192,95029,1,0,0:0:0:0:
256,192,95362,1,8,0:0:0:0:
256,192,95696,1,8,0:0:0:0:
256,192,96029,1,0,0:0:0:0:
256,192,96362,1,0,0:0:0:0:
256,192,96696,1,8,0:0:0:0:
256,192,96918,1,0,0:0:0:0:
256,192,97251,1,8,0:0:0:0:
256,192,97696,1,0,0:0:0:0:
256,192,98029,1,12,0:0:0:0:
256,192,98696,1,4,0:0:0:0:
256,192,99029,1,8,0:0:0:0:
256,192,99363,1,8,0:0:0:0:
256,192,99585,1,0,0:0:0:0:
256,192,99918,1,0,0:0:0:0:
256,192,100363,1,0,0:0:0:0:
256,192,100696,1,8,0:0:0:0:
256,192,101363,1,0,0:0:0:0:
256,192,101696,1,0,0:0:0:0:
256,192,102029,1,8,0:0:0:0:
256,192,102251,1,0,0:0:0:0:
256,192,102585,1,8,0:0:0:0:
256,192,103029,1,0,0:0:0:0:
256,192,103363,1,8,0:0:0:0:
256,192,103696,1,8,0:0:0:0:
256,192,104029,1,4,0:0:0:0:
256,192,104363,1,8,0:0:0:0:
256,192,104696,1,8,0:0:0:0:
256,192,104918,1,0,0:0:0:0:
256,192,105251,1,0,0:0:0:0:
256,192,105696,1,0,0:0:0:0:
256,192,106029,1,8,0:0:0:0:
256,192,106363,1,8,0:0:0:0:
256,192,106696,1,0,0:0:0:0:
256,192,107029,1,0,0:0:0:0:
256,192,107363,1,8,0:0:0:0:
256,192,107585,1,0,0:0:0:0:
256,192,107918,1,8,0:0:0:0:
256,192,108363,1,0,0:0:0:0:
256,192,108696,5,12,0:0:0:0:
256,192,109362,1,0,0:0:0:0:
