osu file format v14

[General]
AudioFilename: audio.mp3
AudioLeadIn: 0
PreviewTime: 66580
Countdown: 0
SampleSet: Soft
StackLeniency: 0.7
Mode: 0
LetterboxInBreaks: 0
WidescreenStoryboard: 0

[Editor]
Bookmarks: 2692,13358,24025,45358,66692,88025,109358
DistanceSpacing: 1
BeatDivisor: 6
GridSize: 32
TimelineZoom: 1

[Metadata]
Title:kizu/na
TitleUnicode:キズ/ナ
Artist:midorijeon
ArtistUnicode:midorijeon
Creator:hehe
Version:time/less
Source:
Tags:Lo-fi Lofi Instrumental kizuna 菊千代 壬生 Kikuchiyo Mibu ドーナドーナ いっしょにわるいことをしよう doHna:doHna -Issho ni Warui Koto o Shiyou- Let's Do Bad Things Together midorijeon
BeatmapID:3531419
BeatmapSetID:1728128

[Difficulty]
HPDrainRate:4
CircleSize:4
OverallDifficulty:8.6
ApproachRate:9
SliderMultiplier:1.4
SliderTickRate:1

[Events]
//Background and Video events
0,0,"BG.jpg",0,0
//Break Periods
//Storyboard Layer 0 (Background)
//Storyboard Layer 1 (Fail)
//Storyboard Layer 2 (Pass)
//Storyboard Layer 3 (Foreground)
//Storyboard Layer 4 (Overlay)
//Storyboard Sound Samples

[TimingPoints]
2692,666.666666666667,4,2,1,45,1,0
2692,-125,4,2,1,45,0,0
4692,-125,4,2,1,45,0,0
5358,-125,4,2,1,45,0,0
13025,-125,4,2,1,45,0,0
13358,-125,4,2,1,45,0,0
14691,-125,4,2,1,45,0,0
15358,-125,4,2,1,45,0,0
15802,-125,4,2,1,45,0,0
16025,-125,4,2,1,45,0,0
17136,-125,4,2,1,45,0,0
17358,-125,4,2,1,45,0,0
18469,-125,4,2,1,45,0,0
18692,-125,4,2,1,45,0,0
20024,-125,4,2,1,45,0,0
20692,-125,4,2,1,45,0,0
21136,-125,4,2,1,45,0,0
21358,-125,4,2,1,45,0,0
23358,-125,4,2,1,45,0,0
24025,-31.25,4,2,2,60,0,0
24247,-31.25,4,2,2,60,0,0
24358,-31.25,4,2,2,60,0,0
24580,-31.25,4,2,2,60,0,0
24692,-31.25,4,2,2,60,0,0
25136,-31.25,4,2,2,60,0,0
25247,-31.25,4,2,2,60,0,0
25914,-31.25,4,2,2,60,0,0
26025,-31.25,4,2,2,60,0,0
26914,-31.25,4,2,2,60,0,0
27025,-31.25,4,2,2,60,0,0
27247,-31.25,4,2,2,60,0,0
27358,-31.25,4,2,2,60,0,0
27803,-31.25,4,2,2,60,0,0
27914,-31.25,4,2,2,60,0,0
28580,-31.25,4,2,2,60,0,0
28692,-31.25,4,2,2,60,0,0
29136,-31.25,4,2,2,60,0,0
29247,-31.25,4,2,2,60,0,0
29580,-31.25,4,2,2,60,0,0
29692,-31.25,4,2,2,60,0,0
29914,-31.25,4,2,2,60,0,0
30025,-31.25,4,2,2,60,0,0
30469,-31.25,4,2,2,60,0,0
30580,-31.25,4,2,2,60,0,0
31247,-31.25,4,2,2,60,0,0
31358,-31.25,4,2,2,60,0,0
32247,-31.25,4,2,2,60,0,0
32358,-31.25,4,2,2,60,0,0
32580,-31.25,4,2,2,60,0,0
32692,-31.25,4,2,2,60,0,0
33136,-31.25,4,2,2,60,0,0
33247,-31.25,4,2,2,60,0,0
33914,-31.25,4,2,2,60,0,0
34025,-31.25,4,2,2,60,0,0
34136,-31.25,4,2,2,60,0,0
34247,-31.25,4,2,2,60,0,0
34358,-31.25,4,2,2,60,0,0
34469,-31.25,4,2,2,60,0,0
34580,-31.25,4,2,2,60,0,0
34692,-31.25,4,2,2,60,0,0
34914,-31.25,4,2,2,60,0,0
35025,-31.25,4,2,2,60,0,0
35247,-31.25,4,2,2,60,0,0
35358,-31.25,4,2,2,60,0,0
35803,-31.25,4,2,2,60,0,0
35914,-31.25,4,2,2,60,0,0
36580,-31.25,4,2,2,60,0,0
36692,-31.25,4,2,2,60,0,0
37580,-31.25,4,2,2,60,0,0
37692,-31.25,4,2,2,60,0,0
37914,-31.25,4,2,2,60,0,0
38025,-31.25,4,2,2,60,0,0
38469,-31.25,4,2,2,60,0,0
38580,-31.25,4,2,2,60,0,0
39247,-31.25,4,2,2,60,0,0
39358,-31.25,4,2,2,60,0,0
39803,-31.25,4,2,2,60,0,0
39914,-31.25,4,2,2,60,0,0
40247,-31.25,4,2,2,60,0,0
40358,-31.25,4,2,2,60,0,0
40580,-31.25,4,2,2,60,0,0
40692,-31.25,4,2,2,60,0,0
41136,-31.25,4,2,2,60,0,0
41247,-31.25,4,2,2,60,0,0
41914,-31.25,4,2,2,60,0,0
42025,-31.25,4,2,2,60,0,0
42914,-31.25,4,2,2,60,0,0
43025,-31.25,4,2,2,60,0,0
43247,-31.25,4,2,2,60,0,0
43358,-31.25,4,2,2,60,0,0
43803,-31.25,4,2,2,60,0,0
43914,-31.25,4,2,2,60,0,0
44580,-31.25,4,2,2,60,0,0
44692,-31.25,4,2,2,60,0,0
44803,-31.25,4,2,2,60,0,0
44914,-31.25,4,2,2,60,0,0
45025,-31.25,4,2,2,60,0,0
45136,-31.25,4,2,2,60,0,0
45247,-31.25,4,2,2,60,0,0
45358,-31.25,4,2,2,70,0,0
45580,-31.25,4,2,2,70,0,0
45692,-31.25,4,2,2,70,0,0
45914,-31.25,4,2,2,70,0,0
46025,-31.25,4,2,2,70,0,0
46469,-31.25,4,2,2,70,0,0
46580,-31.25,4,2,2,70,0,0
46803,-31.25,4,2,2,70,0,0
46914,-31.25,4,2,2,70,0,0
47247,-31.25,4,2,2,70,0,0
47358,-31.25,4,2,2,70,0,0
47580,-31.25,4,2,2,70,0,0
47692,-31.25,4,2,2,70,0,0
48247,-31.25,4,2,2,70,0,0
48358,-31.25,4,2,2,70,0,0
48580,-31.25,4,2,2,70,0,0
48692,-31.25,4,2,2,70,0,0
49136,-31.25,4,2,2,70,0,0
49247,-31.25,4,2,2,70,0,0
49914,-31.25,4,2,2,70,0,0
50025,-31.25,4,2,2,70,0,0
50247,-31.25,4,2,2,70,0,0
50358,-31.25,4,2,2,70,0,0
50469,-31.25,4,2,2,70,0,0
50580,-31.25,4,2,2,70,0,0
50914,-31.25,4,2,2,70,0,0
51025,-31.25,4,2,2,70,0,0
51247,-31.25,4,2,2,70,0,0
51358,-31.25,4,2,2,70,0,0
51803,-31.25,4,2,2,70,0,0
51914,-31.25,4,2,2,70,0,0
52136,-31.25,4,2,2,70,0,0
52247,-31.25,4,2,2,70,0,0
52580,-31.25,4,2,2,70,0,0
52692,-31.25,4,2,2,70,0,0
52914,-31.25,4,2,2,70,0,0
53025,-31.25,4,2,2,70,0,0
53580,-31.25,4,2,2,70,0,0
53692,-31.25,4,2,2,70,0,0
53914,-31.25,4,2,2,70,0,0
54025,-31.25,4,2,2,70,0,0
54469,-31.25,4,2,2,70,0,0
54580,-31.25,4,2,2,70,0,0
54803,-31.25,4,2,2,70,0,0
54914,-31.25,4,2,2,70,0,0
55247,-31.25,4,2,2,70,0,0
55358,-31.25,4,2,2,70,0,0
56247,-31.25,4,2,2,70,0,0
56358,-31.25,4,2,2,70,0,0
56580,-31.25,4,2,2,70,0,0
56692,-31.25,4,2,2,70,0,0
57136,-31.25,4,2,2,70,0,0
57247,-31.25,4,2,2,70,0,0
57469,-31.25,4,2,2,70,0,0
57580,-31.25,4,2,2,70,0,0
57914,-31.25,4,2,2,70,0,0
58025,-31.25,4,2,2,70,0,0
58247,-31.25,4,2,2,70,0,0
58358,-31.25,4,2,2,70,0,0
58914,-31.25,4,2,2,70,0,0
59025,-31.25,4,2,2,70,0,0
59247,-31.25,4,2,2,70,0,0
59358,-31.25,4,2,2,70,0,0
59803,-31.25,4,2,2,70,0,0
59914,-31.25,4,2,2,70,0,0
60580,-31.25,4,2,2,70,0,0
60692,-31.25,4,2,2,70,0,0
60914,-31.25,4,2,2,70,0,0
61025,-31.25,4,2,2,70,0,0
61136,-31.25,4,2,2,70,0,0
61247,-31.25,4,2,2,70,0,0
61580,-31.25,4,2,2,70,0,0
61692,-31.25,4,2,2,70,0,0
61914,-31.25,4,2,2,70,0,0
62025,-31.25,4,2,2,70,0,0
62469,-31.25,4,2,2,70,0,0
62580,-31.25,4,2,2,70,0,0
62803,-31.25,4,2,2,70,0,0
62914,-31.25,4,2,2,70,0,0
63247,-31.25,4,2,2,70,0,0
63358,-31.25,4,2,2,70,0,0
63580,-31.25,4,2,2,70,0,0
63692,-31.25,4,2,2,70,0,0
64247,-31.25,4,2,2,70,0,0
64358,-31.25,4,2,2,70,0,0
64580,-31.25,4,2,2,70,0,0
64692,-31.25,4,2,2,70,0,0
65136,-31.25,4,2,2,70,0,0
65247,-31.25,4,2,2,70,0,0
65469,-31.25,4,2,2,70,0,0
65580,-31.25,4,2,2,70,0,0
65914,-31.25,4,2,2,70,0,0
66025,-31.25,4,2,2,70,0,0
66358,-31.25,4,2,3,70,0,0
66692,-25,4,2,4,80,0,0
66914,-25,4,2,4,80,0,0
67025,-25,4,2,4,80,0,0
67247,-25,4,2,4,80,0,0
67358,-25,4,2,4,80,0,0
67469,-25,4,2,4,80,0,0
67580,-25,4,2,4,80,0,0
67803,-25,4,2,4,80,0,0
67914,-25,4,2,4,80,0,0
68136,-25,4,2,4,80,0,0
68247,-25,4,2,4,80,0,0
68580,-25,4,2,4,80,0,0
68692,-83.3333333333333,4,2,4,80,0,0
69358,-25,4,2,5,80,0,0
69580,-25,4,2,5,80,0,0
69692,-25,4,2,5,80,0,0
69914,-25,4,2,5,80,0,0
70025,-25,4,2,5,80,0,0
70692,-25,4,2,6,80,0,0
70914,-25,4,2,6,80,0,0
71025,-25,4,2,6,80,0,0
71247,-25,4,2,6,80,0,0
71358,-25,4,2,5,80,0,0
71580,-25,4,2,5,80,0,0
71692,-25,4,2,2,80,0,0
72025,-25,4,2,4,80,0,0
72247,-25,4,2,4,80,0,0
72358,-25,4,2,4,80,0,0
72580,-25,4,2,4,80,0,0
72692,-25,4,2,4,80,0,0
72803,-25,4,2,4,80,0,0
72914,-25,4,2,4,80,0,0
73136,-25,4,2,4,80,0,0
73247,-25,4,2,4,80,0,0
73469,-25,4,2,4,80,0,0
73580,-25,4,2,4,80,0,0
73914,-25,4,2,4,80,0,0
74025,-83.3333333333333,4,2,4,80,0,0
74692,-25,4,2,6,80,0,0
74914,-25,4,2,6,80,0,0
75025,-25,4,2,6,80,0,0
75247,-25,4,2,6,80,0,0
75358,-25,4,2,2,80,0,0
76580,-25,4,2,2,80,0,0
76692,-50,4,2,2,80,0,0
76803,-50,4,2,2,80,0,0
76914,-50,4,2,2,80,0,0
77025,-50,4,2,2,80,0,0
77136,-50,4,2,2,80,0,0
77247,-50,4,2,2,80,0,0
77358,-25,4,2,7,80,0,0
77580,-25,4,2,7,80,0,0
77692,-25,4,2,7,80,0,0
77914,-25,4,2,7,80,0,0
78025,-25,4,2,7,80,0,0
78136,-25,4,2,7,80,0,0
78247,-25,4,2,7,80,0,0
78469,-25,4,2,7,80,0,0
78580,-25,4,2,7,80,0,0
78803,-25,4,2,7,80,0,0
78914,-25,4,2,7,80,0,0
79247,-25,4,2,7,80,0,0
79358,-83.3333333333333,4,2,2,80,0,0
80025,-25,4,2,8,80,0,0
80247,-25,4,2,8,80,0,0
80358,-25,4,2,8,80,0,0
80580,-25,4,2,8,80,0,0
80692,-25,4,2,7,80,0,0
81580,-25,4,2,7,80,0,0
81692,-25,4,2,7,80,0,0
81914,-25,4,2,7,80,0,0
82025,-25,4,2,7,80,0,0
82247,-25,4,2,7,80,0,0
82358,-25,4,2,2,80,0,0
82691,-25,4,2,9,80,0,0
82914,-25,4,2,9,80,0,0
83025,-25,4,2,9,80,0,0
83247,-25,4,2,9,80,0,0
83358,-25,4,2,2,80,0,0
83469,-25,4,2,2,80,0,0
83580,-25,4,2,2,80,0,0
83803,-25,4,2,2,80,0,0
83914,-25,4,2,2,80,0,0
84136,-25,4,2,2,80,0,0
84247,-25,4,2,2,80,0,0
84580,-25,4,2,2,80,0,0
84692,-83.3333333333333,4,2,2,80,0,0
85358,-25,4,2,10,80,0,0
85580,-25,4,2,10,80,0,0
85692,-25,4,2,10,80,0,0
85914,-25,4,2,10,80,0,0
86025,-25,4,2,2,80,0,0
86136,-25,4,2,2,80,0,0
86247,-25,4,2,2,80,0,0
87247,-25,4,2,2,80,0,0
87358,-25,4,2,2,80,0,0
88025,-25,4,2,4,80,0,0
88247,-25,4,2,4,80,0,0
88358,-25,4,2,1,80,0,0
88580,-25,4,2,1,80,0,0
88692,-25,4,2,2,80,0,0
88803,-25,4,2,2,80,0,0
88914,-25,4,2,2,80,0,0
89025,-25,4,2,1,80,0,0
89136,-25,4,2,1,80,0,0
89247,-25,4,2,2,80,0,0
89469,-25,4,2,2,80,0,0
89580,-25,4,2,2,80,0,0
89692,-25,4,2,1,80,0,0
89914,-25,4,2,1,80,0,0
90025,-83.3333333333333,4,2,4,80,0,0
90358,-83.3333333333333,4,2,1,80,0,0
90580,-83.3333333333333,4,2,5,80,0,0
90692,-25,4,2,5,80,0,0
90914,-25,4,2,5,80,0,0
91025,-25,4,2,1,80,0,0
91247,-25,4,2,1,80,0,0
91358,-25,4,2,5,80,0,0
91692,-25,4,2,1,80,0,0
91913,-25,4,2,6,80,0,0
92025,-25,4,2,6,80,0,0
92247,-25,4,2,6,80,0,0
92358,-25,4,2,1,80,0,0
92580,-25,4,2,1,80,0,0
92692,-25,4,2,5,80,0,0
92914,-25,4,2,5,80,0,0
93025,-25,4,2,11,80,0,0
93136,-25,4,2,2,80,0,0
93247,-25,4,2,2,80,0,0
93358,-25,4,2,4,80,0,0
93580,-25,4,2,4,80,0,0
93692,-25,4,2,1,80,0,0
93914,-25,4,2,1,80,0,0
94025,-25,4,2,2,80,0,0
94136,-25,4,2,2,80,0,0
94247,-25,4,2,2,80,0,0
94358,-25,4,2,1,80,0,0
94469,-25,4,2,1,80,0,0
94580,-25,4,2,2,80,0,0
94803,-25,4,2,2,80,0,0
94914,-25,4,2,2,80,0,0
95025,-25,4,2,1,80,0,0
95247,-25,4,2,1,80,0,0
95358,-83.3333333333333,4,2,2,80,0,0
95692,-83.3333333333333,4,2,1,80,0,0
95913,-83.3333333333333,4,2,6,80,0,0
96025,-25,4,2,6,80,0,0
96247,-25,4,2,6,80,0,0
96358,-25,4,2,1,80,0,0
96580,-25,4,2,1,80,0,0
96692,-25,4,2,2,80,0,0
97025,-25,4,2,1,80,0,0
97246,-25,4,2,2,80,0,0
97691,-25,4,2,1,80,0,0
97914,-25,4,2,1,80,0,0
98025,-25,4,2,2,80,0,0
98358,-25,4,2,1,80,0,0
98469,-25,4,2,2,80,0,0
98692,-25,4,2,7,80,0,0
98914,-25,4,2,7,80,0,0
99025,-25,4,2,1,80,0,0
99247,-25,4,2,1,80,0,0
99358,-25,4,2,2,80,0,0
99469,-25,4,2,2,80,0,0
99580,-25,4,2,2,80,0,0
99692,-25,4,2,1,80,0,0
99803,-25,4,2,1,80,0,0
99914,-25,4,2,2,80,0,0
100136,-25,4,2,2,80,0,0
100247,-25,4,2,2,80,0,0
100358,-25,4,2,1,80,0,0
100580,-25,4,2,1,80,0,0
100692,-83.3333333333333,4,2,2,80,0,0
101025,-83.3333333333333,4,2,3,80,0,0
101246,-83.3333333333333,4,2,8,80,0,0
101358,-25,4,2,8,80,0,0
101580,-25,4,2,8,80,0,0
101692,-25,4,2,1,80,0,0
101914,-25,4,2,1,80,0,0
102025,-25,4,2,2,80,0,0
102358,-25,4,2,1,80,0,0
102579,-25,4,2,2,80,0,0
102914,-25,4,2,2,80,0,0
103025,-25,4,2,1,80,0,0
103247,-25,4,2,1,80,0,0
103358,-25,4,2,7,80,0,0
103580,-25,4,2,7,80,0,0
103692,-25,4,2,11,80,0,0
103802,-25,4,2,2,80,0,0
103914,-25,4,2,2,80,0,0
104025,-25,4,2,9,80,0,0
104247,-25,4,2,9,80,0,0
104358,-25,4,2,1,80,0,0
104580,-25,4,2,1,80,0,0
104692,-25,4,2,2,80,0,0
104803,-25,4,2,2,80,0,0
104914,-25,4,2,2,80,0,0
105025,-25,4,2,1,80,0,0
105136,-25,4,2,1,80,0,0
105247,-25,4,2,2,80,0,0
105469,-25,4,2,2,80,0,0
105580,-25,4,2,2,80,0,0
105690,-25,4,2,1,80,0,0
105914,-25,4,2,1,80,0,0
106025,-83.3333333333333,4,2,2,80,0,0
106358,-83.3333333333333,4,2,1,80,0,0
106579,-83.3333333333333,4,2,10,80,0,0
106692,-25,4,2,10,80,0,0
106914,-25,4,2,10,80,0,0
107025,-25,4,2,1,80,0,0
107247,-25,4,2,1,80,0,0
107358,-25,4,2,2,80,0,0
107469,-25,4,2,2,80,0,0
107580,-25,4,2,2,80,0,0
107692,-25,4,2,1,80,0,0
107912,-25,4,2,2,80,0,0
108357,-25,4,2,1,80,0,0
108580,-25,4,2,1,80,0,0
108692,-25,4,2,2,80,0,0
109025,-25,4,2,1,80,0,0
109135,-25,4,2,2,80,0,0
109358,-100,4,2,2,50,0,0
112024,-100,4,2,2,50,0,0

[Colours]
Combo1 : 255,81,255
Combo2 : 255,128,255

[HitObjects]
245,317,2692,6,0,B|264:270|363:216|431:248|448:300|398:321|345:323|346:288|313:273|282:286|252:315,1,336,2|0,2:2|0:0,0:0:0:0:
186,116,5358,6,0,B|202:70|142:34|126:81|166:151|189:115|210:157|218:207|204:236,2,224,2|2|2,2:2|2:2|2:2,0:0:0:0:
371,95,10692,5,2,2:2:0:0:
256,192,10803,12,0,13025,0:0:0:0:
87,92,13358,5,2,2:2:0:0:
87,92,14025,2,0,P|135:86|189:128,1,112,8|0,2:2|0:0,0:0:0:0:
424,40,15358,2,0,P|394:51|346:50,1,74.6666666666667,8|0,2:2|0:0,0:0:0:0:
270,17,16025,5,2,2:2:0:0:
270,17,16692,2,0,P|284:57|292:100,1,74.6666666666667,8|0,2:2|0:0,0:0:0:0:
371,138,17358,5,2,2:2:0:0:
371,138,18025,2,0,P|358:175|351:223,1,74.6666666666667,8|0,2:2|0:0,0:0:0:0:
401,279,18692,5,2,2:2:0:0:
401,279,19358,2,0,P|446:285|508:320,1,112,8|0,2:2|0:0,0:0:0:0:
244,360,20692,2,0,P|235:335|230:281,1,74.6666666666667,8|0,2:2|0:0,0:0:0:0:
268,218,21358,5,2,2:2:0:0:
256,192,21469,12,8,23358,2:2:0:0:
127,72,24025,6,0,P|209:82|264:141,1,149.333333333333,10|0,2:1|0:0,0:0:0:0:
364,86,24358,2,0,P|367:139|349:87,1,149.333333333333,8|0,2:1|0:0,0:0:0:0:
432,32,24692,1,8,2:2:0:0:
408,291,25025,6,0,B|389:317|389:317|379:289|408:277,1,74.6666666666667
477,250,25247,1,8,2:1:0:0:
477,250,25358,1,0,0:0:0:0:
450,376,25580,5,0,0:0:0:0:
450,376,25692,2,0,P|366:343|261:334,1,149.333333333333,8|0,2:1|0:0,0:0:0:0:
232,348,26025,1,8,2:2:0:0:
279,142,26358,5,0,0:0:0:0:
115,162,26580,1,8,2:1:0:0:
176,212,26692,6,0,P|147:133|83:70,1,149.333333333333,10|0,2:1|0:0,0:0:0:0:
27,77,27025,2,0,P|76:11|158:30,1,149.333333333333,8|0,2:1|0:0,0:0:0:0:
200,133,27358,1,8,2:2:0:0:
441,53,27692,6,0,B|456:36|456:36|482:35|482:35|469:54|446:47,1,74.6666666666667
361,28,27914,1,8,2:1:0:0:
361,28,28025,1,2,2:2:0:0:
319,156,28247,5,0,0:0:0:0:
319,156,28358,2,0,P|397:215|456:188,1,149.333333333333,8|0,2:1|0:0,0:0:0:0:
467,127,28692,1,8,2:2:0:0:
206,105,29025,6,0,B|221:112|221:112|245:191,1,74.6666666666667,2|0,2:3|0:0,0:0:0:0:
272,325,29247,1,8,2:2:0:0:
251,245,29358,6,0,P|271:157|328:64,1,149.333333333333,10|0,2:1|0:0,0:0:0:0:
370,131,29692,2,0,B|382:100|368:68|368:68|402:84|400:132|377:160,1,149.333333333333,8|0,2:1|0:0,0:0:0:0:
430,213,30025,1,8,2:2:0:0:
146,268,30358,6,0,L|53:246,1,74.6666666666667
2,286,30580,1,8,2:1:0:0:
2,286,30692,1,0,0:0:0:0:
202,333,30914,5,0,0:0:0:0:
202,333,31025,2,0,P|185:245|150:165,1,149.333333333333,8|0,2:1|0:0,0:0:0:0:
93,152,31358,1,8,2:2:0:0:
329,282,31692,5,0,0:0:0:0:
378,161,31914,1,8,2:1:0:0:
303,181,32025,6,0,P|341:249|425:254,1,149.333333333333,10|0,2:1|0:0,0:0:0:0:
424,355,32358,2,0,P|441:282|476:217,1,149.333333333333,8|0,2:1|0:0,0:0:0:0:
458,141,32692,1,8,2:2:0:0:
266,25,33025,6,0,P|274:52|257:29,1,74.6666666666667
353,7,33247,1,8,2:1:0:0:
353,7,33358,1,0,0:0:0:0:
320,128,33580,5,0,0:0:0:0:
320,128,33692,2,0,P|246:86|158:69,1,149.333333333333,8|0,2:1|0:0,0:0:0:0:
111,101,34025,6,0,L|86:25,1,74.6666666666667,8|0,2:2|0:0,0:0:0:0:
90,184,34247,6,0,L|36:243,1,74.6666666666667,8|0,2:2|0:0,0:0:0:0:
173,161,34469,6,0,L|251:177,1,74.6666666666667,8|0,2:2|0:0,0:0:0:0:
283,253,34692,6,0,P|382:228|471:220,1,149.333333333333,10|0,2:1|0:0,0:0:0:0:
468,153,35025,2,0,P|511:230|470:293,1,149.333333333333,8|0,2:1|0:0,0:0:0:0:
512,356,35358,1,8,2:2:0:0:
226,296,35692,6,0,P|240:249|243:210,1,74.6666666666667
186,166,35914,1,8,2:1:0:0:
186,166,36025,1,0,0:0:0:0:
152,344,36247,5,0,0:0:0:0:
152,344,36358,2,0,P|122:265|47:208,1,149.333333333333,8|0,2:1|0:0,0:0:0:0:
0,250,36692,1,8,2:2:0:0:
165,33,37025,5,0,0:0:0:0:
276,113,37247,1,8,2:1:0:0:
278,36,37358,6,0,P|306:107|320:210,1,149.333333333333,10|0,2:1|0:0,0:0:0:0:
401,186,37692,2,0,B|410:215|410:215|351:245|336:322,1,149.333333333333,8|0,2:1|0:0,0:0:0:0:
329,384,38025,1,8,2:2:0:0:
391,76,38358,6,0,B|372:105|372:105|362:80|390:62,1,74.6666666666667
480,81,38580,1,8,2:1:0:0:
480,81,38692,1,2,2:2:0:0:
396,180,38914,5,0,0:0:0:0:
396,180,39025,2,0,P|314:162|294:94,1,149.333333333333,8|0,2:1|0:0,0:0:0:0:
326,30,39358,1,8,2:2:0:0:
137,193,39692,6,0,B|191:179|191:179|219:198,1,74.6666666666667,2|0,2:3|0:0,0:0:0:0:
362,261,39914,1,8,2:2:0:0:
310,205,40025,6,0,P|226:223|206:310,1,149.333333333333,10|0,2:1|0:0,0:0:0:0:
264,319,40358,2,0,P|351:293|443:289,1,149.333333333333,8|0,2:1|0:0,0:0:0:0:
485,317,40692,1,8,2:2:0:0:
215,161,41025,6,0,P|232:150|215:165,1,74.6666666666667
174,238,41247,1,8,2:1:0:0:
174,238,41358,1,0,0:0:0:0:
332,211,41580,5,0,0:0:0:0:
332,211,41692,2,0,P|314:121|313:36,1,149.333333333333,8|0,2:1|0:0,0:0:0:0:
371,14,42025,1,8,2:2:0:0:
449,274,42358,5,0,0:0:0:0:
319,366,42580,1,8,2:1:0:0:
273,300,42692,6,0,B|245:288|245:288|181:290|113:376,1,149.333333333333,10|0,2:1|0:0,0:0:0:0:
73,384,43025,2,0,P|65:315|151:259,1,149.333333333333,8|0,2:1|0:0,0:0:0:0:
207,351,43358,1,8,2:2:0:0:
364,195,43692,6,0,L|348:117,1,74.6666666666667
439,224,43914,1,8,2:1:0:0:
439,224,44025,1,0,0:0:0:0:
312,47,44247,5,0,0:0:0:0:
312,47,44358,2,0,P|299:135|277:214,1,149.333333333333,8|0,2:1|0:0,0:0:0:0:
181,195,44692,6,0,P|152:141|169:95,1,74.6666666666667,8|0,2:2|0:0,0:0:0:0:
237,272,44914,6,0,P|204:324|156:332,1,74.6666666666667,8|0,2:2|0:0,0:0:0:0:
276,186,45136,6,0,P|337:187|368:225,1,74.6666666666667,8|0,2:2|0:0,0:0:0:0:
512,280,45358,6,0,B|493:300|493:300|438:259|367:267,1,149.333333333333,10|0,2:1|0:0,0:0:0:0:
274,345,45692,2,0,P|212:356|160:266,1,149.333333333333,8|0,2:1|0:0,0:0:0:0:
91,238,46025,1,8,2:2:0:0:
226,25,46358,6,0,P|231:45|214:116,1,74.6666666666667
147,124,46580,1,8,2:1:0:0:
123,129,46692,2,0,L|23:143,1,74.6666666666667
196,197,46914,5,0,0:0:0:0:
204,212,47025,2,0,B|293:210|260:157|342:162,1,149.333333333333,8|0,2:1|0:0,0:0:0:0:
394,100,47358,2,0,P|477:138|492:223,1,149.333333333333,8|0,2:2|0:0,0:0:0:0:
436,245,47692,1,0,0:0:0:0:
457,31,47914,5,8,2:1:0:0:
490,113,48025,2,0,L|322:166,1,149.333333333333,10|0,2:1|0:0,0:0:0:0:
275,24,48358,2,0,P|210:32|185:136,1,149.333333333333,8|0,2:1|0:0,0:0:0:0:
220,171,48692,1,8,2:2:0:0:
13,274,49025,6,0,P|26:225|30:184,1,74.6666666666667
101,152,49247,1,8,2:1:0:0:
96,129,49358,1,2,2:2:0:0:
257,108,49580,5,0,0:0:0:0:
227,183,49692,2,0,P|256:265|273:362,1,149.333333333333,8|0,2:1|0:0,0:0:0:0:
457,362,50025,2,0,P|381:375|363:282,1,149.333333333333,10|0,2:2|0:0,0:0:0:0:
417,271,50358,2,0,L|431:185,1,74.6666666666667,2|0,2:3|0:0,0:0:0:0:
201,265,50580,5,8,2:2:0:0:
257,206,50692,2,0,P|182:234|113:296,1,149.333333333333,10|0,2:1|0:0,0:0:0:0:
65,228,51025,2,0,P|53:304|150:352,1,149.333333333333,8|0,2:1|0:0,0:0:0:0:
177,372,51358,1,8,2:2:0:0:
320,155,51692,6,0,L|299:58,1,74.6666666666667
395,203,51914,1,8,2:1:0:0:
406,190,52025,2,0,L|419:104,1,74.6666666666667
251,202,52247,5,0,0:0:0:0:
254,224,52358,2,0,P|168:217|169:126,1,149.333333333333,8|0,2:1|0:0,0:0:0:0:
56,201,52692,2,0,P|78:119|77:16,1,149.333333333333,8|0,2:2|0:0,0:0:0:0:
16,4,53025,1,0,0:0:0:0:
190,94,53247,5,8,2:1:0:0:
115,123,53358,2,0,B|118:151|118:151|177:188|194:292,1,149.333333333333,10|0,2:1|0:0,0:0:0:0:
263,275,53692,2,0,P|184:282|96:359,1,149.333333333333,8|0,2:1|0:0,0:0:0:0:
40,309,54025,1,8,2:2:0:0:
226,379,54358,6,0,P|211:357|218:381,1,74.6666666666667
363,289,54580,1,8,2:1:0:0:
372,306,54692,2,0,P|336:328|294:373,1,74.6666666666667
481,209,54914,5,0,0:0:0:0:
497,237,55025,2,0,P|401:217|346:138,1,149.333333333333,8|0,2:1|0:0,0:0:0:0:
405,111,55358,5,8,2:2:0:0:
107,24,55580,5,8,2:2:0:0:
128,341,55803,5,8,2:2:0:0:
177,82,56025,6,0,P|193:185|257:251,1,149.333333333333,10|0,2:1|0:0,0:0:0:0:
441,217,56358,2,0,B|407:193|413:156|413:156|397:189|343:192,1,149.333333333333,8|0,2:1|0:0,0:0:0:0:
376,273,56692,1,8,2:2:0:0:
309,34,57025,6,0,L|330:142,1,74.6666666666667
235,181,57247,1,8,2:1:0:0:
220,165,57358,2,0,L|239:65,1,74.6666666666667
164,34,57580,5,0,0:0:0:0:
146,22,57692,2,0,B|78:6|29:59|29:59|41:117,1,149.333333333333,8|0,2:1|0:0,0:0:0:0:
115,110,58025,2,0,P|146:191|85:244,1,149.333333333333,8|0,2:2|0:0,0:0:0:0:
6,268,58358,1,0,0:0:0:0:
184,174,58580,5,8,2:1:0:0:
248,230,58692,2,0,P|229:316|233:393,1,149.333333333333,10|0,2:1|0:0,0:0:0:0:
66,319,59025,2,0,P|135:317|149:249,1,149.333333333333,8|0,2:1|0:0,0:0:0:0:
71,231,59358,1,8,2:2:0:0:
326,184,59692,6,0,P|364:171|426:171,1,74.6666666666667
295,104,59914,1,8,2:1:0:0:
271,98,60025,1,2,2:2:0:0:
295,254,60247,5,0,0:0:0:0:
262,328,60358,2,0,P|176:338|149:245,1,149.333333333333,8|0,2:1|0:0,0:0:0:0:
145,156,60692,2,0,B|142:93|85:57|85:57|92:116,1,149.333333333333,10|0,2:2|0:0,0:0:0:0:
21,245,61025,2,0,L|120:219,1,74.6666666666667,2|0,2:3|0:0,0:0:0:0:
251,148,61247,5,8,2:2:0:0:
203,219,61358,2,0,P|274:245|338:311,1,149.333333333333,10|0,2:1|0:0,0:0:0:0:
455,170,61692,2,0,P|485:210|451:181,1,149.333333333333,8|0,2:1|0:0,0:0:0:0:
401,257,62025,1,8,2:2:0:0:
508,355,62358,6,0,L|486:260,1,74.6666666666667
318,297,62580,1,8,2:1:0:0:
291,303,62692,2,0,L|252:231,1,74.6666666666667
148,206,62914,5,0,0:0:0:0:
166,223,63025,2,0,P|241:194|336:180,1,149.333333333333,8|0,2:1|0:0,0:0:0:0:
387,174,63358,2,0,P|345:110|274:106,1,149.333333333333,8|0,2:2|0:0,0:0:0:0:
208,65,63692,1,0,0:0:0:0:
252,250,63914,5,8,2:1:0:0:
308,181,64025,2,0,P|327:100|360:33,1,149.333333333333,10|0,2:1|0:0,0:0:0:0:
168,0,64358,2,0,P|218:90|241:162,1,149.333333333333,8|0,2:1|0:0,0:0:0:0:
252,250,64692,1,8,2:2:0:0:
132,200,65025,6,0,P|97:205|33:231,1,74.6666666666667
177,274,65247,1,8,2:1:0:0:
197,280,65358,2,0,L|211:195,1,74.6666666666667
237,26,65580,5,0,0:0:0:0:
265,37,65692,2,0,L|290:210,1,149.333333333333,8|0,2:1|0:0,0:0:0:0:
365,213,66025,6,0,B|357:241|326:256|326:256|506:217,1,224,8|2,2:2|2:1,0:0:0:0:
486,221,66692,6,0,P|483:151|326:126,1,186.666666666667,14|0,2:1|0:0,0:0:0:0:
273,36,67025,2,0,B|224:22|190:72|215:110|215:110|229:70|273:60,1,186.666666666667,8|0,2:1|0:0,0:0:0:0:
305,166,67358,6,0,P|318:137|296:162,1,93.3333333333333,8|0,2:2|0:0,0:0:0:0:
145,154,67580,2,0,P|92:170|15:225,2,93.3333333333333,8|0|0,2:1|0:0|0:0,0:0:0:0:
91,83,67914,5,8,2:1:0:0:
26,35,68025,2,0,P|7:72|34:142,1,93.3333333333333
57,274,68247,5,0,0:0:0:0:
213,203,68358,2,0,P|307:227|324:316,1,186.666666666667,8|0,2:1|0:0,0:0:0:0:
238,365,68692,6,0,P|239:323|246:281,1,84,10|0,2:2|0:0,0:0:0:0:
366,99,69247,1,8,2:1:0:0:
352,82,69358,6,0,B|299:67|267:114|267:114|313:136|318:206,1,186.666666666667,10|0,2:1|0:0,0:0:0:0:
390,257,69692,2,0,B|443:272|474:224|474:224|428:198|423:132,1,186.666666666667,8|0,2:1|0:0,0:0:0:0:
510,148,70025,5,10,2:2:0:0:
324,312,70247,1,8,2:1:0:0:
307,233,70358,1,0,0:0:0:0:
105,142,70580,1,8,2:1:0:0:
116,126,70692,6,0,B|60:120|34:85|34:85|49:123|22:179,1,186.666666666667,2|0,2:2|0:0,0:0:0:0:
66,249,71025,2,0,B|122:255|148:290|148:290|133:252|160:196,1,186.666666666667,8|0,2:1|0:0,0:0:0:0:
241,133,71358,6,0,B|226:163|226:163|325:150|391:250,1,186.666666666667,10|8,2:2|2:1,0:0:0:0:
373,305,71692,5,10,2:3:0:0:
457,291,71803,1,8,2:3:0:0:
485,210,71914,1,12,2:3:0:0:
459,381,72025,6,0,B|365:369|411:312|289:305,1,186.666666666667,10|0,2:1|0:0,0:0:0:0:
170,241,72358,2,0,P|153:314|264:358,1,186.666666666667,8|0,2:1|0:0,0:0:0:0:
373,305,72692,6,0,B|391:298|400:278|384:260|384:260|383:279|366:298,1,93.3333333333333,8|0,2:2|0:0,0:0:0:0:
348,181,72914,2,0,P|343:136|351:74,2,93.3333333333333,8|0|0,2:1|0:0|0:0,0:0:0:0:
414,46,73247,5,8,2:1:0:0:
311,14,73358,2,0,P|267:55|280:119,1,93.3333333333333
420,223,73580,5,0,0:0:0:0:
295,288,73692,2,0,P|210:285|190:165,1,186.666666666667,8|0,2:1|0:0,0:0:0:0:
326,135,74025,6,0,P|334:176|338:217,1,84,8|0,2:2|0:0,0:0:0:0:
195,360,74580,1,8,2:1:0:0:
203,339,74692,6,0,B|238:324|277:348|277:348|302:286|247:241,1,186.666666666667,10|0,2:1|0:0,0:0:0:0:
265,145,75025,2,0,P|176:159|151:274,1,186.666666666667,8|0,2:1|0:0,0:0:0:0:
126,319,75358,1,8,2:2:0:0:
259,267,75580,5,8,2:1:0:0:
243,241,75692,1,0,0:0:0:0:
343,137,75914,5,8,2:1:0:0:
329,216,76025,1,0,0:0:0:0:
466,197,76247,5,0,0:0:0:0:
391,76,76358,2,0,B|421:44|479:36|506:65|506:65|504:106|464:123,1,186.666666666667,8|0,2:1|0:0,0:0:0:0:
465,116,76692,6,0,L|452:178,1,46.6666666666667,10|0,2:2|0:0,0:0:0:0:
257,153,76914,6,0,L|244:215,1,46.6666666666667,10|0,2:2|0:0,0:0:0:0:
49,190,77136,6,0,L|36:252,1,46.6666666666667,10|0,2:2|0:0,0:0:0:0:
34,249,77358,6,0,P|148:260|225:324,1,186.666666666667,10|0,2:1|0:0,0:0:0:0:
373,320,77692,2,0,B|366:340|366:340|433:358|508:309|508:309|483:283,1,186.666666666667,8|0,2:1|0:0,0:0:0:0:
283,272,78025,6,0,P|282:332|227:378,1,93.3333333333333,8|0,2:2|0:0,0:0:0:0:
350,224,78247,2,0,P|323:187|278:189,2,93.3333333333333,8|0|0,2:1|0:0|0:0,0:0:0:0:
106,245,78580,5,8,2:1:0:0:
135,174,78692,2,0,P|148:153|126:174,1,93.3333333333333
240,124,78914,5,0,0:0:0:0:
283,272,79025,2,0,P|380:247|412:144,1,186.666666666667,8|0,2:1|0:0,0:0:0:0:
221,206,79358,6,0,P|169:208|122:221,1,84,10|2,2:2|2:2,0:0:0:0:
14,58,79914,1,8,2:1:0:0:
25,76,80025,6,0,B|46:19|46:19|135:29|142:110,1,186.666666666667,10|0,2:1|0:0,0:0:0:0:
236,76,80358,2,0,P|199:183|195:288,1,186.666666666667,8|0,2:1|0:0,0:0:0:0:
257,305,80692,5,8,2:2:0:0:
106,280,80914,1,8,2:1:0:0:
94,205,81025,1,0,0:0:0:0:
330,138,81247,1,8,2:1:0:0:
339,152,81358,6,0,B|233:153|286:235|161:241,1,186.666666666667
83,123,81692,2,0,P|73:64|191:74,1,186.666666666667,8|0,2:1|0:0,0:0:0:0:
267,31,82025,6,0,P|256:150|272:262,1,186.666666666667,10|8,2:2|2:1,0:0:0:0:
361,192,82358,5,10,2:3:0:0:
324,269,82469,1,8,2:3:0:0:
381,333,82580,1,12,2:3:0:0:
214,352,82692,6,0,P|122:346|100:222,1,186.666666666667,10|0,2:1|0:0,0:0:0:0:
202,169,83025,2,0,B|215:124|173:90|135:110|135:110|171:127|180:174,1,186.666666666667,8|0,2:1|0:0,0:0:0:0:
165,265,83358,6,0,P|198:264|165:260,1,93.3333333333333,8|0,2:2|0:0,0:0:0:0:
95,355,83580,2,0,P|56:368|-16:369,2,93.3333333333333,8|0|0,2:1|0:0|0:0,0:0:0:0:
268,294,83914,5,8,2:1:0:0:
323,359,84025,2,0,P|352:317|346:257,1,93.3333333333333
384,184,84247,5,0,0:0:0:0:
259,211,84358,2,0,P|191:203|178:59,1,186.666666666667,8|0,2:1|0:0,0:0:0:0:
309,64,84692,6,0,P|312:114|313:162,1,84,8|0,2:2|0:0,0:0:0:0:
461,246,85247,1,8,2:1:0:0:
447,232,85358,6,0,B|374:250|330:326|330:326|281:295,1,186.666666666667,10|0,2:1|0:0,0:0:0:0:
310,208,85692,2,0,P|207:242|156:175,1,186.666666666667,8|0,2:1|0:0,0:0:0:0:
153,111,86025,2,0,B|144:73|144:73|179:84|164:134,1,93.3333333333333,8|0,2:2|0:0,0:0:0:0:
231,203,86247,5,8,2:1:0:0:
237,166,86358,1,0,0:0:0:0:
65,270,86580,5,8,2:1:0:0:
83,357,86692,1,0,0:0:0:0:
300,369,86914,5,0,0:0:0:0:
329,223,87025,2,0,B|211:237|271:276|139:297,1,186.666666666667,8|0,2:1|0:0,0:0:0:0:
145,296,87358,6,0,L|157:243,11,46.6666666666667,10|0|0|0|10|0|0|0|10|0|0|0,2:2|0:0|0:0|0:0|2:2|0:0|0:0|0:0|2:2|0:0|0:0|0:0,0:0:0:0:
207,358,88025,6,0,P|189:260|190:144,1,186.666666666667,14|0,2:1|0:0,0:0:0:0:
247,25,88358,2,0,P|345:52|344:172,1,186.666666666667,8|0,2:1|0:0,0:0:0:0:
266,150,88692,6,0,B|282:137|287:110|273:102|273:102|272:123|253:149,1,93.3333333333333,8|0,2:2|0:0,0:0:0:0:
427,183,88914,2,0,P|465:162|521:144,2,93.3333333333333,8|2|0,2:1|2:3|0:0,0:0:0:0:
469,253,89247,5,8,2:1:0:0:
452,334,89358,2,0,P|404:311|394:242,1,93.3333333333333
350,155,89580,5,0,0:0:0:0:
257,251,89692,2,0,P|347:197|480:187,1,186.666666666667,8|0,2:1|0:0,0:0:0:0:
264,334,90025,6,0,P|220:329|182:281,1,84,10|2,2:2|2:3,0:0:0:0:
32,368,90580,1,8,2:1:0:0:
50,371,90692,6,0,B|8:330|28:272|28:272|65:311|132:291,1,186.666666666667,10|0,2:1|0:0,0:0:0:0:
69,197,91025,2,0,B|68:138|123:111|123:111|122:165|183:198,1,186.666666666667,8|0,2:1|0:0,0:0:0:0:
233,159,91358,5,10,2:2:0:0:
229,363,91580,1,8,2:1:0:0:
204,293,91691,1,2,2:3:0:0:
435,317,91914,1,8,2:1:0:0:
439,299,92025,6,0,B|434:253|383:227|383:227|343:274|365:324,1,186.666666666667,2|0,2:2|0:0,0:0:0:0:
311,173,92358,2,0,B|306:218|255:244|255:244|215:197|237:147,1,186.666666666667,8|0,2:1|0:0,0:0:0:0:
260,78,92692,6,0,P|155:114|148:200,1,186.666666666667,10|8,2:2|2:1,0:0:0:0:
78,251,93025,5,10,2:3:0:0:
72,335,93136,1,8,2:3:0:0:
151,355,93247,1,12,2:3:0:0:
236,276,93358,6,0,P|334:281|455:354,1,186.666666666667,10|0,2:1|0:0,0:0:0:0:
512,183,93692,2,0,P|406:221|384:157,1,186.666666666667,8|0,2:1|0:0,0:0:0:0:
444,123,94025,6,0,P|448:62|456:19,1,93.3333333333333,8|0,2:2|0:0,0:0:0:0:
308,233,94247,2,0,P|294:128|280:63,2,93.3333333333333,8|2|0,2:1|2:3|0:0,0:0:0:0:
209,27,94580,5,8,2:1:0:0:
141,68,94692,2,0,P|173:102|220:108,1,93.3333333333333
390,205,94914,5,0,0:0:0:0:
370,89,95025,2,0,P|264:108|253:209,1,186.666666666667,8|0,2:1|0:0,0:0:0:0:
433,138,95358,6,0,P|472:133|524:121,1,84,8|2,2:2|2:3,0:0:0:0:
163,68,95914,1,8,2:1:0:0:
181,69,96025,6,0,P|221:153|251:286,1,186.666666666667,10|0,2:1|0:0,0:0:0:0:
402,270,96358,2,0,P|315:299|381:330,1,186.666666666667,8|0,2:1|0:0,0:0:0:0:
425,346,96692,1,8,2:2:0:0:
211,378,96914,5,8,2:1:0:0:
207,353,97025,1,2,2:3:0:0:
309,265,97247,5,8,2:1:0:0:
324,190,97358,1,0,0:0:0:0:
182,199,97580,5,0,0:0:0:0:
161,94,97692,2,0,B|121:93|114:46|114:46|135:8|185:0|221:22,1,186.666666666667,8|0,2:1|0:0,0:0:0:0:
264,69,98025,5,10,2:2:0:0:
371,47,98247,5,10,2:2:0:0:
478,25,98469,5,10,2:2:0:0:
486,219,98692,6,0,P|382:220|357:122,1,186.666666666667,10|0,2:1|0:0,0:0:0:0:
331,16,99025,2,0,B|412:1|446:87|446:87|380:134,1,186.666666666667,8|0,2:1|0:0,0:0:0:0:
271,175,99358,6,0,P|246:163|158:162,1,93.3333333333333,8|0,2:2|0:0,0:0:0:0:
355,207,99580,2,0,P|381:182|351:199,2,93.3333333333333,8|2|0,2:1|2:3|0:0,0:0:0:0:
166,77,99914,5,8,2:1:0:0:
102,142,100025,2,0,P|119:205|178:232,1,93.3333333333333
318,108,100247,5,0,0:0:0:0:
389,293,100358,2,0,P|276:310|211:354,1,186.666666666667,8|0,2:1|0:0,0:0:0:0:
68,316,100692,6,0,P|109:312|148:297,1,84,10|2,2:2|2:3,0:0:0:0:
266,159,101247,1,8,2:1:0:0:
275,177,101358,6,0,B|253:198|253:198|182:140|85:140,1,186.666666666667,10|0,2:1|0:0,0:0:0:0:
28,97,101692,2,0,P|44:34|180:16,1,186.666666666667,8|0,2:1|0:0,0:0:0:0:
202,59,102025,5,8,2:2:0:0:
408,142,102247,1,8,2:1:0:0:
419,62,102358,1,2,2:3:0:0:
267,196,102580,1,8,2:1:0:0:
281,186,102692,6,0,P|317:219|221:259,1,186.666666666667
320,113,103025,2,0,P|212:152|126:138,1,186.666666666667,8|0,2:1|0:0,0:0:0:0:
72,188,103358,6,0,B|22:187|7:240|7:240|48:276|51:323,1,186.666666666667,10|8,2:2|2:1,0:0:0:0:
147,227,103692,5,10,2:3:0:0:
204,172,103803,1,8,2:3:0:0:
276,204,103914,1,12,2:3:0:0:
303,55,104025,6,0,P|409:86|480:172,1,186.666666666667,10|0,2:1|0:0,0:0:0:0:
406,274,104358,2,0,P|301:269|294:159,1,186.666666666667,8|0,2:1|0:0,0:0:0:0:
376,116,104692,6,0,P|360:177|360:236,1,93.3333333333333,8|0,2:2|0:0,0:0:0:0:
480,316,104914,2,0,P|488:250|439:200,2,93.3333333333333,8|2|0,2:1|2:3|0:0,0:0:0:0:
504,145,105247,5,8,2:1:0:0:
458,81,105358,2,0,P|445:51|467:76,1,93.3333333333333
389,187,105580,5,0,0:0:0:0:
269,84,105692,2,0,P|181:143|223:235,1,186.666666666667,8|0,2:1|0:0,0:0:0:0:
350,114,106025,6,0,P|356:57|368:10,1,84,8|2,2:2|2:3,0:0:0:0:
95,155,106580,1,8,2:1:0:0:
105,140,106692,6,0,P|189:155|323:215,1,186.666666666667,10|0,2:1|0:0,0:0:0:0:
271,94,107025,2,0,B|379:86|331:19|435:21,1,186.666666666667,8|0,2:1|0:0,0:0:0:0:
511,24,107358,2,0,L|489:151,1,93.3333333333333,8|0,2:2|0:0,0:0:0:0:
428,189,107580,5,8,2:1:0:0:
450,186,107692,1,2,2:3:0:0:
253,242,107914,5,8,2:1:0:0:
328,261,108025,1,0,0:0:0:0:
44,177,108247,5,0,0:0:0:0:
147,128,108358,2,0,B|153:61|223:50|223:50|223:94|280:128,1,186.666666666667,8|0,2:1|0:0,0:0:0:0:
273,189,108692,5,10,2:2:0:0:
243,205,108914,5,10,2:2:0:0:
181,145,109136,5,10,2:2:0:0:
120,199,109358,6,0,B|213:120|328:162|337:218|317:261|317:261|297:302|307:362|429:403|515:335,1,560,2|0,2:2|0:0,0:0:0:0:
