osu file format v14

[General]
AudioFilename: audio.mp3
AudioLeadIn: 0
PreviewTime: 66580
Countdown: 0
SampleSet: Soft
StackLeniency: 0.7
Mode: 0
LetterboxInBreaks: 0
WidescreenStoryboard: 1

[Editor]
Bookmarks: 2692,13358,24025,45358,66692,88025,109358
DistanceSpacing: 1
BeatDivisor: 6
GridSize: 32
TimelineZoom: 1

[Metadata]
Title:kizu/na
TitleUnicode:キズ/ナ
Artist:midorijeon
ArtistUnicode:midorijeon
Creator:hehe
Version:ha/rd
Source:
Tags:Lo-fi Lofi Instrumental kizuna 菊千代 壬生 Kikuchiyo Mibu ドーナドーナ いっしょにわるいことをしよう doHna:doHna -Issho ni Warui Koto o Shiyou- Let's Do Bad Things Together midorijeon
BeatmapID:3531748
BeatmapSetID:1728128

[Difficulty]
HPDrainRate:3
CircleSize:4
OverallDifficulty:6
ApproachRate:7.8
SliderMultiplier:1.4
SliderTickRate:1

[Events]
//Background and Video events
0,0,"BG.jpg",0,0
//Break Periods
//Storyboard Layer 0 (Background)
//Storyboard Layer 1 (Fail)
//Storyboard Layer 2 (Pass)
//Storyboard Layer 3 (Foreground)
//Storyboard Layer 4 (Overlay)
//Storyboard Sound Samples

[TimingPoints]
2692,666.666666666667,4,2,1,45,1,0
2692,-100,4,2,1,45,0,0
24025,-50,4,2,2,60,0,0
45358,-50,4,2,2,70,0,0
66358,-50,4,2,3,70,0,0
66692,-50,4,2,4,80,0,0
69358,-50,4,2,5,80,0,0
70692,-50,4,2,6,80,0,0
71358,-50,4,2,5,80,0,0
71692,-50,4,2,2,80,0,0
72025,-50,4,2,4,80,0,0
74691,-50,4,2,6,80,0,0
75358,-50,4,2,2,80,0,0
77358,-50,4,2,7,80,0,0
79358,-50,4,2,2,80,0,0
80024,-50,4,2,8,80,0,0
80691,-50,4,2,7,80,0,0
82358,-50,4,2,2,80,0,0
82691,-50,4,2,9,80,0,0
83357,-50,4,2,2,80,0,0
85358,-50,4,2,10,80,0,0
86024,-50,4,2,2,80,0,0
88025,-50,4,2,4,80,0,0
88358,-50,4,2,1,80,0,0
88691,-50,4,2,2,80,0,0
89025,-50,4,2,1,80,0,0
89247,-50,4,2,2,80,0,0
89691,-50,4,2,1,80,0,0
90025,-50,4,2,4,80,0,0
90358,-50,4,2,1,80,0,0
90580,-50,4,2,5,80,0,0
91025,-50,4,2,1,80,0,0
91358,-50,4,2,5,80,0,0
91692,-50,4,2,1,80,0,0
91913,-50,4,2,6,80,0,0
92358,-50,4,2,1,80,0,0
92691,-50,4,2,5,80,0,0
93025,-50,4,2,11,80,0,0
93136,-50,4,2,2,80,0,0
93358,-50,4,2,4,80,0,0
93691,-50,4,2,1,80,0,0
94024,-50,4,2,2,80,0,0
94358,-50,4,2,1,80,0,0
94580,-50,4,2,2,80,0,0
95024,-50,4,2,1,80,0,0
95358,-50,4,2,2,80,0,0
95692,-50,4,2,1,80,0,0
95913,-50,4,2,6,80,0,0
96358,-50,4,2,1,80,0,0
96691,-50,4,2,2,80,0,0
97025,-50,4,2,1,80,0,0
97246,-50,4,2,2,80,0,0
97691,-50,4,2,1,80,0,0
98024,-50,4,2,2,80,0,0
98358,-50,4,2,1,80,0,0
98469,-50,4,2,2,80,0,0
98691,-50,4,2,7,80,0,0
99024,-50,4,2,1,80,0,0
99357,-50,4,2,2,80,0,0
99692,-50,4,2,1,80,0,0
99913,-50,4,2,2,80,0,0
100357,-50,4,2,1,80,0,0
100691,-50,4,2,2,80,0,0
101025,-50,4,2,3,80,0,0
101246,-50,4,2,8,80,0,0
101691,-50,4,2,1,80,0,0
102024,-50,4,2,2,80,0,0
102358,-50,4,2,1,80,0,0
102579,-50,4,2,2,80,0,0
103024,-50,4,2,1,80,0,0
103357,-50,4,2,7,80,0,0
103691,-50,4,2,11,80,0,0
103802,-50,4,2,2,80,0,0
104024,-50,4,2,9,80,0,0
104357,-50,4,2,1,80,0,0
104690,-50,4,2,2,80,0,0
105025,-50,4,2,1,80,0,0
105246,-50,4,2,2,80,0,0
105690,-50,4,2,1,80,0,0
106024,-50,4,2,2,80,0,0
106358,-50,4,2,1,80,0,0
106579,-50,4,2,10,80,0,0
107024,-50,4,2,1,80,0,0
107357,-50,4,2,2,80,0,0
107692,-50,4,2,1,80,0,0
107912,-50,4,2,2,80,0,0
108357,-50,4,2,1,80,0,0
108690,-50,4,2,2,80,0,0
109025,-50,4,2,1,80,0,0
109135,-50,4,2,2,80,0,0
109358,-100,4,2,2,50,0,0

[Colours]
Combo1 : 255,81,255
Combo2 : 255,128,255

[HitObjects]
349,204,2692,6,0,B|366:148|320:88|312:145|240:120|250:-8|323:-43|444:125|390:234|332:254,1,420,2|0,2:2|0:0,0:0:0:0:
9,202,5358,6,0,B|61:168|139:182|176:241|172:245|168:248|199:295|258:263,2,280,2|2|2,2:2|2:2|2:2,0:0:0:0:
311,108,10692,5,2,2:2:0:0:
256,192,10803,12,0,12692,0:0:0:0:
34,82,13358,6,0,P|84:62|144:58,1,93.3333333333333,2|0,2:2|0:0,0:0:0:0:
198,80,14025,1,8,2:2:0:0:
198,80,15358,1,8,2:2:0:0:
397,150,16025,6,0,P|384:212|383:294,1,140,2|8,2:2|2:2,0:0:0:0:
278,279,17358,2,0,P|291:217|292:135,1,140,2|8,2:2|2:2,0:0:0:0:
35,319,18692,6,0,P|82:313|139:287,1,93.3333333333333,2|0,2:2|0:0,0:0:0:0:
164,225,19358,1,8,2:2:0:0:
164,225,20692,1,8,2:2:0:0:
336,335,21358,5,2,2:2:0:0:
256,192,21469,12,8,23358,2:2:0:0:
306,109,24025,6,0,P|340:79|446:57,2,140,10|8|8,2:1|2:1|2:2,0:0:0:0:
341,244,25025,1,0,0:0:0:0:
277,311,25247,1,8,2:1:0:0:
277,311,25358,2,0,P|221:296|166:295,1,93.3333333333333
186,246,25692,2,0,P|131:261|82:287,1,93.3333333333333,8|0,2:1|0:0,0:0:0:0:
69,312,26025,2,0,P|21:273|31:184,1,140,8|0,2:2|0:0,0:0:0:0:
112,180,26580,1,8,2:1:0:0:
112,180,26692,6,0,P|105:109|79:42,2,140,10|8|8,2:1|2:1|2:2,0:0:0:0:
230,256,27692,1,0,0:0:0:0:
310,207,27914,1,8,2:1:0:0:
310,207,28025,2,0,P|288:126|266:84,1,93.3333333333333,2|0,2:2|0:0,0:0:0:0:
315,82,28358,2,0,P|339:33|406:27,1,93.3333333333333,8|0,2:1|0:0,0:0:0:0:
418,36,28692,1,8,2:2:0:0:
504,147,29025,1,2,2:3:0:0:
446,219,29247,1,8,2:2:0:0:
446,219,29358,6,0,P|390:196|299:182,2,140,10|8|8,2:1|2:1|2:2,0:0:0:0:
452,359,30358,1,0,0:0:0:0:
361,378,30580,1,8,2:1:0:0:
361,378,30692,2,0,P|351:309|334:263,1,93.3333333333333
299,298,31025,2,0,P|307:230|323:179,1,93.3333333333333,8|0,2:1|0:0,0:0:0:0:
360,207,31358,2,0,P|370:146|285:113,1,140,8|0,2:2|0:0,0:0:0:0:
233,156,31914,1,8,2:1:0:0:
233,156,32025,6,0,B|162:151|182:204|107:202,2,140,10|8|8,2:1|2:1|2:2,0:0:0:0:
293,29,33025,1,0,0:0:0:0:
202,10,33247,1,8,2:1:0:0:
202,10,33358,2,0,P|174:63|138:93,1,93.3333333333333
144,131,33692,2,0,P|88:110|35:105,1,93.3333333333333,8|0,2:1|0:0,0:0:0:0:
13,125,34025,1,8,2:2:0:0:
29,216,34247,1,8,2:2:0:0:
44,308,34469,1,8,2:2:0:0:
130,269,34692,6,0,P|202:287|266:332,2,140,10|8|8,2:1|2:1|2:2,0:0:0:0:
46,380,35692,1,0,0:0:0:0:
12,293,35914,1,8,2:1:0:0:
12,293,36025,2,0,P|32:229|54:190,1,93.3333333333333
14,170,36358,2,0,P|60:136|115:121,1,93.3333333333333,8|0,2:1|0:0,0:0:0:0:
104,78,36692,2,0,P|192:93|225:173,1,140,8|0,2:2|0:0,0:0:0:0:
200,221,37247,1,8,2:1:0:0:
200,221,37358,6,0,P|183:288|175:376,2,140,10|8|8,2:1|2:1|2:2,0:0:0:0:
324,288,38358,1,0,0:0:0:0:
402,236,38580,1,8,2:1:0:0:
402,236,38692,2,0,P|396:170|398:121,1,93.3333333333333,2|0,2:2|0:0,0:0:0:0:
443,136,39025,2,0,P|451:66|448:20,1,93.3333333333333,8|0,2:1|0:0,0:0:0:0:
418,10,39358,1,8,2:2:0:0:
306,94,39692,1,2,2:3:0:0:
237,32,39914,1,8,2:2:0:0:
237,32,40025,6,0,P|171:36|136:118,2,140,10|8|8,2:1|2:1|2:2,0:0:0:0:
267,169,41025,1,0,0:0:0:0:
181,204,41247,1,8,2:1:0:0:
181,204,41358,2,0,P|168:273|166:323,1,93.3333333333333
206,322,41692,2,0,P|249:295|276:254,1,93.3333333333333,8|0,2:1|0:0,0:0:0:0:
316,240,42025,2,0,P|368:290|398:373,1,140,8|0,2:2|0:0,0:0:0:0:
485,376,42580,1,8,2:1:0:0:
485,376,42692,6,0,P|496:293|514:194,2,140,10|8|8,2:1|2:1|2:2,0:0:0:0:
378,285,43692,1,0,0:0:0:0:
313,350,43914,1,8,2:1:0:0:
313,350,44025,2,0,P|250:341|212:312,1,93.3333333333333
188,351,44358,2,0,P|178:290|163:227,1,93.3333333333333,8|0,2:1|0:0,0:0:0:0:
196,218,44692,1,8,2:2:0:0:
219,127,44914,1,8,2:2:0:0:
242,36,45136,1,8,2:2:0:0:
321,86,45358,6,0,P|399:103|441:171,2,140,10|8|8,2:1|2:1|2:2,0:0:0:0:
264,213,46358,1,0,0:0:0:0:
198,147,46580,1,8,2:1:0:0:
198,147,46692,2,0,P|140:137|74:142,1,93.3333333333333
70,166,47025,2,0,P|31:114|15:63,1,93.3333333333333,8|0,2:1|0:0,0:0:0:0:
8,43,47358,2,0,P|64:35|147:0,1,140,8|0,2:2|0:0,0:0:0:0:
217,59,47914,1,8,2:1:0:0:
217,59,48025,6,0,B|210:132|166:107|154:212,2,140,10|8|8,2:1|2:1|2:2,0:0:0:0:
347,5,49025,1,0,0:0:0:0:
411,73,49247,1,8,2:1:0:0:
411,73,49358,2,0,P|444:119|472:175,1,93.3333333333333,2|0,2:2|0:0,0:0:0:0:
506,167,49692,2,0,P|482:211|466:273,1,93.3333333333333,8|0,2:1|0:0,0:0:0:0:
493,292,50025,1,10,2:2:0:0:
372,361,50358,1,2,2:3:0:0:
304,297,50580,1,8,2:2:0:0:
304,297,50692,6,0,P|321:237|326:132,2,140,10|8|8,2:1|2:1|2:2,0:0:0:0:
176,240,51692,1,0,0:0:0:0:
178,333,51914,1,8,2:1:0:0:
178,333,52025,2,0,P|129:356|84:384,1,93.3333333333333
67,340,52358,2,0,P|20:318|-1:263,1,93.3333333333333,8|0,2:1|0:0,0:0:0:0:
32,246,52692,2,0,P|49:182|55:91,1,140,8|0,2:2|0:0,0:0:0:0:
145,121,53247,1,8,2:1:0:0:
145,121,53358,6,0,P|132:54|46:20,2,140,10|8|8,2:1|2:1|2:2,0:0:0:0:
102,254,54358,1,0,0:0:0:0:
191,223,54580,1,8,2:1:0:0:
191,223,54692,2,0,P|206:281|234:330,1,93.3333333333333
231,356,55025,2,0,P|289:336|337:330,1,93.3333333333333,8|0,2:1|0:0,0:0:0:0:
360,356,55358,1,8,2:2:0:0:
425,288,55580,1,8,2:2:0:0:
490,220,55803,1,8,2:2:0:0:
420,158,56025,6,0,P|450:88|423:11,2,140,10|8|8,2:1|2:1|2:2,0:0:0:0:
299,87,57025,1,0,0:0:0:0:
230,149,57247,1,8,2:1:0:0:
230,149,57358,2,0,P|170:147|103:164,1,93.3333333333333
106,117,57692,2,0,P|82:170|41:222,1,93.3333333333333,8|0,2:1|0:0,0:0:0:0:
18,186,58025,2,0,P|10:258|17:354,1,140,8|0,2:2|0:0,0:0:0:0:
99,362,58580,1,8,2:1:0:0:
99,362,58692,6,0,B|170:365|147:306|239:309,2,140,10|8|8,2:1|2:1|2:2,0:0:0:0:
20,246,59692,1,0,0:0:0:0:
94,188,59914,1,8,2:1:0:0:
94,188,60025,2,0,P|104:115|113:75,1,93.3333333333333,2|0,2:2|0:0,0:0:0:0:
79,59,60358,2,0,P|131:28|184:11,1,93.3333333333333,8|0,2:1|0:0,0:0:0:0:
208,8,60692,1,10,2:2:0:0:
281,127,61025,1,2,2:3:0:0:
358,73,61247,1,8,2:2:0:0:
358,73,61358,6,0,P|443:69|525:87,2,140,10|8|8,2:1|2:1|2:2,0:0:0:0:
234,7,62358,1,0,0:0:0:0:
163,66,62580,1,8,2:1:0:0:
163,66,62692,2,0,P|163:123|167:167,1,93.3333333333333
126,181,63025,2,0,P|124:240|114:300,1,93.3333333333333,8|0,2:1|0:0,0:0:0:0:
79,295,63358,2,0,P|85:358|170:376,1,140,8|0,2:2|0:0,0:0:0:0:
224,325,63914,1,8,2:1:0:0:
224,325,64025,6,0,P|221:256|228:174,2,140,10|8|8,2:1|2:1|2:2,0:0:0:0:
356,374,65025,1,0,0:0:0:0:
419,304,65247,1,8,2:1:0:0:
419,304,65358,1,0,0:0:0:0:
354,238,65580,1,0,0:0:0:0:
354,238,65692,2,0,P|353:166|356:122,1,93.3333333333333,8|0,2:1|0:0,0:0:0:0:
395,121,66025,2,0,P|365:65|281:57,1,140,8|2,2:2|2:1,0:0:0:0:
159,18,66692,6,0,P|140:75|140:140,1,93.3333333333333,14|0,2:1|0:0,0:0:0:0:
95,125,67025,2,0,P|120:177|129:251,1,93.3333333333333,8|0,2:1|0:0,0:0:0:0:
115,256,67358,1,8,2:2:0:0:
89,345,67580,1,8,2:1:0:0:
89,345,67692,1,0,0:0:0:0:
175,383,67914,1,8,2:1:0:0:
175,383,68025,6,0,P|233:340|277:328,1,93.3333333333333
257,286,68358,2,0,P|318:311|419:318,1,140,8|10,2:1|2:2,0:0:0:0:
497,227,69025,1,0,0:0:0:0:
429,163,69247,1,8,2:1:0:0:
429,163,69358,6,0,P|431:103|444:5,2,140,10|8|10,2:1|2:1|2:2,0:0:0:0:
370,235,70247,1,8,2:1:0:0:
370,235,70358,1,0,0:0:0:0:
290,186,70580,1,8,2:1:0:0:
290,186,70692,6,0,P|288:246|275:344,2,140,2|8|10,2:2|2:1|2:2,0:0:0:0:
157,142,71692,1,10,2:3:0:0:
130,179,71803,1,8,2:3:0:0:
87,195,71914,1,12,2:3:0:0:
43,184,72025,6,0,P|23:117|-4:78,1,93.3333333333333,10|0,2:1|0:0,0:0:0:0:
13,50,72358,2,0,P|76:48|129:32,1,93.3333333333333,8|0,2:1|0:0,0:0:0:0:
145,15,72692,1,8,2:2:0:0:
225,64,72914,1,8,2:1:0:0:
225,64,73025,1,0,0:0:0:0:
189,149,73247,1,8,2:1:0:0:
189,149,73358,6,0,P|138:182|112:240,1,93.3333333333333
78,225,73692,2,0,P|75:298|152:335,1,140,8|8,2:1|2:2,0:0:0:0:
259,374,74358,1,0,0:0:0:0:
302,291,74580,1,8,2:1:0:0:
302,291,74692,6,0,P|365:312|413:350,1,93.3333333333333,10|0,2:1|0:0,0:0:0:0:
419,291,75025,2,0,P|480:286|508:243,1,93.3333333333333,8|0,2:1|0:0,0:0:0:0:
498,218,75358,1,8,2:2:0:0:
435,150,75580,1,8,2:1:0:0:
435,150,75692,1,0,0:0:0:0:
345,173,75914,1,8,2:1:0:0:
345,173,76025,6,0,P|285:159|244:143,1,93.3333333333333
225,182,76358,2,0,P|167:180|109:197,1,93.3333333333333,8|0,2:1|0:0,0:0:0:0:
104,150,76692,1,10,2:2:0:0:
35,212,76914,1,10,2:2:0:0:
7,123,77136,1,10,2:2:0:0:
82,66,77358,6,0,P|154:39|204:35,1,93.3333333333333,10|0,2:1|0:0,0:0:0:0:
212,15,77692,2,0,P|262:49|302:59,1,93.3333333333333,8|0,2:1|0:0,0:0:0:0:
331,30,78025,1,8,2:2:0:0:
419,16,78247,1,8,2:1:0:0:
419,16,78358,1,0,0:0:0:0:
474,91,78580,1,8,2:1:0:0:
474,91,78692,6,0,P|451:143|439:193,1,93.3333333333333
481,203,79025,2,0,P|455:283|379:289,1,140,8|10,2:1|2:2,0:0:0:0:
289,222,79692,1,2,2:2:0:0:
206,264,79914,1,8,2:1:0:0:
206,264,80025,6,0,P|249:331|297:373,2,140,10|8|8,2:1|2:1|2:2,0:0:0:0:
120,229,80914,1,8,2:1:0:0:
120,229,81025,1,0,0:0:0:0:
29,264,81247,1,8,2:1:0:0:
29,264,81358,6,0,P|40:213|41:159,1,93.3333333333333
4,144,81692,2,0,P|-2:93|62:16,1,140,8|10,2:1|2:2,0:0:0:0:
160,104,82358,1,10,2:3:0:0:
207,109,82469,1,8,2:3:0:0:
253,114,82580,1,12,2:3:0:0:
300,119,82692,6,0,P|331:164|347:211,1,93.3333333333333,10|0,2:1|0:0,0:0:0:0:
391,207,83025,2,0,P|371:274|371:325,1,93.3333333333333,8|0,2:1|0:0,0:0:0:0:
399,333,83358,1,8,2:2:0:0:
316,375,83580,1,8,2:1:0:0:
316,375,83692,1,0,0:0:0:0:
241,320,83914,1,8,2:1:0:0:
241,320,84025,6,0,P|222:255|212:211,1,93.3333333333333
171,220,84358,2,0,P|188:164|148:83,1,140,8|8,2:1|2:2,0:0:0:0:
21,120,85025,1,0,0:0:0:0:
7,216,85247,1,8,2:1:0:0:
7,216,85358,6,0,P|68:239|106:265,1,93.3333333333333,10|0,2:1|0:0,0:0:0:0:
86,300,85692,2,0,P|137:328|189:316,1,93.3333333333333,8|0,2:1|0:0,0:0:0:0:
209,298,86025,1,8,2:2:0:0:
289,346,86247,1,8,2:1:0:0:
289,346,86358,1,0,0:0:0:0:
354,279,86580,1,8,2:1:0:0:
354,279,86692,6,0,P|347:212|348:168,1,93.3333333333333
308,161,87025,2,0,P|327:107|359:59,1,93.3333333333333,8|0,2:1|0:0,0:0:0:0:
330,32,87358,2,0,P|389:17|433:41,2,93.3333333333333,10|10|10,2:2|2:2|2:2,0:0:0:0:
249,78,88025,6,0,P|193:60|132:56,1,93.3333333333333,14|0,2:1|0:0,0:0:0:0:
128,21,88358,2,0,P|70:40|38:88,1,93.3333333333333,8|0,2:1|0:0,0:0:0:0:
4,75,88692,1,8,2:2:0:0:
70,141,88914,1,8,2:1:0:0:
70,141,89025,1,2,2:3:0:0:
29,224,89247,1,8,2:1:0:0:
29,224,89358,6,0,P|55:286|63:330,1,93.3333333333333
33,349,89692,2,0,P|104:368|149:290,1,140,8|10,2:1|2:2,0:0:0:0:
283,359,90358,1,2,2:3:0:0:
331,278,90580,1,8,2:1:0:0:
331,278,90692,6,0,B|421:278|380:324|483:328,2,140,10|8|10,2:1|2:1|2:2,0:0:0:0:
259,218,91580,1,8,2:1:0:0:
259,218,91692,1,2,2:3:0:0:
271,129,91914,1,8,2:1:0:0:
271,129,92025,6,0,B|181:129|222:175|119:179,2,140,2|8|10,2:2|2:1|2:2,0:0:0:0:
400,185,93025,1,10,2:3:0:0:
443,168,93136,1,8,2:3:0:0:
471,132,93247,1,12,2:3:0:0:
477,86,93358,6,0,P|410:77|381:60,1,93.3333333333333,10|0,2:1|0:0,0:0:0:0:
376,19,93692,2,0,P|314:13|256:19,1,93.3333333333333,8|0,2:1|0:0,0:0:0:0:
250,47,94025,1,8,2:2:0:0:
265,139,94247,1,8,2:1:0:0:
265,139,94358,1,2,2:3:0:0:
196,201,94580,1,8,2:1:0:0:
196,201,94692,6,0,P|133:213|97:227,1,93.3333333333333
73,190,95025,2,0,P|23:239|31:326,1,140,8|8,2:1|2:2,0:0:0:0:
146,369,95692,1,2,2:3:0:0:
228,322,95914,1,8,2:1:0:0:
228,322,96025,6,0,P|239:247|246:216,1,93.3333333333333,10|0,2:1|0:0,0:0:0:0:
287,215,96358,2,0,P|276:143|261:95,1,93.3333333333333,8|0,2:1|0:0,0:0:0:0:
250,81,96692,1,8,2:2:0:0:
305,5,96914,1,8,2:1:0:0:
305,5,97025,1,2,2:3:0:0:
393,36,97247,1,8,2:1:0:0:
393,36,97358,6,0,P|417:75|421:136,1,93.3333333333333
465,143,97692,2,0,P|441:202|390:244,1,93.3333333333333,8|0,2:1|0:0,0:0:0:0:
416,269,98025,1,10,2:2:0:0:
329,236,98247,1,10,2:2:0:0:
336,328,98469,1,10,2:2:0:0:
422,367,98692,6,0,P|435:297|454:239,1,93.3333333333333,10|0,2:1|0:0,0:0:0:0:
484,256,99025,2,0,P|480:184|461:135,1,93.3333333333333,8|0,2:1|0:0,0:0:0:0:
451,123,99358,1,8,2:2:0:0:
367,162,99580,1,8,2:1:0:0:
367,162,99692,1,2,2:3:0:0:
310,88,99914,1,8,2:1:0:0:
310,88,100025,6,0,P|244:71|205:54,1,93.3333333333333
195,22,100358,2,0,P|135:23|46:73,1,140,8|10,2:1|2:2,0:0:0:0:
23,190,101025,1,2,2:3:0:0:
113,202,101247,1,8,2:1:0:0:
113,202,101358,6,0,P|77:269|7:284,2,140,10|8|8,2:1|2:1|2:2,0:0:0:0:
171,128,102247,1,8,2:1:0:0:
171,128,102358,1,2,2:3:0:0:
245,184,102580,1,8,2:1:0:0:
245,184,102692,6,0,P|312:205|349:229,1,93.3333333333333
373,193,103025,2,0,P|432:193|476:109,1,140,8|10,2:1|2:2,0:0:0:0:
396,17,103692,1,10,2:3:0:0:
369,55,103803,1,8,2:3:0:0:
343,94,103914,1,12,2:3:0:0:
318,133,104025,6,0,P|243:142|219:157,1,93.3333333333333,10|0,2:1|0:0,0:0:0:0:
185,135,104358,2,0,P|166:190|148:230,1,93.3333333333333,8|0,2:1|0:0,0:0:0:0:
116,251,104692,1,8,2:2:0:0:
164,331,104914,1,8,2:1:0:0:
164,331,105025,1,2,2:3:0:0:
258,330,105247,1,8,2:1:0:0:
258,330,105358,6,0,P|265:260|276:222,1,93.3333333333333
241,202,105692,2,0,P|303:150|378:163,1,140,8|8,2:1|2:2,0:0:0:0:
443,264,106358,1,2,2:3:0:0:
499,189,106580,1,8,2:1:0:0:
499,189,106692,6,0,P|478:267|461:353,2,140,10|8|8,2:1|2:1|2:2,0:0:0:0:
444,114,107580,1,8,2:1:0:0:
444,114,107692,1,2,2:3:0:0:
368,167,107914,1,8,2:1:0:0:
368,167,108025,6,0,P|320:152|276:122,1,93.3333333333333
249,158,108358,2,0,P|191:165|132:205,1,93.3333333333333,8|0,2:1|0:0,0:0:0:0:
121,155,108692,1,10,2:2:0:0:
87,241,108914,1,10,2:2:0:0:
0,209,109136,1,10,2:2:0:0:
34,123,109358,6,0,B|127:44|242:86|251:142|231:185|231:185|211:226|221:286|343:327|429:259,1,560,2|0,2:2|0:0,0:0:0:0:
