osu file format v14

[General]
AudioFilename: audio.mp3
AudioLeadIn: 0
PreviewTime: 70710
Countdown: 0
SampleSet: Normal
StackLeniency: 0.7
Mode: 1
LetterboxInBreaks: 0
EpilepsyWarning: 1
WidescreenStoryboard: 0

[Editor]
Bookmarks: 15452,27839,37129,43323,46419,58806,71194,83581
DistanceSpacing: 1.3
BeatDivisor: 4
GridSize: 32
TimelineZoom: 1.6

[Metadata]
Title:Bau Bau Battle-Rap Breakbeats 4 Breakfast
TitleUnicode:Bau Bau Battle-Rap Breakbeats 4 Breakfast
Artist:midijunki
ArtistUnicode:midijunki
Creator:iRedi
Version:Kantan
Source:
Tags:Funky #fwmcbeats #FWMCMORNING english novelty hip hop hiphop hip-hop female vocals fuwawa abyssgard フワワ・アビスガード mococo abyssgard モココ・アビスガード ruffians fuwamoco morning hololive ホロライブ en advent vtubers virtual youtubers
BeatmapID:4373214
BeatmapSetID:2087076

[Difficulty]
HPDrainRate:8
CircleSize:2
OverallDifficulty:3
ApproachRate:10
SliderMultiplier:1.4
SliderTickRate:1

[Events]
//Background and Video events
0,0,"wawawa.jpg",0,85
Video,0,"output.mp4"
//Break Periods
//Storyboard Layer 0 (Background)
//Storyboard Layer 1 (Fail)
//Storyboard Layer 2 (Pass)
//Storyboard Layer 3 (Foreground)
//Storyboard Layer 4 (Overlay)
//Storyboard Sound Samples

[TimingPoints]
-3128,387.096774193548,4,1,0,70,1,0
3065,-100,4,1,0,80,0,1
15452,-100,4,1,0,80,0,0
27888,-100,4,1,0,40,0,0
29146,-100,4,1,0,60,0,0
30931,-100,4,1,0,70,0,0
43371,-100,4,1,0,60,0,0
46415,-100,4,1,0,70,0,0
58802,-100,4,1,0,75,0,0
70371,-100,4,1,0,40,0,0
70801,-100,4,1,0,80,0,0
71194,-100,4,1,0,80,0,1
83484,-100,4,1,0,80,0,0

[HitObjects]
256,192,355,8,0,2291,0:0:0:0:
512,0,3065,5,4,0:0:0:0:
256,192,3452,1,8,0:0:0:0:
256,192,4226,1,0,0:0:0:0:
256,192,4613,1,0,0:0:0:0:
256,192,5000,1,8,0:0:0:0:
256,192,5774,1,0,0:0:0:0:
256,192,6161,1,8,0:0:0:0:
256,192,6548,1,0,0:0:0:0:
256,192,6936,1,8,0:0:0:0:
256,192,7323,1,8,0:0:0:0:
256,192,7710,1,0,0:0:0:0:
256,192,8871,1,8,0:0:0:0:
256,192,9258,1,8,0:0:0:0:
256,192,10033,1,0,0:0:0:0:
256,192,10807,1,0,0:0:0:0:
256,192,11194,1,0,0:0:0:0:
256,192,11581,1,8,0:0:0:0:
256,192,11968,1,0,0:0:0:0:
256,192,12355,1,8,0:0:0:0:
256,192,13130,1,0,0:0:0:0:
256,192,13903,1,8,0:0:0:0:
256,192,14290,1,8,0:0:0:0:
256,192,14677,1,0,0:0:0:0:
256,192,15065,1,8,0:0:0:0:
256,192,15452,1,0,0:0:0:0:
256,192,16613,1,8,0:0:0:0:
256,192,17000,1,0,0:0:0:0:
256,192,17387,1,0,0:0:0:0:
256,192,18161,1,8,0:0:0:0:
256,192,18549,1,0,0:0:0:0:
256,192,18935,1,8,0:0:0:0:
256,192,19710,1,8,0:0:0:0:
256,192,20097,1,8,0:0:0:0:
256,192,20484,1,0,0:0:0:0:
256,192,21258,1,0,0:0:0:0:
256,192,21645,1,8,0:0:0:0:
256,192,22806,1,0,0:0:0:0:
256,192,23194,1,8,0:0:0:0:
256,192,23581,1,0,0:0:0:0:
256,192,24355,1,0,0:0:0:0:
256,192,24742,1,8,0:0:0:0:
256,192,25129,1,8,0:0:0:0:
256,192,25903,1,0,0:0:0:0:
256,192,26290,1,0,0:0:0:0:
256,192,26677,1,8,0:0:0:0:
256,192,27065,1,8,0:0:0:0:
256,192,27452,1,8,0:0:0:0:
512,0,27839,1,4,0:0:0:0:
256,192,30935,1,8,0:0:0:0:
256,192,31323,1,8,0:0:0:0:
256,192,31710,1,0,0:0:0:0:
256,192,32484,1,8,0:0:0:0:
256,192,33259,1,0,0:0:0:0:
256,192,33645,1,8,0:0:0:0:
256,192,34032,1,0,0:0:0:0:
256,192,34807,1,8,0:0:0:0:
256,192,35581,1,8,0:0:0:0:
256,192,35968,1,0,0:0:0:0:
512,0,37129,1,12,0:0:0:0:
256,192,37903,1,0,0:0:0:0:
256,192,38677,1,8,0:0:0:0:
256,192,39064,1,8,0:0:0:0:
256,192,39452,1,0,0:0:0:0:
256,192,40226,1,8,0:0:0:0:
256,192,41000,1,8,0:0:0:0:
256,192,41387,1,0,0:0:0:0:
512,0,41774,1,12,0:0:0:0:
256,192,42548,1,0,0:0:0:0:
256,192,42935,1,0,0:0:0:0:
512,0,43323,1,12,0:0:0:0:
256,192,46419,1,0,0:0:0:0:
256,192,46806,1,0,0:0:0:0:
256,192,47194,1,0,0:0:0:0:
256,192,47968,1,8,0:0:0:0:
256,192,48742,1,0,0:0:0:0:
256,192,49516,1,0,0:0:0:0:
256,192,49903,1,8,0:0:0:0:
256,192,50290,1,0,0:0:0:0:
256,192,51064,1,8,0:0:0:0:
256,192,52226,1,0,0:0:0:0:
256,192,52613,1,8,0:0:0:0:
256,192,53387,1,0,0:0:0:0:
256,192,54161,1,0,0:0:0:0:
256,192,54935,1,8,0:0:0:0:
256,192,55323,1,0,0:0:0:0:
256,192,55710,1,8,0:0:0:0:
256,192,56484,1,0,0:0:0:0:
256,192,56871,1,0,0:0:0:0:
256,192,57258,1,8,0:0:0:0:
512,0,58806,1,4,0:0:0:0:
256,192,59581,1,8,0:0:0:0:
256,192,59968,1,8,0:0:0:0:
256,192,60355,1,0,0:0:0:0:
256,192,61129,1,0,0:0:0:0:
256,192,61516,1,8,0:0:0:0:
512,0,61903,1,4,0:0:0:0:
256,192,62678,1,8,0:0:0:0:
256,192,63064,1,0,0:0:0:0:
256,192,63452,1,8,0:0:0:0:
256,192,64613,1,8,0:0:0:0:
512,0,65000,1,4,0:0:0:0:
256,192,65774,1,8,0:0:0:0:
256,192,66162,1,0,0:0:0:0:
256,192,66548,1,0,0:0:0:0:
256,192,67323,1,8,0:0:0:0:
256,192,67710,1,0,0:0:0:0:
512,0,68097,1,12,0:0:0:0:
256,192,68871,1,0,0:0:0:0:
256,192,69258,1,8,0:0:0:0:
256,192,69645,1,0,0:0:0:0:
512,0,71194,5,12,0:0:0:0:
256,192,71581,1,0,0:0:0:0:
256,192,71968,1,0,0:0:0:0:
256,192,72742,1,8,0:0:0:0:
256,192,73130,1,8,0:0:0:0:
256,192,73516,1,0,0:0:0:0:
256,192,74290,1,8,0:0:0:0:
256,192,74678,1,8,0:0:0:0:
256,192,75064,1,0,0:0:0:0:
256,192,75452,1,8,0:0:0:0:
256,192,75839,1,0,0:0:0:0:
256,192,77001,1,8,0:0:0:0:
512,0,77387,1,4,0:0:0:0:
256,192,78162,1,8,0:0:0:0:
256,192,78549,1,0,0:0:0:0:
512,0,78935,1,12,0:0:0:0:
256,192,79710,1,0,0:0:0:0:
256,192,80097,1,0,0:0:0:0:
512,0,80484,1,12,0:0:0:0:
256,192,81258,1,8,0:0:0:0:
256,192,81645,1,8,0:0:0:0:
512,0,82032,1,4,0:0:0:0:
256,192,82806,1,8,0:0:0:0:
256,192,83194,1,8,0:0:0:0:
