osu file format v14

[General]
AudioFilename: audio.mp3
AudioLeadIn: 0
PreviewTime: 70710
Countdown: 0
SampleSet: Normal
StackLeniency: 0.7
Mode: 1
LetterboxInBreaks: 0
EpilepsyWarning: 1
WidescreenStoryboard: 0

[Editor]
Bookmarks: 15452,27839,37129,43323,46419,58806,71194,83581
DistanceSpacing: 1.3
BeatDivisor: 2
GridSize: 32
TimelineZoom: 1.6

[Metadata]
Title:Bau Bau Battle-Rap Breakbeats 4 Breakfast
TitleUnicode:Bau Bau Battle-Rap Breakbeats 4 Breakfast
Artist:midijunki
ArtistUnicode:midijunki
Creator:iRedi
Version:Futsuu
Source:
Tags:Funky #fwmcbeats #FWMCMORNING english novelty hip hop hiphop hip-hop female vocals fuwawa abyssgard フワワ・アビスガード mococo abyssgard モココ・アビスガード ruffians fuwamoco morning hololive ホロライブ en advent vtubers virtual youtubers
BeatmapID:4373213
BeatmapSetID:2087076

[Difficulty]
HPDrainRate:7
CircleSize:2
OverallDifficulty:4
ApproachRate:10
SliderMultiplier:1.4
SliderTickRate:1

[Events]
//Background and Video events
0,0,"wawawa.jpg",0,85
Video,0,"output.mp4"
//Break Periods
//Storyboard Layer 0 (Background)
//Storyboard Layer 1 (Fail)
//Storyboard Layer 2 (Pass)
//Storyboard Layer 3 (Foreground)
//Storyboard Layer 4 (Overlay)
//Storyboard Sound Samples

[TimingPoints]
-3128,387.096774193548,4,1,0,70,1,0
3065,-100,4,1,0,80,0,1
15452,-100,4,1,0,80,0,0
27888,-100,4,1,0,40,0,0
29146,-100,4,1,0,60,0,0
30931,-100,4,1,0,70,0,0
43371,-100,4,1,0,60,0,0
46415,-100,4,1,0,70,0,0
58802,-100,4,1,0,75,0,0
70371,-100,4,1,0,40,0,0
70801,-100,4,1,0,80,0,0
71194,-100,4,1,0,80,0,1
83484,-100,4,1,0,80,0,0

[HitObjects]
256,192,355,8,0,2291,0:0:0:0:
512,0,3065,5,4,0:0:0:0:
256,192,3452,1,8,0:0:0:0:
256,192,3645,1,8,0:0:0:0:
256,192,4032,1,0,0:0:0:0:
256,192,4226,1,8,0:0:0:0:
256,192,4613,1,8,0:0:0:0:
256,192,4806,1,0,0:0:0:0:
256,192,5000,1,0,0:0:0:0:
256,192,5194,1,8,0:0:0:0:
256,192,5581,1,0,0:0:0:0:
256,192,5774,1,0,0:0:0:0:
256,192,6161,1,8,0:0:0:0:
256,192,6548,1,0,0:0:0:0:
256,192,6936,1,8,0:0:0:0:
256,192,7130,1,8,0:0:0:0:
256,192,7323,1,0,0:0:0:0:
256,192,7710,1,8,0:0:0:0:
256,192,7904,1,8,0:0:0:0:
256,192,8097,1,0,0:0:0:0:
256,192,8291,1,0,0:0:0:0:
256,192,8678,1,0,0:0:0:0:
256,192,8871,1,8,0:0:0:0:
256,192,9258,1,8,0:0:0:0:
256,192,10033,1,0,0:0:0:0:
256,192,10420,1,8,0:0:0:0:
256,192,10807,1,0,0:0:0:0:
256,192,11001,1,0,0:0:0:0:
256,192,11194,1,0,0:0:0:0:
256,192,11387,1,8,0:0:0:0:
256,192,11775,1,8,0:0:0:0:
256,192,11968,1,0,0:0:0:0:
256,192,12355,1,8,0:0:0:0:
256,192,12742,1,0,0:0:0:0:
256,192,12935,1,8,0:0:0:0:
256,192,13323,1,0,0:0:0:0:
256,192,13517,1,0,0:0:0:0:
256,192,13903,1,8,0:0:0:0:
256,192,14097,1,0,0:0:0:0:
256,192,14290,1,8,0:0:0:0:
256,192,14484,1,8,0:0:0:0:
256,192,14677,1,0,0:0:0:0:
256,192,15065,1,0,0:0:0:0:
256,192,15839,1,8,0:0:0:0:
256,192,16226,1,8,0:0:0:0:
256,192,16613,1,0,0:0:0:0:
256,192,16806,1,0,0:0:0:0:
256,192,17000,1,8,0:0:0:0:
256,192,17387,1,0,0:0:0:0:
256,192,17775,1,8,0:0:0:0:
256,192,17968,1,8,0:0:0:0:
256,192,18161,1,0,0:0:0:0:
256,192,18548,1,8,0:0:0:0:
256,192,18935,1,0,0:0:0:0:
256,192,19323,1,8,0:0:0:0:
256,192,19516,1,0,0:0:0:0:
256,192,19710,1,8,0:0:0:0:
256,192,20097,1,8,0:0:0:0:
256,192,20484,1,0,0:0:0:0:
256,192,20871,1,8,0:0:0:0:
256,192,21064,1,8,0:0:0:0:
256,192,21258,1,0,0:0:0:0:
256,192,21452,1,0,0:0:0:0:
256,192,21645,1,8,0:0:0:0:
256,192,22033,1,0,0:0:0:0:
256,192,22420,1,8,0:0:0:0:
256,192,22806,1,8,0:0:0:0:
256,192,23000,1,0,0:0:0:0:
256,192,23194,1,8,0:0:0:0:
256,192,23581,1,0,0:0:0:0:
256,192,23968,1,8,0:0:0:0:
256,192,24162,1,8,0:0:0:0:
256,192,24355,1,0,0:0:0:0:
256,192,24742,1,8,0:0:0:0:
256,192,25129,1,8,0:0:0:0:
256,192,25517,1,0,0:0:0:0:
256,192,25710,1,0,0:0:0:0:
256,192,25903,1,8,0:0:0:0:
256,192,26290,1,0,0:0:0:0:
256,192,26677,1,0,0:0:0:0:
256,192,27065,1,8,0:0:0:0:
256,192,27258,1,0,0:0:0:0:
256,192,27452,1,8,0:0:0:0:
256,192,27646,1,8,0:0:0:0:
512,0,27839,1,4,0:0:0:0:
256,192,30548,1,0,0:0:0:0:
256,192,30742,1,0,0:0:0:0:
256,192,30935,1,8,0:0:0:0:
256,192,31323,1,8,0:0:0:0:
256,192,31710,1,0,0:0:0:0:
256,192,31903,1,0,0:0:0:0:
256,192,32484,1,8,0:0:0:0:
256,192,32871,1,0,0:0:0:0:
256,192,33064,1,0,0:0:0:0:
256,192,33259,1,8,0:0:0:0:
256,192,33645,1,8,0:0:0:0:
256,192,34032,1,0,0:0:0:0:
256,192,34419,1,0,0:0:0:0:
256,192,34807,1,8,0:0:0:0:
256,192,35000,1,0,0:0:0:0:
256,192,35581,1,8,0:0:0:0:
256,192,35968,1,0,0:0:0:0:
256,192,36162,1,0,0:0:0:0:
256,192,36355,1,8,0:0:0:0:
512,0,37129,1,12,0:0:0:0:
256,192,37516,1,8,0:0:0:0:
256,192,37710,1,8,0:0:0:0:
256,192,37903,1,0,0:0:0:0:
256,192,38290,1,0,0:0:0:0:
256,192,38484,1,0,0:0:0:0:
256,192,38677,1,8,0:0:0:0:
256,192,39064,1,0,0:0:0:0:
256,192,39452,1,0,0:0:0:0:
256,192,39645,1,8,0:0:0:0:
256,192,39839,1,0,0:0:0:0:
256,192,40226,1,8,0:0:0:0:
256,192,41000,1,8,0:0:0:0:
256,192,41387,1,0,0:0:0:0:
512,0,41774,1,12,0:0:0:0:
256,192,42161,1,0,0:0:0:0:
256,192,42355,1,8,0:0:0:0:
256,192,42548,1,0,0:0:0:0:
256,192,42742,1,8,0:0:0:0:
256,192,42935,1,0,0:0:0:0:
512,0,43323,1,12,0:0:0:0:
256,192,43710,1,0,0:0:0:0:
256,192,44484,1,8,0:0:0:0:
256,192,44871,1,0,0:0:0:0:
256,192,45258,1,8,0:0:0:0:
256,192,46032,1,8,0:0:0:0:
256,192,46419,1,0,0:0:0:0:
256,192,46806,1,0,0:0:0:0:
256,192,47194,1,0,0:0:0:0:
256,192,47581,1,8,0:0:0:0:
256,192,47774,1,8,0:0:0:0:
256,192,47968,1,0,0:0:0:0:
256,192,48355,1,0,0:0:0:0:
256,192,48548,1,8,0:0:0:0:
256,192,48742,1,0,0:0:0:0:
256,192,49129,1,8,0:0:0:0:
256,192,49516,1,0,0:0:0:0:
256,192,49903,1,8,0:0:0:0:
256,192,50290,1,8,0:0:0:0:
256,192,50484,1,8,0:0:0:0:
256,192,50677,1,0,0:0:0:0:
256,192,51064,1,8,0:0:0:0:
256,192,51452,1,0,0:0:0:0:
256,192,51645,1,8,0:0:0:0:
256,192,51839,1,0,0:0:0:0:
256,192,52226,1,0,0:0:0:0:
256,192,52419,1,0,0:0:0:0:
256,192,52613,1,8,0:0:0:0:
256,192,53387,1,0,0:0:0:0:
256,192,53774,1,0,0:0:0:0:
256,192,53968,1,8,0:0:0:0:
256,192,54161,1,0,0:0:0:0:
256,192,54548,1,8,0:0:0:0:
256,192,54935,1,0,0:0:0:0:
256,192,55323,1,8,0:0:0:0:
256,192,55516,1,8,0:0:0:0:
256,192,55710,1,0,0:0:0:0:
256,192,56097,1,8,0:0:0:0:
256,192,56290,1,0,0:0:0:0:
256,192,56484,1,8,0:0:0:0:
256,192,56871,1,0,0:0:0:0:
256,192,57258,1,8,0:0:0:0:
256,192,58032,1,0,0:0:0:0:
256,192,58226,1,0,0:0:0:0:
256,192,58419,1,8,0:0:0:0:
512,0,58806,1,4,0:0:0:0:
256,192,59194,1,8,0:0:0:0:
256,192,59387,1,8,0:0:0:0:
256,192,59581,1,0,0:0:0:0:
256,192,59968,1,8,0:0:0:0:
256,192,60355,1,0,0:0:0:0:
256,192,60742,1,8,0:0:0:0:
256,192,60935,1,0,0:0:0:0:
256,192,61129,1,8,0:0:0:0:
256,192,61516,1,8,0:0:0:0:
512,0,61903,1,4,0:0:0:0:
256,192,62291,1,0,0:0:0:0:
256,192,62484,1,0,0:0:0:0:
256,192,62678,1,8,0:0:0:0:
256,192,62871,1,0,0:0:0:0:
256,192,63064,1,8,0:0:0:0:
256,192,63452,1,8,0:0:0:0:
256,192,64226,1,0,0:0:0:0:
256,192,64419,1,0,0:0:0:0:
256,192,64613,1,8,0:0:0:0:
512,0,65000,1,4,0:0:0:0:
256,192,65388,1,8,0:0:0:0:
256,192,65774,1,8,0:0:0:0:
256,192,65968,1,0,0:0:0:0:
256,192,66161,1,8,0:0:0:0:
256,192,66548,1,0,0:0:0:0:
256,192,66935,1,8,0:0:0:0:
256,192,67323,1,0,0:0:0:0:
256,192,67516,1,0,0:0:0:0:
256,192,67710,1,8,0:0:0:0:
512,0,68097,1,4,0:0:0:0:
256,192,68484,1,8,0:0:0:0:
256,192,68677,1,8,0:0:0:0:
256,192,68871,1,0,0:0:0:0:
256,192,69064,1,0,0:0:0:0:
256,192,69258,1,8,0:0:0:0:
256,192,69645,1,0,0:0:0:0:
512,0,71194,5,12,0:0:0:0:
256,192,71581,1,0,0:0:0:0:
256,192,71968,1,8,0:0:0:0:
256,192,72161,1,8,0:0:0:0:
256,192,72355,1,0,0:0:0:0:
256,192,72549,1,8,0:0:0:0:
256,192,72742,1,0,0:0:0:0:
256,192,73129,1,8,0:0:0:0:
256,192,73516,1,0,0:0:0:0:
256,192,73710,1,0,0:0:0:0:
256,192,73903,1,8,0:0:0:0:
256,192,74290,1,0,0:0:0:0:
256,192,74677,1,8,0:0:0:0:
256,192,75064,1,0,0:0:0:0:
256,192,75258,1,0,0:0:0:0:
256,192,75452,1,8,0:0:0:0:
256,192,75645,1,8,0:0:0:0:
256,192,75839,1,0,0:0:0:0:
256,192,76226,1,8,0:0:0:0:
256,192,76613,1,0,0:0:0:0:
256,192,76807,1,8,0:0:0:0:
256,192,77000,1,8,0:0:0:0:
256,192,77194,1,8,0:0:0:0:
512,0,77387,1,4,0:0:0:0:
256,192,77775,1,8,0:0:0:0:
256,192,78162,1,0,0:0:0:0:
256,192,78355,1,8,0:0:0:0:
256,192,78549,1,0,0:0:0:0:
256,192,78742,1,0,0:0:0:0:
512,0,78935,1,12,0:0:0:0:
256,192,79323,1,0,0:0:0:0:
256,192,79710,1,8,0:0:0:0:
256,192,79904,1,8,0:0:0:0:
256,192,80097,1,0,0:0:0:0:
512,0,80484,1,12,0:0:0:0:
256,192,80871,1,0,0:0:0:0:
256,192,81258,1,0,0:0:0:0:
256,192,81452,1,0,0:0:0:0:
256,192,81645,1,8,0:0:0:0:
256,192,81839,1,8,0:0:0:0:
512,0,82032,1,4,0:0:0:0:
256,192,82419,1,0,0:0:0:0:
256,192,82806,1,8,0:0:0:0:
256,192,83000,1,8,0:0:0:0:
256,192,83194,1,8,0:0:0:0:
256,192,83387,1,8,0:0:0:0:
