osu file format v14

[General]
AudioFilename: audio.mp3
AudioLeadIn: 0
PreviewTime: 70710
Countdown: 0
SampleSet: Normal
StackLeniency: 0.7
Mode: 1
LetterboxInBreaks: 0
EpilepsyWarning: 1
WidescreenStoryboard: 0

[Editor]
Bookmarks: 15452,27839,37129,43323,46419,58806,71194,83581
DistanceSpacing: 1.3
BeatDivisor: 4
GridSize: 32
TimelineZoom: 1.6

[Metadata]
Title:Bau Bau Battle-Rap Breakbeats 4 Breakfast
TitleUnicode:Bau Bau Battle-Rap Breakbeats 4 Breakfast
Artist:midijunki
ArtistUnicode:midijunki
Creator:iRedi
Version:Bau Bau
Source:
Tags:Funky #fwmcbeats #FWMCMORNING english novelty hip hop hiphop hip-hop female vocals fuwawa abyssgard フワワ・アビスガード mococo abyssgard モココ・アビスガード ruffians fuwamoco morning hololive ホロライブ en advent vtubers virtual youtubers
BeatmapID:4373212
BeatmapSetID:2087076

[Difficulty]
HPDrainRate:6
CircleSize:2
OverallDifficulty:6
ApproachRate:10
SliderMultiplier:1.4
SliderTickRate:1

[Events]
//Background and Video events
0,0,"wawawa.jpg",0,85
Video,0,"output.mp4"
//Break Periods
//Storyboard Layer 0 (Background)
//Storyboard Layer 1 (Fail)
//Storyboard Layer 2 (Pass)
//Storyboard Layer 3 (Foreground)
//Storyboard Layer 4 (Overlay)
//Storyboard Sound Samples

[TimingPoints]
-3128,387.096774193548,4,1,0,70,1,0
65,-111.111111111111,4,1,0,70,0,0
1511,-111.0158,4,1,0,70,0,0
1705,-106.581566,4,1,0,70,0,0
1898,-102.508255,4,1,0,70,0,0
2092,-98.715996,4,1,0,70,0,0
2285,-95.21182,4,1,0,70,0,0
2479,-91.93157,4,1,0,70,0,0
2672,-88.88507,4,1,0,70,0,0
2769,-87.428925,4,1,0,70,0,0
2866,-86.01972,4,1,0,70,0,0
2963,-84.65522,4,1,0,70,0,0
3065,-83.33333,4,1,0,80,0,1
13898,-83.36923,4,1,0,80,0,1
14092,-85.148506,4,1,0,80,0,1
14189,-86.06693,4,1,0,80,0,1
14285,-86.995605,4,1,0,80,0,1
14382,-87.954544,4,1,0,80,0,1
14479,-88.93484,4,1,0,80,0,1
14576,-89.93725,4,1,0,80,0,1
14672,-90.95182,4,1,0,80,0,1
14769,-92.000465,4,1,0,80,0,1
14866,-93.0736,4,1,0,80,0,1
14963,-94.17204,4,1,0,80,0,1
15059,-95.28499,4,1,0,80,0,1
15156,-96.43659,4,1,0,80,0,1
15253,-97.61635,4,1,0,80,0,1
15350,-98.825325,4,1,0,80,0,1
15452,-100,4,1,0,80,0,0
15791,-90.9090909090909,4,1,0,80,0,0
26285,-90.88773,4,1,0,80,0,0
26479,-89.86416,4,1,0,80,0,0
26543,-89.531525,4,1,0,80,0,0
26608,-89.1962,4,1,0,80,0,0
26672,-88.86848,4,1,0,80,0,0
26769,-88.37634,4,1,0,80,0,0
26866,-87.889626,4,1,0,80,0,0
26963,-87.40825,4,1,0,80,0,0
27059,-86.93699,4,1,0,80,0,0
27156,-86.46596,4,1,0,80,0,0
27253,-86,4,1,0,80,0,0
27350,-85.53904,4,1,0,80,0,0
27447,-85.08299,4,1,0,80,0,0
27543,-84.63641,4,1,0,80,0,0
27640,-84.18991,4,1,0,80,0,0
27737,-83.74811,4,1,0,80,0,0
27834,-83.3333333333333,4,1,0,80,0,0
27883,-125,4,1,0,40,0,0
29189,-125,4,1,0,60,0,0
29382,-121.62162,4,1,0,60,0,0
29576,-118.40491,4,1,0,60,0,0
29769,-115.369286,4,1,0,60,0,0
29963,-112.470856,4,1,0,60,0,0
30156,-109.72836,4,1,0,60,0,0
30350,-107.10321,4,1,0,60,0,0
30543,-104.61334,4,1,0,60,0,0
30640,-103.40517,4,1,0,60,0,0
30737,-102.22458,4,1,0,60,0,0
30801,-101.46028,4,1,0,60,0,0
30866,-100.695656,4,1,0,60,0,0
30931,-100,4,1,0,70,0,0
41769,-100.02585,4,1,0,70,0,0
41963,-101.29564,4,1,0,70,0,0
42059,-101.936,4,1,0,70,0,0
42156,-102.59129,4,1,0,70,0,0
42350,-103.9275,4,1,0,70,0,0
42543,-105.291794,4,1,0,70,0,0
42640,-105.991104,4,1,0,70,0,0
42737,-106.69975,4,1,0,70,0,0
42834,-107.417946,4,1,0,70,0,0
42930,-108.13832,4,1,0,70,0,0
43124,-109.62397,4,1,0,70,0,0
43221,-110.3822,4,1,0,70,0,0
43318,-111.111111111111,4,1,0,70,0,0
43371,-111.111111111111,4,1,0,60,0,0
45834,-111.00497,4,1,0,60,0,0
46027,-107.057304,4,1,0,60,0,0
46221,-103.3624,4,1,0,60,0,0
46318,-101.608955,4,1,0,60,0,0
46415,-100,4,1,0,70,0,0
57253,-99.97416,4,1,0,70,0,0
57447,-98.73708,4,1,0,70,0,0
57543,-98.13617,4,1,0,70,0,0
57737,-96.943886,4,1,0,70,0,0
57834,-96.35855,4,1,0,70,0,0
58027,-95.21466,4,1,0,70,0,0
58124,-94.649956,4,1,0,70,0,0
58221,-94.091896,4,1,0,70,0,0
58318,-93.54039,4,1,0,70,0,0
58414,-93.0009,4,1,0,70,0,0
58511,-92.46207,4,1,0,70,0,0
58608,-91.92944,4,1,0,70,0,0
58705,-91.40293,4,1,0,70,0,0
58802,-90.9090909090909,4,1,0,75,0,0
69640,-90.957954,4,1,0,75,0,0
69737,-92.159,4,1,0,75,0,0
69834,-93.39219,4,1,0,75,0,0
69930,-94.64561,4,1,0,75,0,0
70027,-95.94672,4,1,0,75,0,0
70124,-97.284096,4,1,0,75,0,0
70221,-98.65928,4,1,0,75,0,0
70318,-100,4,1,0,75,0,0
70371,-100,4,1,0,40,0,0
70801,-50,4,1,0,80,0,0
71194,-83.3333333333333,4,1,0,80,0,1
82027,-83.31426,4,1,0,80,0,1
82221,-82.39954,4,1,0,80,0,1
82318,-81.949684,4,1,0,80,0,1
82414,-81.50926,4,1,0,80,0,1
82511,-81.069046,4,1,0,80,0,1
82608,-80.633545,4,1,0,80,0,1
82705,-80.20271,4,1,0,80,0,1
82801,-79.78082,4,1,0,80,0,1
82898,-79.35903,4,1,0,80,0,1
82995,-78.941666,4,1,0,80,0,1
83092,-78.52867,4,1,0,80,0,1
83189,-78.11997,4,1,0,80,0,1
83285,-77.719666,4,1,0,80,0,1
83382,-77.31932,4,1,0,80,0,1
83484,-76.92308,4,1,0,80,0,0

[HitObjects]
256,192,355,8,0,1323,0:0:0:0:
256,192,1516,5,8,0:0:0:0:
256,192,1710,1,8,0:0:0:0:
256,192,1903,1,8,0:0:0:0:
256,192,2097,1,8,0:0:0:0:
256,192,2290,1,8,0:0:0:0:
256,192,2484,1,8,0:0:0:0:
256,192,2677,1,0,0:0:0:0:
256,192,2774,1,0,0:0:0:0:
256,192,2871,1,8,0:0:0:0:
256,192,2968,1,8,0:0:0:0:
512,0,3065,1,4,0:0:0:0:
256,192,3258,1,0,0:0:0:0:
256,192,3355,1,0,0:0:0:0:
256,192,3452,1,8,0:0:0:0:
256,192,3645,1,0,0:0:0:0:
256,192,3742,1,8,0:0:0:0:
256,192,3839,1,0,0:0:0:0:
256,192,3935,1,8,0:0:0:0:
256,192,4032,1,0,0:0:0:0:
256,192,4129,1,0,0:0:0:0:
256,192,4226,1,0,0:0:0:0:
256,192,4323,1,8,0:0:0:0:
256,192,4516,1,0,0:0:0:0:
256,192,4613,1,8,0:0:0:0:
256,192,4710,1,0,0:0:0:0:
256,192,4806,1,0,0:0:0:0:
256,192,4903,1,8,0:0:0:0:
256,192,5000,1,0,0:0:0:0:
256,192,5194,1,0,0:0:0:0:
256,192,5290,1,0,0:0:0:0:
256,192,5387,1,8,0:0:0:0:
256,192,5484,1,8,0:0:0:0:
256,192,5581,1,0,0:0:0:0:
256,192,5677,1,8,0:0:0:0:
256,192,5774,1,8,0:0:0:0:
256,192,5871,1,0,0:0:0:0:
256,192,6064,1,0,0:0:0:0:
256,192,6161,1,8,0:0:0:0:
256,192,6355,1,8,0:0:0:0:
256,192,6452,1,8,0:0:0:0:
256,192,6548,1,0,0:0:0:0:
256,192,6742,1,8,0:0:0:0:
256,192,6839,1,0,0:0:0:0:
256,192,6935,1,8,0:0:0:0:
256,192,7032,1,8,0:0:0:0:
256,192,7129,1,0,0:0:0:0:
256,192,7226,1,0,0:0:0:0:
256,192,7323,1,8,0:0:0:0:
256,192,7419,1,0,0:0:0:0:
256,192,7613,1,8,0:0:0:0:
256,192,7710,1,0,0:0:0:0:
256,192,7903,1,0,0:0:0:0:
256,192,8097,1,0,0:0:0:0:
256,192,8290,1,8,0:0:0:0:
256,192,8387,1,8,0:0:0:0:
256,192,8484,1,0,0:0:0:0:
256,192,8581,1,0,0:0:0:0:
256,192,8677,1,8,0:0:0:0:
256,192,8774,1,0,0:0:0:0:
256,192,8871,1,0,0:0:0:0:
256,192,8968,1,8,0:0:0:0:
256,192,9161,1,0,0:0:0:0:
256,192,9258,1,8,0:0:0:0:
256,192,9355,1,0,0:0:0:0:
256,192,9452,1,0,0:0:0:0:
256,192,9548,1,0,0:0:0:0:
256,192,9645,1,8,0:0:0:0:
256,192,9742,1,8,0:0:0:0:
256,192,9839,1,0,0:0:0:0:
256,192,9935,1,8,0:0:0:0:
256,192,10129,1,0,0:0:0:0:
256,192,10226,1,8,0:0:0:0:
256,192,10323,1,0,0:0:0:0:
256,192,10419,1,0,0:0:0:0:
256,192,10516,1,8,0:0:0:0:
256,192,10710,1,0,0:0:0:0:
256,192,10806,1,8,0:0:0:0:
256,192,11000,1,8,0:0:0:0:
256,192,11097,1,8,0:0:0:0:
256,192,11194,1,0,0:0:0:0:
256,192,11387,1,8,0:0:0:0:
256,192,11484,1,8,0:0:0:0:
256,192,11581,1,0,0:0:0:0:
256,192,11677,1,0,0:0:0:0:
256,192,11774,1,8,0:0:0:0:
256,192,11871,1,8,0:0:0:0:
256,192,11968,1,0,0:0:0:0:
256,192,12064,1,8,0:0:0:0:
256,192,12161,1,8,0:0:0:0:
256,192,12355,1,0,0:0:0:0:
256,192,12452,1,8,0:0:0:0:
256,192,12548,1,8,0:0:0:0:
256,192,12645,1,8,0:0:0:0:
256,192,12742,1,0,0:0:0:0:
256,192,12935,1,0,0:0:0:0:
256,192,13033,1,8,0:0:0:0:
256,192,13129,1,0,0:0:0:0:
256,192,13226,1,8,0:0:0:0:
256,192,13323,1,8,0:0:0:0:
256,192,13419,1,0,0:0:0:0:
256,192,13516,1,0,0:0:0:0:
256,192,13613,1,8,0:0:0:0:
256,192,13806,1,0,0:0:0:0:
256,192,13903,1,8,0:0:0:0:
256,192,14097,1,0,0:0:0:0:
256,192,14194,1,0,0:0:0:0:
256,192,14290,1,8,0:0:0:0:
256,192,14387,1,0,0:0:0:0:
256,192,14484,1,8,0:0:0:0:
256,192,14581,1,0,0:0:0:0:
256,192,14677,1,8,0:0:0:0:
256,192,14774,1,8,0:0:0:0:
256,192,14871,1,0,0:0:0:0:
256,192,14968,1,0,0:0:0:0:
256,192,15064,1,8,0:0:0:0:
256,192,15161,1,8,0:0:0:0:
256,192,15258,1,0,0:0:0:0:
256,192,15355,1,8,0:0:0:0:
256,192,15452,1,0,0:0:0:0:
256,192,15839,1,8,0:0:0:0:
256,192,15935,1,8,0:0:0:0:
256,192,16033,1,0,0:0:0:0:
256,192,16129,1,8,0:0:0:0:
256,192,16226,1,0,0:0:0:0:
256,192,16419,1,0,0:0:0:0:
256,192,16516,1,0,0:0:0:0:
256,192,16613,1,8,0:0:0:0:
256,192,16806,1,0,0:0:0:0:
256,192,17000,1,8,0:0:0:0:
256,192,17097,1,8,0:0:0:0:
256,192,17194,1,0,0:0:0:0:
256,192,17387,1,0,0:0:0:0:
256,192,17484,1,0,0:0:0:0:
256,192,17581,1,8,0:0:0:0:
256,192,17677,1,0,0:0:0:0:
256,192,17774,1,8,0:0:0:0:
256,192,17968,1,0,0:0:0:0:
256,192,18064,1,8,0:0:0:0:
256,192,18161,1,8,0:0:0:0:
256,192,18258,1,8,0:0:0:0:
256,192,18355,1,0,0:0:0:0:
256,192,18548,1,8,0:0:0:0:
256,192,18646,1,0,0:0:0:0:
256,192,18742,1,8,0:0:0:0:
256,192,18935,1,8,0:0:0:0:
256,192,19032,1,8,0:0:0:0:
256,192,19130,1,0,0:0:0:0:
256,192,19226,1,0,0:0:0:0:
256,192,19323,1,8,0:0:0:0:
256,192,19516,1,0,0:0:0:0:
256,192,19613,1,8,0:0:0:0:
256,192,19710,1,0,0:0:0:0:
256,192,19806,1,8,0:0:0:0:
256,192,19903,1,0,0:0:0:0:
256,192,20097,1,0,0:0:0:0:
256,192,20194,1,0,0:0:0:0:
256,192,20291,1,8,0:0:0:0:
256,192,20484,1,8,0:0:0:0:
256,192,20581,1,8,0:0:0:0:
256,192,20678,1,0,0:0:0:0:
256,192,20774,1,8,0:0:0:0:
256,192,20871,1,0,0:0:0:0:
256,192,21064,1,0,0:0:0:0:
256,192,21161,1,0,0:0:0:0:
256,192,21258,1,8,0:0:0:0:
256,192,21355,1,8,0:0:0:0:
256,192,21452,1,0,0:0:0:0:
256,192,21645,1,8,0:0:0:0:
256,192,21742,1,8,0:0:0:0:
256,192,21839,1,0,0:0:0:0:
256,192,22032,1,0,0:0:0:0:
256,192,22129,1,0,0:0:0:0:
256,192,22226,1,8,0:0:0:0:
256,192,22323,1,0,0:0:0:0:
256,192,22419,1,8,0:0:0:0:
256,192,22613,1,8,0:0:0:0:
256,192,22710,1,0,0:0:0:0:
256,192,22806,1,8,0:0:0:0:
256,192,23000,1,0,0:0:0:0:
256,192,23194,1,0,0:0:0:0:
256,192,23290,1,0,0:0:0:0:
256,192,23387,1,8,0:0:0:0:
256,192,23581,1,8,0:0:0:0:
256,192,23677,1,0,0:0:0:0:
256,192,23774,1,8,0:0:0:0:
256,192,23871,1,8,0:0:0:0:
256,192,23968,1,0,0:0:0:0:
256,192,24161,1,8,0:0:0:0:
256,192,24258,1,0,0:0:0:0:
256,192,24355,1,0,0:0:0:0:
256,192,24452,1,0,0:0:0:0:
256,192,24548,1,8,0:0:0:0:
256,192,24742,1,0,0:0:0:0:
256,192,24839,1,0,0:0:0:0:
256,192,24935,1,8,0:0:0:0:
256,192,25129,1,0,0:0:0:0:
256,192,25226,1,0,0:0:0:0:
256,192,25323,1,8,0:0:0:0:
256,192,25419,1,0,0:0:0:0:
256,192,25516,1,8,0:0:0:0:
256,192,25710,1,0,0:0:0:0:
256,192,25806,1,8,0:0:0:0:
256,192,25903,1,0,0:0:0:0:
256,192,26001,1,8,0:0:0:0:
256,192,26097,1,0,0:0:0:0:
256,192,26194,1,0,0:0:0:0:
256,192,26290,1,8,0:0:0:0:
256,192,26484,1,0,0:0:0:0:
256,192,26548,1,0,0:0:0:0:
256,192,26613,1,0,0:0:0:0:
256,192,26677,1,8,0:0:0:0:
256,192,26774,1,8,0:0:0:0:
256,192,26871,1,0,0:0:0:0:
256,192,26968,1,8,0:0:0:0:
256,192,27064,1,0,0:0:0:0:
256,192,27161,1,0,0:0:0:0:
256,192,27258,1,8,0:0:0:0:
256,192,27355,1,8,0:0:0:0:
256,192,27452,1,0,0:0:0:0:
256,192,27548,1,8,0:0:0:0:
256,192,27645,1,8,0:0:0:0:
256,192,27742,1,8,0:0:0:0:
512,0,27839,1,4,0:0:0:0:
256,192,29194,1,8,0:0:0:0:
256,192,29387,1,8,0:0:0:0:
256,192,29581,1,8,0:0:0:0:
256,192,29774,1,8,0:0:0:0:
256,192,29968,1,8,0:0:0:0:
256,192,30161,1,8,0:0:0:0:
256,192,30355,1,8,0:0:0:0:
256,192,30548,1,0,0:0:0:0:
256,192,30645,1,0,0:0:0:0:
256,192,30742,1,8,0:0:0:0:
256,192,30806,1,0,0:0:0:0:
256,192,30871,1,0,0:0:0:0:
256,192,30935,1,8,0:0:0:0:
256,192,31323,1,8,0:0:0:0:
256,192,31516,1,0,0:0:0:0:
256,192,31613,1,8,0:0:0:0:
256,192,31806,1,8,0:0:0:0:
256,192,31903,1,8,0:0:0:0:
256,192,32000,1,0,0:0:0:0:
256,192,32097,1,0,0:0:0:0:
256,192,32290,1,8,0:0:0:0:
256,192,32355,1,0,0:0:0:0:
256,192,32419,1,0,0:0:0:0:
256,192,32484,1,8,0:0:0:0:
256,192,32871,1,0,0:0:0:0:
256,192,33064,1,0,0:0:0:0:
256,192,33161,1,8,0:0:0:0:
256,192,33355,1,0,0:0:0:0:
256,192,33452,1,8,0:0:0:0:
256,192,33548,1,8,0:0:0:0:
256,192,33645,1,0,0:0:0:0:
256,192,33839,1,0,0:0:0:0:
256,192,33935,1,0,0:0:0:0:
256,192,34032,1,8,0:0:0:0:
256,192,34419,1,0,0:0:0:0:
256,192,34613,1,8,0:0:0:0:
256,192,34710,1,0,0:0:0:0:
256,192,34903,1,8,0:0:0:0:
256,192,35000,1,8,0:0:0:0:
256,192,35097,1,0,0:0:0:0:
256,192,35194,1,8,0:0:0:0:
256,192,35387,1,0,0:0:0:0:
256,192,35452,1,0,0:0:0:0:
256,192,35516,1,0,0:0:0:0:
256,192,35581,1,8,0:0:0:0:
256,192,35968,1,0,0:0:0:0:
256,192,36161,1,8,0:0:0:0:
256,192,36258,1,0,0:0:0:0:
256,192,36452,1,8,0:0:0:0:
256,192,36548,1,8,0:0:0:0:
256,192,36645,1,0,0:0:0:0:
256,192,36742,1,0,0:0:0:0:
256,192,36935,1,8,0:0:0:0:
256,192,37032,1,0,0:0:0:0:
512,0,37129,1,12,0:0:0:0:
256,192,37323,1,0,0:0:0:0:
256,192,37516,1,8,0:0:0:0:
256,192,37613,1,8,0:0:0:0:
256,192,37710,1,8,0:0:0:0:
256,192,37806,1,8,0:0:0:0:
256,192,37903,1,0,0:0:0:0:
256,192,38097,1,8,0:0:0:0:
256,192,38290,1,0,0:0:0:0:
256,192,38387,1,0,0:0:0:0:
256,192,38484,1,0,0:0:0:0:
256,192,38581,1,0,0:0:0:0:
256,192,38677,1,8,0:0:0:0:
256,192,38871,1,8,0:0:0:0:
256,192,39064,1,0,0:0:0:0:
256,192,39258,1,0,0:0:0:0:
256,192,39355,1,8,0:0:0:0:
256,192,39452,1,0,0:0:0:0:
256,192,39645,1,8,0:0:0:0:
256,192,39742,1,8,0:0:0:0:
256,192,39839,1,0,0:0:0:0:
256,192,40226,1,8,0:0:0:0:
256,192,40419,1,0,0:0:0:0:
256,192,40516,1,8,0:0:0:0:
256,192,40613,1,0,0:0:0:0:
256,192,40710,1,8,0:0:0:0:
256,192,40806,1,0,0:0:0:0:
256,192,40903,1,0,0:0:0:0:
256,192,41000,1,8,0:0:0:0:
256,192,41290,1,8,0:0:0:0:
256,192,41387,1,0,0:0:0:0:
256,192,41581,1,8,0:0:0:0:
256,192,41645,1,0,0:0:0:0:
256,192,41710,1,0,0:0:0:0:
256,192,41774,1,8,0:0:0:0:
256,192,41968,1,0,0:0:0:0:
256,192,42064,1,8,0:0:0:0:
256,192,42161,1,0,0:0:0:0:
256,192,42355,1,8,0:0:0:0:
256,192,42548,1,0,0:0:0:0:
256,192,42645,1,0,0:0:0:0:
256,192,42742,1,8,0:0:0:0:
256,192,42839,1,8,0:0:0:0:
256,192,42935,1,0,0:0:0:0:
256,192,43129,1,8,0:0:0:0:
256,192,43226,1,8,0:0:0:0:
512,0,43323,1,4,0:0:0:0:
256,192,43710,1,8,0:0:0:0:
256,192,44290,1,0,0:0:0:0:
256,192,44484,1,8,0:0:0:0:
256,192,44677,1,0,0:0:0:0:
256,192,44871,1,0,0:0:0:0:
256,192,45258,1,8,0:0:0:0:
256,192,45839,1,0,0:0:0:0:
256,192,46032,1,8,0:0:0:0:
256,192,46226,1,8,0:0:0:0:
256,192,46323,1,8,0:0:0:0:
256,192,46419,1,0,0:0:0:0:
256,192,46613,1,0,0:0:0:0:
256,192,46806,1,8,0:0:0:0:
256,192,46904,1,8,0:0:0:0:
256,192,47000,1,0,0:0:0:0:
256,192,47097,1,0,0:0:0:0:
256,192,47194,1,8,0:0:0:0:
256,192,47387,1,0,0:0:0:0:
256,192,47581,1,8,0:0:0:0:
256,192,47677,1,8,0:0:0:0:
256,192,47774,1,8,0:0:0:0:
256,192,47871,1,8,0:0:0:0:
256,192,47968,1,0,0:0:0:0:
256,192,48161,1,8,0:0:0:0:
256,192,48355,1,0,0:0:0:0:
256,192,48452,1,0,0:0:0:0:
256,192,48548,1,8,0:0:0:0:
256,192,48645,1,8,0:0:0:0:
256,192,48742,1,0,0:0:0:0:
256,192,48935,1,0,0:0:0:0:
256,192,49129,1,8,0:0:0:0:
256,192,49226,1,8,0:0:0:0:
256,192,49323,1,0,0:0:0:0:
256,192,49516,1,8,0:0:0:0:
256,192,49710,1,0,0:0:0:0:
256,192,49903,1,8,0:0:0:0:
256,192,50001,1,0,0:0:0:0:
256,192,50097,1,0,0:0:0:0:
256,192,50194,1,0,0:0:0:0:
256,192,50290,1,8,0:0:0:0:
256,192,50484,1,8,0:0:0:0:
256,192,50677,1,0,0:0:0:0:
256,192,50775,1,8,0:0:0:0:
256,192,50871,1,0,0:0:0:0:
256,192,51064,1,8,0:0:0:0:
256,192,51129,1,8,0:0:0:0:
256,192,51194,1,8,0:0:0:0:
256,192,51258,1,8,0:0:0:0:
256,192,51452,1,0,0:0:0:0:
256,192,51548,1,0,0:0:0:0:
256,192,51645,1,8,0:0:0:0:
256,192,51742,1,8,0:0:0:0:
256,192,51839,1,0,0:0:0:0:
256,192,52032,1,8,0:0:0:0:
256,192,52130,1,8,0:0:0:0:
256,192,52226,1,0,0:0:0:0:
256,192,52323,1,0,0:0:0:0:
256,192,52419,1,8,0:0:0:0:
256,192,52516,1,0,0:0:0:0:
256,192,52613,1,8,0:0:0:0:
256,192,53000,1,0,0:0:0:0:
256,192,53194,1,8,0:0:0:0:
256,192,53290,1,8,0:0:0:0:
256,192,53387,1,0,0:0:0:0:
256,192,53581,1,8,0:0:0:0:
256,192,53774,1,0,0:0:0:0:
256,192,53871,1,0,0:0:0:0:
256,192,53968,1,8,0:0:0:0:
256,192,54161,1,8,0:0:0:0:
256,192,54259,1,8,0:0:0:0:
256,192,54355,1,0,0:0:0:0:
256,192,54452,1,0,0:0:0:0:
256,192,54548,1,8,0:0:0:0:
256,192,54742,1,0,0:0:0:0:
256,192,54806,1,0,0:0:0:0:
256,192,54871,1,0,0:0:0:0:
256,192,54935,1,8,0:0:0:0:
256,192,55032,1,8,0:0:0:0:
256,192,55129,1,0,0:0:0:0:
256,192,55323,1,8,0:0:0:0:
256,192,55419,1,8,0:0:0:0:
256,192,55516,1,8,0:0:0:0:
256,192,55613,1,8,0:0:0:0:
256,192,55710,1,0,0:0:0:0:
256,192,55806,1,0,0:0:0:0:
256,192,55903,1,8,0:0:0:0:
256,192,56097,1,0,0:0:0:0:
256,192,56290,1,8,0:0:0:0:
256,192,56387,1,8,0:0:0:0:
256,192,56484,1,0,0:0:0:0:
256,192,56677,1,0,0:0:0:0:
256,192,56871,1,8,0:0:0:0:
256,192,56968,1,0,0:0:0:0:
256,192,57064,1,8,0:0:0:0:
256,192,57161,1,0,0:0:0:0:
256,192,57258,1,8,0:0:0:0:
256,192,57452,1,8,0:0:0:0:
256,192,57548,1,0,0:0:0:0:
256,192,57742,1,8,0:0:0:0:
256,192,57839,1,0,0:0:0:0:
256,192,58032,1,8,0:0:0:0:
256,192,58129,1,0,0:0:0:0:
256,192,58226,1,8,0:0:0:0:
256,192,58323,1,8,0:0:0:0:
256,192,58419,1,0,0:0:0:0:
256,192,58516,1,8,0:0:0:0:
256,192,58613,1,8,0:0:0:0:
256,192,58710,1,8,0:0:0:0:
512,0,58806,1,4,0:0:0:0:
256,192,59097,1,8,0:0:0:0:
256,192,59194,1,0,0:0:0:0:
256,192,59387,1,0,0:0:0:0:
256,192,59484,1,8,0:0:0:0:
256,192,59581,1,0,0:0:0:0:
256,192,59677,1,0,0:0:0:0:
256,192,59774,1,8,0:0:0:0:
256,192,59968,1,8,0:0:0:0:
256,192,60064,1,0,0:0:0:0:
256,192,60258,1,8,0:0:0:0:
256,192,60355,1,8,0:0:0:0:
256,192,60645,1,0,0:0:0:0:
256,192,60742,1,8,0:0:0:0:
256,192,60839,1,8,0:0:0:0:
256,192,60935,1,0,0:0:0:0:
256,192,61032,1,0,0:0:0:0:
256,192,61129,1,8,0:0:0:0:
256,192,61226,1,0,0:0:0:0:
256,192,61323,1,8,0:0:0:0:
256,192,61516,1,0,0:0:0:0:
256,192,61613,1,0,0:0:0:0:
256,192,61807,1,8,0:0:0:0:
512,0,61903,1,4,0:0:0:0:
256,192,62194,1,8,0:0:0:0:
256,192,62291,1,0,0:0:0:0:
256,192,62484,1,8,0:0:0:0:
256,192,62581,1,0,0:0:0:0:
256,192,62678,1,8,0:0:0:0:
256,192,62774,1,8,0:0:0:0:
256,192,62871,1,0,0:0:0:0:
256,192,62935,1,0,0:0:0:0:
256,192,63000,1,0,0:0:0:0:
256,192,63064,1,8,0:0:0:0:
256,192,63258,1,0,0:0:0:0:
256,192,63355,1,0,0:0:0:0:
256,192,63452,1,8,0:0:0:0:
256,192,63548,1,0,0:0:0:0:
256,192,63645,1,0,0:0:0:0:
256,192,63742,1,0,0:0:0:0:
256,192,63839,1,8,0:0:0:0:
256,192,64032,1,0,0:0:0:0:
256,192,64226,1,8,0:0:0:0:
256,192,64323,1,8,0:0:0:0:
256,192,64419,1,8,0:0:0:0:
256,192,64516,1,0,0:0:0:0:
256,192,64613,1,8,0:0:0:0:
256,192,64710,1,8,0:0:0:0:
256,192,64806,1,0,0:0:0:0:
256,192,64903,1,0,0:0:0:0:
512,0,65001,1,12,0:0:0:0:
256,192,65194,1,0,0:0:0:0:
256,192,65290,1,0,0:0:0:0:
256,192,65387,1,8,0:0:0:0:
256,192,65581,1,8,0:0:0:0:
256,192,65677,1,0,0:0:0:0:
256,192,65774,1,8,0:0:0:0:
256,192,65871,1,8,0:0:0:0:
256,192,65968,1,0,0:0:0:0:
256,192,66161,1,0,0:0:0:0:
256,192,66258,1,8,0:0:0:0:
256,192,66452,1,8,0:0:0:0:
256,192,66548,1,0,0:0:0:0:
256,192,66742,1,0,0:0:0:0:
256,192,66839,1,0,0:0:0:0:
256,192,66935,1,8,0:0:0:0:
256,192,67129,1,0,0:0:0:0:
256,192,67226,1,8,0:0:0:0:
256,192,67323,1,8,0:0:0:0:
256,192,67419,1,8,0:0:0:0:
256,192,67516,1,0,0:0:0:0:
256,192,67710,1,8,0:0:0:0:
256,192,67806,1,0,0:0:0:0:
256,192,67903,1,8,0:0:0:0:
512,0,68097,1,4,0:0:0:0:
256,192,68290,1,0,0:0:0:0:
256,192,68387,1,0,0:0:0:0:
256,192,68484,1,8,0:0:0:0:
256,192,68677,1,0,0:0:0:0:
256,192,68774,1,0,0:0:0:0:
256,192,68871,1,8,0:0:0:0:
256,192,68968,1,8,0:0:0:0:
256,192,69064,1,0,0:0:0:0:
256,192,69258,1,8,0:0:0:0:
256,192,69355,1,8,0:0:0:0:
256,192,69452,1,0,0:0:0:0:
256,192,69645,1,8,0:0:0:0:
256,192,69742,1,8,0:0:0:0:
256,192,69839,1,0,0:0:0:0:
256,192,69935,1,8,0:0:0:0:
256,192,70032,1,0,0:0:0:0:
256,192,70129,1,0,0:0:0:0:
256,192,70226,1,8,0:0:0:0:
256,192,70323,1,8,0:0:0:0:
256,192,70807,12,0,71097,0:0:0:0:
512,0,71194,5,12,0:0:0:0:
256,192,71387,1,0,0:0:0:0:
256,192,71484,1,0,0:0:0:0:
256,192,71581,1,8,0:0:0:0:
256,192,71677,1,8,0:0:0:0:
256,192,71774,1,0,0:0:0:0:
256,192,71871,1,8,0:0:0:0:
256,192,71968,1,0,0:0:0:0:
256,192,72064,1,0,0:0:0:0:
256,192,72161,1,8,0:0:0:0:
256,192,72258,1,0,0:0:0:0:
256,192,72355,1,8,0:0:0:0:
256,192,72452,1,8,0:0:0:0:
256,192,72549,1,0,0:0:0:0:
256,192,72646,1,0,0:0:0:0:
256,192,72742,1,8,0:0:0:0:
256,192,72935,1,8,0:0:0:0:
256,192,73032,1,8,0:0:0:0:
256,192,73129,1,0,0:0:0:0:
256,192,73226,1,0,0:0:0:0:
256,192,73323,1,8,0:0:0:0:
256,192,73419,1,0,0:0:0:0:
256,192,73516,1,8,0:0:0:0:
256,192,73613,1,8,0:0:0:0:
256,192,73710,1,0,0:0:0:0:
256,192,73806,1,8,0:0:0:0:
256,192,73903,1,8,0:0:0:0:
256,192,74000,1,8,0:0:0:0:
256,192,74097,1,0,0:0:0:0:
256,192,74194,1,0,0:0:0:0:
256,192,74290,1,8,0:0:0:0:
256,192,74484,1,0,0:0:0:0:
256,192,74581,1,0,0:0:0:0:
256,192,74677,1,8,0:0:0:0:
256,192,74774,1,8,0:0:0:0:
256,192,74871,1,0,0:0:0:0:
256,192,74968,1,8,0:0:0:0:
256,192,75064,1,8,0:0:0:0:
256,192,75161,1,8,0:0:0:0:
256,192,75258,1,0,0:0:0:0:
256,192,75355,1,8,0:0:0:0:
256,192,75452,1,0,0:0:0:0:
256,192,75548,1,8,0:0:0:0:
256,192,75645,1,0,0:0:0:0:
256,192,75742,1,0,0:0:0:0:
256,192,75839,1,8,0:0:0:0:
256,192,76032,1,0,0:0:0:0:
256,192,76129,1,0,0:0:0:0:
256,192,76226,1,8,0:0:0:0:
256,192,76323,1,0,0:0:0:0:
256,192,76419,1,0,0:0:0:0:
256,192,76516,1,8,0:0:0:0:
256,192,76613,1,0,0:0:0:0:
256,192,76710,1,0,0:0:0:0:
256,192,76806,1,8,0:0:0:0:
256,192,76903,1,0,0:0:0:0:
256,192,77000,1,8,0:0:0:0:
256,192,77097,1,8,0:0:0:0:
256,192,77194,1,0,0:0:0:0:
256,192,77290,1,0,0:0:0:0:
512,0,77387,1,12,0:0:0:0:
256,192,77581,1,8,0:0:0:0:
256,192,77677,1,8,0:0:0:0:
256,192,77774,1,0,0:0:0:0:
256,192,77871,1,8,0:0:0:0:
256,192,77968,1,8,0:0:0:0:
256,192,78064,1,0,0:0:0:0:
256,192,78161,1,8,0:0:0:0:
256,192,78258,1,8,0:0:0:0:
256,192,78355,1,0,0:0:0:0:
256,192,78452,1,8,0:0:0:0:
256,192,78548,1,0,0:0:0:0:
256,192,78645,1,8,0:0:0:0:
256,192,78742,1,0,0:0:0:0:
256,192,78839,1,0,0:0:0:0:
512,0,78935,1,12,0:0:0:0:
256,192,79129,1,8,0:0:0:0:
256,192,79226,1,0,0:0:0:0:
256,192,79323,1,8,0:0:0:0:
256,192,79419,1,0,0:0:0:0:
256,192,79516,1,0,0:0:0:0:
256,192,79613,1,8,0:0:0:0:
256,192,79710,1,0,0:0:0:0:
256,192,79806,1,0,0:0:0:0:
256,192,79903,1,8,0:0:0:0:
256,192,80000,1,0,0:0:0:0:
256,192,80097,1,8,0:0:0:0:
256,192,80194,1,8,0:0:0:0:
256,192,80290,1,0,0:0:0:0:
256,192,80388,1,0,0:0:0:0:
512,0,80484,1,12,0:0:0:0:
256,192,80677,1,0,0:0:0:0:
256,192,80774,1,0,0:0:0:0:
256,192,80871,1,8,0:0:0:0:
256,192,80968,1,0,0:0:0:0:
256,192,81064,1,0,0:0:0:0:
256,192,81161,1,8,0:0:0:0:
256,192,81258,1,0,0:0:0:0:
256,192,81355,1,0,0:0:0:0:
256,192,81452,1,8,0:0:0:0:
256,192,81548,1,8,0:0:0:0:
256,192,81645,1,0,0:0:0:0:
256,192,81742,1,8,0:0:0:0:
256,192,81839,1,8,0:0:0:0:
256,192,81935,1,8,0:0:0:0:
512,0,82032,1,4,0:0:0:0:
256,192,82226,1,8,0:0:0:0:
256,192,82323,1,8,0:0:0:0:
256,192,82419,1,0,0:0:0:0:
256,192,82516,1,8,0:0:0:0:
256,192,82613,1,8,0:0:0:0:
256,192,82710,1,0,0:0:0:0:
256,192,82806,1,8,0:0:0:0:
256,192,82903,1,8,0:0:0:0:
256,192,83000,1,0,0:0:0:0:
256,192,83097,1,0,0:0:0:0:
256,192,83194,1,8,0:0:0:0:
256,192,83290,1,8,0:0:0:0:
256,192,83387,1,8,0:0:0:0:
256,192,83484,1,8,0:0:0:0:
