osu file format v14

[General]
AudioFilename: audio.mp3
AudioLeadIn: 0
PreviewTime: 45323
Countdown: 0
SampleSet: Soft
StackLeniency: 0.7
Mode: 0
LetterboxInBreaks: 0
WidescreenStoryboard: 1

[Editor]
Bookmarks: 37301,128103,149280,161793
DistanceSpacing: 1.4
BeatDivisor: 4
GridSize: 4
TimelineZoom: 2

[Metadata]
Title:Heikousen no Kyoukai
TitleUnicode:平行線の境界
Artist:Metomate
ArtistUnicode:めと
Creator:sorciere
Version:Hard
Source:
Tags:anemone 2020 春M3 spring meto japanese rock めとまて secret messenger
BeatmapID:2682274
BeatmapSetID:1291601

[Difficulty]
HPDrainRate:5
CircleSize:3.7
OverallDifficulty:6
ApproachRate:8
SliderMultiplier:1.27
SliderTickRate:1

[Events]
//Background and Video events
0,0,"jw.jpg",0,0
//Break Periods
2,82100,88369
2,112902,127353
2,143704,148530
//Storyboard Layer 0 (Background)
//Storyboard Layer 1 (Fail)
//Storyboard Layer 2 (Pass)
//Storyboard Layer 3 (Foreground)
//Storyboard Layer 4 (Overlay)
//Storyboard Sound Samples

[TimingPoints]
1045,320.855614973262,3,2,1,100,1,0
8745,-100,3,2,1,60,0,0
9708,-142.857142857143,3,2,1,60,0,0
10670,-100,3,2,1,60,0,0
11633,-142.857142857143,3,2,1,60,0,0
12595,-100,3,2,1,60,0,0
13558,-142.857142857143,3,2,1,60,0,0
14520,-200,3,2,1,30,0,0
16446,-200,3,3,1,35,0,0
24146,-142.857142857143,3,2,1,50,0,0
31847,-200,3,3,1,35,0,0
33772,-200,3,3,1,30,0,0
34093,-200,3,3,1,25,0,0
34413,-200,3,3,1,20,0,0
34734,-200,3,3,1,15,0,0
35376,-200,3,3,1,20,0,0
35536,-200,3,3,1,25,0,0
35697,-200,3,3,1,35,0,0
37622,-200,3,3,1,30,0,0
37943,-200,3,3,1,25,0,0
38264,-200,3,3,1,20,0,0
38424,-200,3,3,1,30,0,0
38585,-200,3,3,1,35,0,0
39547,-142.857142857143,3,2,1,50,0,0
45323,-200,3,2,1,40,0,0
46285,-142.857142857143,3,2,1,30,0,0
47248,-100,3,2,1,60,0,1
51098,-142.857142857143,3,2,2,60,0,1
53023,-100,3,2,2,60,0,1
54948,-100,3,2,1,60,0,1
58799,-142.857142857143,3,2,2,60,0,1
62649,-142.857142857143,3,2,1,60,0,0
66499,-100,3,2,1,60,0,1
70349,-142.857142857143,3,2,2,60,0,1
72274,-100,3,2,2,60,0,1
74200,-142.857142857143,3,2,1,40,0,0
80938,-200,3,2,1,30,0,0
89601,-142.857142857143,3,2,1,50,0,0
97301,-200,3,3,1,35,0,0
99226,-200,3,3,1,30,0,0
99547,-200,3,3,1,25,0,0
99868,-200,3,3,1,20,0,0
100189,-200,3,3,1,15,0,0
100831,-200,3,3,1,20,0,0
100991,-200,3,3,1,25,0,0
101151,-142.857142857143,3,3,1,45,0,0
102756,-200,3,3,1,45,0,0
103077,-200,3,3,1,30,0,0
103397,-200,3,3,1,25,0,0
103718,-200,3,3,1,20,0,0
103879,-200,3,3,1,30,0,0
104039,-200,3,3,1,35,0,0
105002,-142.857142857143,3,2,1,50,0,0
110777,-200,3,2,1,40,0,0
111740,-142.857142857143,3,2,1,50,0,0
112381,-100,3,2,1,40,0,0
128103,-200,3,3,1,30,0,0
149280,-100,3,2,1,45,0,0
151205,-142.857142857143,3,2,1,45,0,0
155055,-100,3,2,1,45,0,0
156980,-83.3333333333333,3,2,1,60,0,0
157943,-333.333333333333,3,2,1,60,0,0
160510,-142.857142857143,3,2,1,60,0,0
160831,-100,3,2,1,60,0,1
164681,-142.857142857143,3,2,2,60,0,1
166606,-100,3,2,2,60,0,1
168531,-100,3,2,1,60,0,1
172381,-142.857142857143,3,2,2,60,0,1
176232,-142.857142857143,3,2,1,60,0,0
180082,-100,3,2,1,60,0,0
181044,-100,3,2,1,60,0,1
183932,-142.857142857143,3,2,1,60,0,1
185857,-100,3,2,1,60,0,1
187462,-83.3333333333333,3,2,1,60,0,1
187782,-142.857142857143,3,2,1,40,0,0

[Colours]
Combo1 : 213,193,210
Combo2 : 184,155,152
Combo3 : 191,193,213
Combo4 : 188,211,188

[HitObjects]
56,68,8745,6,0,P|86:123|104:184,1,127,0|8,1:0|0:0,0:0:0:0:
184,204,9226,1,0,0:0:0:0:
224,176,9387,1,2,0:0:0:0:
252,168,9547,1,0,0:0:0:0:
272,168,9708,6,0,P|293:171|315:177,1,44.4499986434937,0|0,1:0|0:0,0:0:0:0:
384,132,10028,2,0,P|391:151|397:173,1,44.4499986434937,8|0,0:0|0:0,0:0:0:0:
471,210,10349,2,0,P|457:226|441:242,1,44.4499986434937,2|0,0:0|0:0,0:0:0:0:
444,268,10590,1,0,0:0:0:0:
444,268,10670,6,0,B|372:253|391:275|317:261,1,127,0|8,1:2|0:0,0:0:0:0:
196,292,11151,2,0,B|131:275|136:311|71:292,1,127,0|2,0:2|0:0,0:0:0:0:
16,352,11633,6,0,P|34:363|55:370,2,44.4499986434937,0|2|10,1:0|1:2|0:2,0:0:0:0:
71,292,12114,2,0,P|92:286|112:277,2,44.4499986434937,0|10|2,1:0|2:0|2:0,0:0:0:0:
64,208,12595,6,0,P|88:174|115:77,1,127,4|8,1:2|0:0,0:0:0:0:
280,60,13237,2,0,P|295:86|319:107,1,63.5,0|2,0:0|0:0,0:0:0:0:
380,164,13558,5,0,1:0:0:0:
398,160,13718,1,0,0:0:0:0:
424,147,13878,1,0,0:0:0:0:
459,113,14039,1,2,0:0:0:0:
492,48,14200,2,0,P|487:26|479:5,1,44.4499986434937,0|0,1:0|0:0,0:0:0:0:
400,20,14520,6,0,L|393:51,1,31.75,2|0,0:0|0:0,0:0:0:0:
400,72,14841,2,0,L|393:103,1,31.75,2|0,0:0|0:0,0:0:0:0:
400,120,15162,1,2,0:0:0:0:
192,136,15483,5,2,0:0:0:0:
248,80,15804,1,2,0:0:0:0:
324,100,16125,1,2,0:0:0:0:
268,156,16446,6,0,P|253:159|238:166,1,31.75,6|2,0:2|0:2,0:0:0:0:
180,112,16927,2,0,P|164:139|158:170,1,63.5,0|2,0:0|0:2,0:0:0:0:
132,113,17408,2,0,P|141:143|158:169,1,63.5,2|0,0:2|0:0,0:0:0:0:
200,236,18050,1,0,0:0:0:0:
160,304,18371,2,0,P|112:310|68:326,2,95.25,2|0|2,0:2|0:0|0:2,0:0:0:0:
348,308,19815,2,0,P|364:307|379:302,2,31.75,0|0|0,0:0|0:0|0:0,0:0:0:0:
437,331,20296,6,0,P|389:330|348:308,1,95.25,2|0,0:2|0:0,0:0:0:0:
359,337,20938,2,0,P|351:323|347:307,1,31.75,2|0,0:2|0:0,0:0:0:0:
332,367,21258,2,0,P|334:335|347:307,1,63.5,2|2,0:2|0:2,0:0:0:0:
297,245,21900,2,0,P|325:231|356:228,1,63.5,2|2,0:2|0:2,0:0:0:0:
356,228,23665,6,0,P|371:225|386:219,2,31.75
320,300,24146,6,0,B|259:294|259:294|251:297|251:297|187:292,1,133.349995930481,8|0,3:0|0:0,0:0:0:0:
128,348,24788,2,0,P|114:330|107:309,1,44.4499986434937,2|2,0:0|0:0,0:0:0:0:
192,272,25109,6,0,B|250:267|250:267|264:274|264:274|323:269,1,133.349995930481,4|0,3:0|0:0,0:0:0:0:
392,312,25750,1,2,0:0:0:0:
440,248,25911,1,0,1:0:0:0:
372,204,26071,6,0,L|364:152,2,44.4499986434937,8|0|8,3:0|0:0|0:0,0:0:0:0:
300,268,26553,2,0,P|255:265|215:247,1,88.8999972869874,4|0,0:0|0:0,0:0:0:0:
127,248,27034,5,4,0:3:0:0:
128,248,27194,1,2,1:2:0:0:
128,248,27355,1,2,0:0:0:0:
60,192,27515,5,0,1:2:0:0:
140,156,27675,1,2,1:2:0:0:
208,212,27836,1,2,3:2:0:0:
208,212,27916,1,0,0:0:0:0:
208,212,27996,6,0,P|232:209|260:200,1,44.4499986434937,4|0,3:2|0:0,0:0:0:0:
360,244,28317,2,0,P|366:181|313:146,1,133.349995930481,8|2,0:0|0:0,0:0:0:0:
236,124,28959,6,0,P|212:121|184:112,1,44.4499986434937,0|0,3:0|0:0,0:0:0:0:
84,156,29280,2,0,P|77:93|130:58,1,133.349995930481,0|10,1:0|0:0,0:0:0:0:
220,0,29922,6,0,L|230:43,1,44.4499986434937,0|0,3:0|0:0,0:0:0:0:
252,120,30242,2,0,L|262:163,2,44.4499986434937,8|0|0,0:0|1:0|0:0,0:0:0:0:
384,28,30884,6,0,L|376:76,1,44.4499986434937,0|0,1:0|0:0,0:0:0:0:
476,124,31205,2,0,L|468:172,1,44.4499986434937,8|8,0:0|0:0,0:0:0:0:
384,208,31526,2,0,L|376:256,1,44.4499986434937,0|0,3:0|0:0,0:0:0:0:
436,300,31847,6,0,P|388:303|345:322,1,95.25,6|0,0:2|0:0,0:0:0:0:
272,296,32649,1,2,0:2:0:0:
272,296,32809,2,0,P|224:292|182:270,1,95.25,2|0,0:2|0:0,0:0:0:0:
193,300,33451,2,0,P|186:285|182:270,1,31.75,2|2,0:2|0:2,0:0:0:0:
112,232,33772,5,2,0:2:0:0:
100,200,34093,1,2,0:2:0:0:
100,176,34413,1,2,0:2:0:0:
104,164,34734,1,2,0:2:0:0:
104,56,35216,2,0,P|95:42|90:27,2,31.75,0|0|0,0:0|0:0|0:0,0:0:0:0:
164,108,35697,6,0,P|212:105|255:86,1,95.25,2|0,0:2|0:0,0:0:0:0:
328,64,36339,1,0,0:0:0:0:
312,140,36499,1,2,1:2:0:0:
388,116,36659,2,0,P|430:94|477:90,1,95.25,2|0,0:2|0:0,0:0:0:0:
452,70,37301,2,0,P|465:79|476:90,1,31.75,2|2,0:2|0:2,0:0:0:0:
512,160,37622,5,2,0:2:0:0:
512,180,37943,1,2,0:2:0:0:
503,197,38263,1,2,0:2:0:0:
436,240,38424,5,0,1:0:0:0:
464,316,38585,2,0,P|462:347|448:375,2,63.5,2|2|2,0:2|0:2|0:2,0:0:0:0:
436,240,39387,1,0,1:0:0:0:
356,264,39547,6,0,L|308:268,1,44.4499986434937,4|0,1:2|1:0,0:0:0:0:
256,324,39868,2,0,L|211:327,1,44.4499986434937,2|0,0:0|0:0,0:0:0:0:
172,256,40189,2,0,L|127:259,1,44.4499986434937,2|0,0:0|0:0,0:0:0:0:
44,340,40510,2,0,P|87:342|122:369,2,88.8999972869874,0|2|2,1:0|0:0|0:0,0:0:0:0:
84,184,41472,6,0,L|132:188,1,44.4499986434937,0|0,1:0|1:0,0:0:0:0:
184,244,41793,2,0,L|228:247,1,44.4499986434937,2|0,0:0|0:0,0:0:0:0:
268,176,42114,2,0,L|312:179,1,44.4499986434937,2|0,0:0|0:0,0:0:0:0:
412,248,42435,5,2,1:2:0:0:
412,248,42595,1,2,1:2:0:0:
336,280,42756,1,2,0:0:0:0:
336,280,42916,1,2,0:0:0:0:
276,332,43077,2,0,P|260:347|247:366,1,44.4499986434937,4|0,0:0|0:0,0:0:0:0:
168,360,43397,6,0,L|156:316,1,44.4499986434937,4|0,1:1|1:0,0:0:0:0:
216,260,43718,2,0,L|204:217,1,44.4499986434937,0|0,0:0|0:0,0:0:0:0:
96,204,44039,2,0,L|84:161,1,44.4499986434937,8|0,0:2|0:0,0:0:0:0:
204,104,44360,5,2,1:2:0:0:
220,96,44520,1,2,1:2:0:0:
248,92,44681,1,2,0:0:0:0:
284,104,44841,1,2,0:0:0:0:
316,136,45002,1,10,0:0:0:0:
388,156,45162,1,2,0:0:0:0:
464,144,45323,6,0,P|480:116|492:20,1,127,4|4,1:2|0:3,0:0:0:0:
400,64,46125,1,8,3:0:0:0:
468,168,46285,6,0,P|504:88|506:-2,1,177.799994573975,4|0,1:0|0:0,0:0:0:0:
506,0,47248,6,0,L|496:76,1,63.5,4|0,1:2|0:0,0:0:0:0:
404,132,47569,2,0,B|391:144|391:144|347:151,1,63.5,8|0,0:2|0:0,0:0:0:0:
391,46,47889,2,0,B|374:38|374:38|331:46,1,63.5,8|0,0:2|0:0,0:0:0:0:
240,116,48210,6,0,L|230:192,1,63.5,0|0,1:0|0:0,0:0:0:0:
156,264,48531,2,0,B|143:276|143:276|99:283,1,63.5,8|0,0:2|0:0,0:0:0:0:
143,178,48851,2,0,B|126:170|126:170|83:178,1,63.5,8|0,0:2|0:0,0:0:0:0:
16,300,49173,5,0,1:2:0:0:
16,300,49333,1,0,0:1:0:0:
16,300,49494,1,8,0:0:0:0:
76,364,49654,2,2,B|135:358|135:358|144:362|144:362|201:356,1,127,2|0,0:2|0:0,0:1:0:0:
140,264,50135,5,6,1:2:0:0:
216,276,50296,1,0,0:1:0:0:
292,288,50456,1,8,0:0:0:0:
360,340,50617,2,2,B|380:308|380:308|372:218,1,127,2|0,0:2|0:0,0:1:0:0:
404,144,51098,6,0,L|352:132,1,44.4499986434937,4|0,1:1|0:0,0:0:0:0:
320,60,51419,2,0,L|283:99,1,44.4499986434937,8|0,3:2|0:0,0:0:0:0:
205,90,51740,2,0,L|220:141,1,44.4499986434937,8|0,3:2|0:0,0:0:0:0:
296,208,52061,6,0,L|308:250,1,44.4499986434937,0|0,1:0|0:0,0:0:0:0:
223,254,52381,2,0,L|192:286,1,44.4499986434937,8|0,3:2|0:0,0:0:0:0:
146,213,52702,2,0,L|102:203,1,44.4499986434937,8|0,3:2|0:0,0:0:0:0:
84,216,52943,1,0,0:0:0:0:
84,216,53023,6,0,B|78:160|78:160|73:152|73:152|66:91,1,127,2|8,1:2|0:0,0:1:0:0:
112,16,53504,2,2,L|49:4,2,63.5,2|8|0,3:2|0:0|0:0,0:1:0:0:
208,80,53986,6,0,B|214:136|214:136|219:144|219:144|226:205,1,127,2|8,1:2|0:0,0:1:0:0:
184,280,54467,2,2,L|246:291,2,63.5,2|8|0,3:2|0:0|0:0,0:1:0:0:
100,280,54948,6,0,P|104:311|121:338,1,63.5,4|0,1:2|0:0,0:0:0:0:
232,352,55269,2,0,P|256:332|271:304,1,63.5,8|0,0:2|0:0,0:0:0:0:
232,224,55590,1,8,0:2:0:0:
272,148,55750,5,0,0:0:0:0:
272,148,55831,1,0,0:0:0:0:
272,148,55911,2,0,P|286:120|311:99,1,63.5,0|0,1:0|0:0,0:0:0:0:
422,113,56232,2,0,P|438:139|442:170,1,63.5,8|0,0:0|0:0,0:0:0:0:
484,256,56553,2,0,L|420:263,1,63.5,8|0,0:0|0:0,0:0:0:0:
352,320,56873,6,0,P|320:316|292:302,1,63.5,0|0,1:0|0:0,0:0:0:0:
316,216,57194,1,8,2:2:0:0:
316,216,57355,1,0,0:0:0:0:
228,240,57515,1,8,2:2:0:0:
152,192,57676,1,0,0:0:0:0:
152,192,57756,1,0,0:0:0:0:
152,192,57836,6,0,P|120:188|92:174,1,63.5,4|0,1:2|0:0,0:0:0:0:
24,116,58157,1,8,2:2:0:0:
24,116,58317,1,0,0:0:0:0:
108,84,58478,1,8,2:2:0:0:
108,84,58638,1,0,0:0:0:0:
192,112,58799,6,0,P|210:123|225:140,1,44.4499986434937,4|0,1:0|0:0,0:0:0:0:
304,136,59119,2,0,P|303:158|296:178,1,44.4499986434937,10|0,3:2|0:0,0:0:0:0:
339,244,59440,2,0,P|319:254|297:258,1,44.4499986434937,10|0,3:2|0:0,0:0:0:0:
256,328,59761,6,0,P|237:316|222:299,1,44.4499986434937,0|0,1:0|0:0,0:0:0:0:
144,304,60081,2,0,P|144:281|151:261,1,44.4499986434937,10|0,3:2|0:0,0:0:0:0:
109,196,60402,2,0,P|128:185|150:181,1,44.4499986434937,10|0,3:2|0:0,0:0:0:0:
180,184,60643,1,0,0:0:0:0:
180,184,60724,6,0,P|199:194|213:212,1,44.4499986434937,0|0,1:0|0:0,0:0:0:0:
252,220,61044,2,0,P|252:241|244:263,1,44.4499986434937,10|0,3:2|0:0,0:0:0:0:
256,300,61365,2,0,P|237:311|215:315,1,44.4499986434937,10|0,3:2|0:0,0:0:0:0:
200,316,61606,1,0,0:0:0:0:
200,316,61687,6,0,P|180:305|166:287,1,44.4499986434937,0|0,1:2|0:0,0:0:0:0:
136,288,62007,2,0,P|135:266|143:244,1,44.4499986434937,10|0,3:2|0:0,0:0:0:0:
120,224,62328,2,0,P|139:213|161:209,1,44.4499986434937,10|0,3:2|0:0,0:0:0:0:
184,216,62569,1,0,0:0:0:0:
184,216,62649,6,0,P|210:234|269:247,2,88.8999972869874,4|8|0,3:2|0:3|3:0,0:0:0:0:
168,120,63611,2,0,P|188:95|242:68,2,88.8999972869874,0|4|0,1:0|3:0|3:0,0:0:0:0:
96,188,64574,1,2,1:2:0:0:
96,188,64895,2,0,P|160:176|432:276,1,355.59998914795,2|2,0:2|1:2,0:0:0:0:
476,344,66339,1,0,0:0:0:0:
476,344,66419,1,0,0:0:0:0:
476,344,66499,6,0,P|510:297|504:229,2,127,4|8|0,3:2|3:0|3:0,0:0:0:0:
292,280,67462,2,0,P|277:251|275:219,1,63.5,0|0,1:2|0:0,0:0:0:0:
194,187,67782,2,0,P|211:160|236:142,1,63.5,0|0,1:2|0:0,0:0:0:0:
225,56,68103,2,0,P|255:58|284:71,1,63.5,0|0,1:2|0:0,0:0:0:0:
353,16,68424,6,0,P|365:43|368:75,1,63.5,4|0,1:2|0:0,0:0:0:0:
324,152,68745,2,0,L|256:164,2,63.5,8|0|8,0:2|0:0|0:2,0:0:0:0:
404,212,69226,1,0,0:0:0:0:
404,212,69307,1,0,0:0:0:0:
404,212,69387,2,0,L|466:222,1,63.5,4|0,1:2|0:0,0:0:0:0:
512,304,69708,5,8,0:2:0:0:
444,360,69868,1,8,1:3:0:0:
444,360,70028,1,0,0:0:0:0:
360,324,70189,1,4,1:3:0:0:
360,324,70349,6,0,P|340:315|318:312,1,44.4499986434937,4|0,1:0|0:0,0:0:0:0:
249,268,70670,2,0,P|261:250|279:237,1,44.4499986434937,2|0,3:2|0:0,0:0:0:0:
165,268,70991,2,0,P|167:290|175:310,1,44.4499986434937,2|0,0:0|0:0,0:0:0:0:
189,333,71232,1,0,0:0:0:0:
189,333,71312,6,0,P|197:353|199:375,1,44.4499986434937,4|0,1:3|0:0,0:0:0:0:
73,377,71633,2,0,P|91:364|104:347,1,44.4499986434937,2|0,3:2|0:0,0:0:0:0:
33,277,71954,2,0,P|43:280|54:282,2,22.2249993217468,2|0|0,3:2|0:0|0:0,0:0:0:0:
57,201,72274,6,0,L|121:185,1,63.5,4|0,1:2|0:0,0:0:0:0:
184,240,72595,2,0,L|248:224,1,63.5,2|0,3:2|0:0,0:0:0:0:
256,120,72916,2,0,L|320:104,1,63.5,2|0,3:2|0:0,0:0:0:0:
400,200,73237,6,0,P|458:125|472:32,1,190.5,4|0,1:2|0:0,0:0:0:0:
388,8,73879,2,0,L|357:17,2,31.75,2|0|0,3:2|0:0|0:0,0:0:0:0:
472,31,74200,6,0,P|441:91|438:157,1,133.349995930481,4|0,1:0|0:0,0:0:0:0:
488,312,75002,1,0,0:0:0:0:
487,311,75162,2,0,P|488:266|507:227,2,88.8999972869874,8|0|0,0:2|0:0|0:0,0:0:0:0:
404,332,75964,1,2,0:0:0:0:
404,332,76125,2,0,P|380:294|344:269,2,88.8999972869874,0|2|2,1:0|0:0|0:0,0:0:0:0:
492,348,76927,1,0,1:2:0:0:
492,348,77087,5,8,0:2:0:0:
344,269,77408,1,2,0:0:0:0:
504,248,77729,1,0,0:3:0:0:
432,216,77889,1,8,0:2:0:0:
432,216,78050,6,0,P|374:194|294:183,1,133.349995930481,0|0,1:0|1:2,0:0:0:0:
148,144,78852,1,0,0:0:0:0:
148,144,79012,2,0,P|120:152|92:168,1,44.4499986434937,8|2,0:0|0:0,0:0:0:0:
128,236,79333,2,0,P|113:261|105:292,1,44.4499986434937,2|2,0:0|0:0,0:0:0:0:
178,315,79654,2,0,P|185:342|202:371,1,44.4499986434937,2|2,0:0|0:0,0:0:0:0:
272,376,79975,6,0,P|276:332|292:288,1,88.8999972869874,0|2,1:0|0:0,0:0:0:0:
244,224,80456,1,2,0:0:0:0:
256,200,80617,1,2,0:0:0:0:
256,164,80777,1,2,0:0:0:0:
216,96,80938,6,0,L|148:84,2,63.5,8|4|4,3:2|3:0|3:0,0:0:0:0:
288,52,81900,1,4,1:0:0:0:
380,32,89119,6,0,P|394:26|407:17,2,31.75,0|0|0,0:0|0:0|0:0,0:0:0:0:
320,80,89601,6,0,B|259:86|259:86|251:83|251:83|187:88,1,133.349995930481,8|0,3:0|0:0,0:0:0:0:
128,32,90242,2,0,P|114:50|107:71,1,44.4499986434937,2|2,0:0|0:0,0:0:0:0:
192,108,90563,6,0,B|250:113|250:113|264:106|264:106|323:111,1,133.349995930481,4|0,3:0|0:0,0:0:0:0:
384,164,91205,1,0,1:0:0:0:
404,88,91365,1,2,0:0:0:0:
404,88,91446,1,0,0:0:0:0:
404,88,91526,6,0,L|392:30,2,44.4499986434937,8|0|0,3:0|0:0|0:0,0:0:0:0:
300,96,92007,2,0,P|268:100|216:124,1,88.8999972869874,0|0,1:0|0:0,0:0:0:0:
136,112,92488,2,0,P|128:132|123:154,1,44.4499986434937,4|0,0:3|0:0,0:0:0:0:
48,184,92809,5,10,0:0:0:0:
48,184,92970,1,10,0:0:0:0:
112,232,93130,1,2,0:0:0:0:
196,212,93290,1,0,0:0:0:0:
196,212,93371,1,0,0:0:0:0:
196,212,93451,6,0,P|232:216|252:228,1,44.4499986434937,4|0,3:2|0:0,0:0:0:0:
264,328,93772,1,8,0:0:0:0:
340,294,93932,2,0,P|344:251|321:215,1,88.8999972869874,2|0,0:0|1:0,0:0:0:0:
280,148,94413,6,0,P|246:133|223:133,1,44.4499986434937,0|0,3:0|0:0,0:0:0:0:
160,212,94734,1,8,0:0:0:0:
108,146,94895,2,0,P|126:106|163:87,1,88.8999972869874,2|0,0:0|1:0,0:0:0:0:
256,24,95376,6,0,L|268:84,1,44.4499986434937,0|0,3:0|0:0,0:0:0:0:
280,148,95697,2,0,L|288:191,2,44.4499986434937,8|0|2,0:2|0:0|0:0,0:0:0:0:
256,24,96339,5,2,1:2:0:0:
240,72,96499,1,2,1:2:0:0:
236,108,96659,1,2,0:0:0:0:
240,132,96820,1,2,1:2:0:0:
256,160,96980,1,2,0:2:0:0:
264,196,97141,1,2,0:0:0:0:
264,248,97301,6,0,P|256:276|256:356,1,95.25,6|0,0:2|0:0,0:0:0:0:
231,319,97943,2,0,P|241:331|253:341,1,31.75,0|2,0:0|0:2,0:0:0:0:
328,376,98264,2,0,P|356:368|425:328,1,95.25,2|0,0:2|0:0,0:0:0:0:
406,368,98905,2,0,P|411:353|413:337,1,31.75,2|2,0:2|0:2,0:0:0:0:
404,256,99226,5,2,0:2:0:0:
380,237,99547,1,2,0:2:0:0:
357,230,99867,1,2,0:2:0:0:
344,232,100188,1,2,0:2:0:0:
216,296,100670,2,0,P|201:301|187:309,2,31.75,0|0|0,0:0|0:0|0:0,0:0:0:0:
268,240,101151,6,0,L|124:224,1,133.349995930481,2|0,0:2|0:0,0:0:0:0:
100,152,101793,2,0,L|144:144,1,44.4499986434937,0|8,0:0|0:2,0:0:0:0:
180,72,102114,2,0,L|36:56,1,133.349995930481,2|0,0:2|0:0,0:0:0:0:
64,31,102756,2,0,P|53:42|46:57,1,31.75,2|2,0:2|0:2,0:0:0:0:
48,132,103077,5,2,0:2:0:0:
68,132,103398,1,2,0:2:0:0:
85,123,103718,1,2,0:2:0:0:
152,80,103879,5,0,1:0:0:0:
224,112,104040,2,0,P|255:114|283:128,2,63.5,2|2|2,0:2|0:2|0:2,0:0:0:0:
152,80,104841,1,0,1:0:0:0:
85,123,105002,6,0,L|76:170,1,44.4499986434937,0|0,1:0|1:0,0:0:0:0:
117,235,105323,2,0,L|108:279,1,44.4499986434937,2|0,0:0|0:0,0:0:0:0:
29,298,105644,2,0,L|20:342,1,44.4499986434937,2|0,0:0|0:0,0:0:0:0:
120,380,105965,2,0,P|152:350|195:345,2,88.8999972869874,0|2|2,1:0|0:0|0:0,0:0:0:0:
284,352,106927,6,0,L|275:304,1,44.4499986434937,0|0,1:0|1:0,0:0:0:0:
316,240,107248,2,0,L|307:195,1,44.4499986434937,2|0,0:0|0:0,0:0:0:0:
228,177,107569,2,0,L|219:132,1,44.4499986434937,2|0,0:0|0:0,0:0:0:0:
316,68,107889,5,2,1:2:0:0:
316,68,108050,1,2,1:2:0:0:
384,120,108210,1,2,0:0:0:0:
384,120,108371,1,2,0:0:0:0:
460,140,108531,2,0,P|481:136|501:126,1,44.4499986434937,4|0,0:0|0:0,0:0:0:0:
474,56,108852,6,0,L|428:51,1,44.4499986434937,4|0,0:1|0:0,0:0:0:0:
384,120,109173,2,0,L|339:115,1,44.4499986434937,0|0,0:0|0:0,0:0:0:0:
280,24,109494,2,0,L|235:19,1,44.4499986434937,8|0,0:2|0:0,0:0:0:0:
168,136,109815,5,2,1:2:0:0:
158,150,109975,1,2,1:2:0:0:
156,179,110135,1,2,0:0:0:0:
171,213,110296,1,2,0:0:0:0:
210,242,110456,1,10,0:0:0:0:
284,248,110617,1,2,0:0:0:0:
344,200,110777,6,0,P|350:137|327:79,1,127,4|0,1:2|0:0,0:0:0:0:
356,224,111740,6,0,P|365:136|332:54,1,177.799994573975,4|2,1:0|3:2,0:0:0:0:
252,68,112542,2,0,L|216:60,2,31.75,0|0|4,3:0|3:0|3:2,3:0:0:0:
340,56,128103,6,0,P|396:83|457:72,1,127,0|0,0:0|0:0,0:0:0:0:
457,72,129066,2,0,P|421:76|325:188,2,190.5,0|2|2,0:0|0:2|0:2,0:0:0:0:
464,280,131954,6,0,P|463:311|457:342,2,63.5,0|0|0,0:0|0:0|0:0,0:0:0:0:
464,280,132916,2,0,P|412:252|377:298,1,127,0|0,0:0|0:0,0:0:0:0:
377,298,133879,2,0,P|413:219|492:253,2,190.5,2|2|0,0:2|0:2|0:0,0:0:0:0:
148,344,137408,6,0,P|116:340|88:328,2,63.5,0|0|2,0:0|0:0|0:2,0:0:0:0:
148,344,138371,2,0,P|167:319|179:289,1,63.5,0|0,0:0|0:0,0:0:0:0:
179,289,139012,2,0,P|167:259|147:234,1,63.5,2|0,0:2|0:0,0:0:0:0:
88,176,139654,6,0,P|57:190|30:209,2,63.5,0|2|2,0:0|0:2|0:2,0:0:0:0:
88,176,140617,2,0,P|144:202|207:213,1,127,0|0,0:0|0:0,0:0:0:0:
207,213,141579,2,0,P|262:182|323:167,1,127
404,148,142542,5,0,0:0:0:0:
432,172,142863,1,10,0:2:0:0:
452,184,143184,1,2,0:2:0:0:
472,192,143504,1,6,0:2:0:0:
504,104,149280,6,0,L|436:96,1,63.5,0|8,0:0|0:0,0:0:0:0:
368,132,149601,1,2,2:0:0:0:
296,100,149761,1,2,2:0:0:0:
252,132,149922,1,2,2:0:0:0:
220,120,150082,1,2,3:2:0:0:
192,136,150242,1,2,3:2:0:0:
176,132,150403,2,0,L|170:101,2,31.75,2|0|0,3:2|3:0|1:0,0:0:0:0:
292,232,150884,2,0,L|299:263,3,31.75,0|0|0|0,1:0|3:0|3:0|3:0,0:0:0:0:
304,280,151205,6,0,L|292:323,1,44.4499986434937,4|0,1:2|0:0,0:0:0:0:
217,285,151526,2,0,L|185:253,1,44.4499986434937,2|0,0:0|0:0,0:0:0:0:
257,208,151847,2,0,L|299:196,1,44.4499986434937,2|0,1:2|0:0,0:0:0:0:
330,300,152167,6,0,L|291:321,1,44.4499986434937,0|0,1:0|0:0,0:0:0:0:
185,298,152488,2,0,L|185:253,1,44.4499986434937,2|0,0:0|0:0,0:0:0:0:
261,173,152809,2,0,L|299:195,1,44.4499986434937,2|0,1:2|0:0,0:0:0:0:
324,196,153050,1,0,0:0:0:0:
324,196,153130,6,0,L|316:239,1,44.4499986434937,0|0,1:0|0:0,0:0:0:0:
192,268,153451,2,0,L|200:312,1,44.4499986434937,2|0,0:0|0:0,0:0:0:0:
312,328,153772,2,0,L|304:371,1,44.4499986434937,2|0,1:2|0:0,0:0:0:0:
292,380,154012,1,0,0:0:0:0:
292,380,154093,6,0,L|299:336,1,44.4499986434937,0|0,1:0|0:0,0:0:0:0:
228,260,154413,2,0,L|221:217,1,44.4499986434937,10|2,1:2|0:0,0:0:0:0:
280,140,154734,2,0,L|287:96,1,44.4499986434937,10|2,1:2|0:0,0:0:0:0:
192,44,155055,6,0,P|129:50|81:90,1,127,6|2,1:2|1:2,0:0:0:0:
52,168,155536,1,2,0:2:0:0:
68,176,155696,1,2,1:2:0:0:
96,180,155857,1,2,0:2:0:0:
132,168,156017,1,2,1:2:0:0:
168,144,156178,1,2,0:2:0:0:
240,124,156338,1,2,1:2:0:0:
288,132,156499,1,2,0:2:0:0:
316,156,156659,2,0,L|308:196,3,31.75,2|0|2|0,0:0|0:0|0:0|0:0,0:0:0:0:
316,208,156980,6,0,B|299:196|299:196|239:207,2,76.1999976745606,0|2|2,1:0|1:2|0:2,0:0:0:0:
332,295,157462,2,0,B|319:310|319:310|264:320,2,76.1999976745606,0|2|2,1:0|1:2|0:2,0:0:0:0:
396,240,157943,6,0,P|276:230|144:288,1,266.699991860962,4|0,0:1|0:0,0:0:0:0:
76,344,160510,2,0,L|52:348,3,22.2249993217468,0|0|0|0,3:0|3:0|3:0|3:0,0:0:0:0:
36,356,160831,6,0,P|36:320|40:288,1,63.5,4|0,1:2|0:0,0:0:0:0:
132,228,161151,2,0,B|144:212|144:212|164:204|186:204,1,63.5,8|0,0:2|0:0,0:0:0:0:
149,313,161472,2,0,B|165:323|165:323|188:324|208:315,1,63.5,8|0,0:2|0:0,0:0:0:0:
296,240,161793,6,0,P|296:204|300:172,1,63.5,0|0,1:0|0:0,0:0:0:0:
368,84,162114,2,0,B|380:68|380:68|400:60|422:60,1,63.5,8|0,2:2|0:0,0:0:0:0:
385,169,162435,2,0,B|401:179|401:179|424:180|444:171,1,63.5,8|0,2:2|0:0,0:0:0:0:
512,80,162756,5,2,1:2:0:0:
512,80,162916,1,0,0:0:0:0:
512,80,163077,1,8,0:0:0:0:
436,32,163237,2,2,B|404:24|372:36|380:48|348:60|314:53,1,127,2|0,0:2|0:0,0:1:0:0:
376,144,163718,5,6,1:2:0:0:
293,129,163879,1,0,0:0:0:0:
210,114,164039,1,8,0:0:0:0:
144,64,164200,2,2,B|121:86|124:113|124:113|130:185,1,127,2|0,0:2|0:0,0:1:0:0:
80,244,164681,6,0,P|97:257|119:263,1,44.4499986434937,4|0,1:0|0:0,0:0:0:0:
148,340,165002,2,0,P|168:331|184:315,1,44.4499986434937,10|0,3:2|0:0,0:0:0:0:
265,328,165323,2,0,P|267:306|261:284,1,44.4499986434937,10|0,3:2|0:0,0:0:0:0:
260,172,165643,6,0,P|254:150|256:128,1,44.4499986434937,0|0,1:2|0:0,0:0:0:0:
337,140,165964,2,0,P|352:124|373:115,1,44.4499986434937,10|0,3:2|0:0,0:0:0:0:
402,193,166285,2,0,P|423:198|441:212,1,44.4499986434937,10|0,3:2|0:0,0:0:0:0:
460,236,166526,1,0,0:0:0:0:
460,236,166606,6,0,B|471:169|458:174|470:107,1,127,2|8,1:2|0:0,0:0:0:0:
424,32,167087,2,2,P|449:14|480:18,2,63.5,2|8|0,3:2|0:0|0:0,0:1:0:0:
336,108,167569,6,0,B|325:175|338:170|326:237,1,127,2|8,1:2|0:0,0:0:0:0:
372,312,168050,2,2,P|346:329|315:325,2,63.5,2|8|0,3:2|0:0|0:0,0:1:0:0:
448,344,168531,6,0,P|478:335|507:322,1,63.5,4|0,1:2|0:0,0:0:0:0:
480,236,168852,2,0,P|500:212|504:176,1,63.5,8|0,0:2|0:0,0:0:0:0:
456,108,169173,2,0,L|384:100,1,63.5,8|0,0:2|0:0,0:0:0:0:
276,72,169494,6,0,P|246:81|217:94,1,63.5,0|0,1:0|0:0,0:0:0:0:
232,180,169815,2,0,P|211:203|206:234,1,63.5,8|0,0:2|0:0,0:0:0:0:
232,320,170135,2,0,L|169:327,1,63.5,8|0,0:2|0:0,0:0:0:0:
60,368,170456,6,0,L|36:308,1,63.5,0|0,1:0|0:0,0:0:0:0:
8,228,170777,1,8,0:2:0:0:
8,228,170938,1,0,0:0:0:0:
96,240,171098,1,8,0:2:0:0:
96,240,171258,1,0,0:0:0:0:
168,188,171419,6,0,L|175:125,1,63.5,4|0,1:2|0:0,0:0:0:0:
104,72,171740,1,8,0:2:0:0:
104,72,171900,1,0,0:0:0:0:
188,40,172061,1,8,0:2:0:0:
268,96,172221,1,0,0:0:0:0:
268,96,172301,1,0,0:0:0:0:
268,96,172381,6,0,P|285:108|296:126,1,44.4499986434937,4|0,1:0|0:0,0:0:0:0:
296,210,172702,2,0,P|315:200|337:198,1,44.4499986434937,10|0,3:2|0:0,0:0:0:0:
411,242,173023,2,0,P|412:219|421:198,1,44.4499986434937,10|0,3:2|0:0,0:0:0:0:
495,158,173344,2,0,P|475:144|464:126,1,44.4499986434937,0|0,1:0|0:0,0:0:0:0:
466,42,173665,2,0,P|444:49|422:51,1,44.4499986434937,10|0,3:2|0:0,0:0:0:0:
351,10,173986,2,0,P|347:30|337:51,1,44.4499986434937,10|0,3:2|0:0,0:0:0:0:
322,71,174226,1,0,0:0:0:0:
322,71,174307,6,0,P|339:83|350:101,1,44.4499986434937,0|0,1:0|0:0,0:0:0:0:
339,141,174627,2,0,P|358:131|380:129,1,44.4499986434937,10|0,3:2|0:0,0:0:0:0:
459,144,174948,2,0,P|457:132|459:120,3,22.2249993217468,10|0|0|0,3:2|3:0|3:0|3:0,0:0:0:0:
462,105,175269,6,0,P|442:91|431:73,1,44.4499986434937,0|0,1:0|0:0,0:0:0:0:
448,52,175590,2,0,P|426:59|404:61,1,44.4499986434937,10|0,3:2|0:0,0:0:0:0:
395,37,175911,2,0,P|390:59|380:79,1,44.4499986434937,10|0,3:2|0:0,0:0:0:0:
368,92,176151,1,0,0:0:0:0:
368,92,176232,6,0,L|281:73,2,88.8999972869874,4|8|0,3:2|0:3|3:0,0:0:0:0:
380,188,177194,2,0,L|300:228,2,88.8999972869874,0|4|0,1:0|3:0|3:0,0:0:0:0:
456,128,178157,1,2,1:2:0:0:
456,128,178478,2,0,B|373:134|373:134|312:140|291:170|307:169|285:203|231:207|231:207|120:216,1,355.59998914795,2|2,0:2|1:2,0:0:0:0:
48,164,179922,1,0,0:0:0:0:
48,164,180002,1,0,0:0:0:0:
48,164,180082,6,0,B|30:100|30:100|64:50,2,127,8|0|0,3:0|3:0|3:0,0:0:0:0:
200,280,181044,2,0,L|262:291,1,63.5,2|0,1:2|0:0,0:0:0:0:
308,368,181365,2,0,L|349:319,1,63.5,2|0,1:2|0:0,0:0:0:0:
438,318,181686,2,0,L|416:258,1,63.5,2|0,1:2|0:0,0:0:0:0:
472,188,182007,6,0,P|410:171|347:169,1,127,4|8,1:2|0:2,0:0:0:0:
264,136,182488,1,0,0:0:0:0:
212,208,182649,2,0,P|180:204|136:188,1,63.5,8|0,0:2|0:0,0:0:0:0:
128,204,182889,1,0,0:0:0:0:
128,204,182970,2,0,L|104:68,2,127,4|8|2,1:2|0:2|3:2,0:0:0:0:
92,284,183772,1,0,3:0:0:0:
164,320,183932,6,0,P|183:330|200:344,1,44.4499986434937,4|0,1:2|0:0,0:0:0:0:
276,316,184253,2,0,P|275:293|269:272,1,44.4499986434937,8|0,3:0|0:0,0:0:0:0:
380,300,184574,2,0,P|369:319|354:335,1,44.4499986434937,0|0,3:0|0:0,0:0:0:0:
384,220,184895,6,0,P|394:200|409:184,1,44.4499986434937,0|0,1:0|0:0,0:0:0:0:
296,168,185216,2,0,P|296:190|302:211,1,44.4499986434937,4|0,3:0|0:0,0:0:0:0:
228,248,185536,2,0,P|208:237|196:224,2,22.2249993217468,0|0|0,3:0|0:0|0:0,0:0:0:0:
156,176,185857,5,4,1:2:0:0:
200,96,186018,2,0,L|187:33,2,63.5,2|2|0,1:2|0:2|1:0,0:0:0:0:
320,168,186499,2,0,L|307:230,1,63.5,2|2,1:2|0:2,0:0:0:0:
224,284,186820,2,0,L|234:315,7,31.75,2|0|0|0|2|0|0|0,0:0|0:0|0:0|0:0|0:0|0:0|0:0|0:0,0:0:0:0:
212,336,187462,6,0,L|249:343,3,38.0999988372803,2|0|0|0,3:2|3:0|3:0|3:0,0:0:0:0:
272,356,187782,6,0,P|312:368|400:324,1,133.349995930481,4|0,1:0|1:0,0:0:0:0:
448,204,188585,1,2,1:2:0:0:
448,204,188745,2,0,P|404:207|365:187,2,88.8999972869874,8|0|0,0:2|0:0|0:0,0:0:0:0:
500,144,189547,6,0,P|505:122|505:100,1,44.4499986434937,2|0,1:2|1:0,0:0:0:0:
392,48,190028,1,2,0:0:0:0:
292,124,190349,1,2,0:0:0:0:
172,88,190670,1,8,0:2:0:0:
68,144,190991,5,2,0:0:0:0:
32,116,191151,1,2,0:0:0:0:
28,84,191312,1,2,0:0:0:0:
40,64,191472,1,2,1:2:0:0:
112,40,191633,6,0,P|140:100|149:165,1,133.349995930481,0|0,1:0|1:2,0:0:0:0:
164,312,192435,1,2,1:2:0:0:
163,311,192595,2,0,P|125:288|81:288,1,88.8999972869874,8|2,0:2|0:0,0:0:0:0:
16,244,193077,2,0,P|5:263|2:285,2,44.4499986434937,2|2|2,0:0|0:0|1:2,0:0:0:0:
92,216,193558,5,2,1:2:0:0:
108,224,193718,1,2,0:0:0:0:
136,228,193879,1,10,0:0:0:0:
172,216,194039,1,2,0:0:0:0:
204,184,194200,1,2,0:0:0:0:
276,164,194360,1,2,1:2:0:0:
351,175,194521,6,0,P|362:193|370:214,1,44.4499986434937,8|8,0:0|0:0,0:0:0:0:
432,268,194841,2,0,P|443:249|451:228,1,44.4499986434937,4|0,3:0|0:0,0:0:0:0:
500,164,195162,2,0,P|500:152|492:132,3,22.2249993217468,4|0|0|0,0:3|0:0|0:0|0:0,0:0:0:0:
488,124,195483,6,0,P|423:134|367:99,1,133.349995930481,0|0,1:0|1:2,0:0:0:0:
244,40,196285,1,2,0:0:0:0:
244,40,196446,2,0,P|284:43|325:13,2,88.8999972869874,8|0|0,1:2|0:0|0:0,0:0:0:0:
172,76,197248,6,0,P|149:78|129:86,1,44.4499986434937,2|0,1:2|1:0,0:0:0:0:
36,168,197729,1,0,0:0:0:0:
160,192,198050,2,0,P|182:189|202:181,1,44.4499986434937,0|2,0:0|1:2,0:0:0:0:
244,112,198371,5,8,0:0:0:0:
352,88,198692,1,2,0:0:0:0:
352,88,198852,1,0,1:0:0:0:
416,136,199012,2,0,P|424:156|427:178,1,44.4499986434937,8|2,0:0|0:0,0:0:0:0:
500,212,199333,6,0,P|448:212|388:264,1,133.349995930481,0|0,1:0|1:0,0:0:0:0:
280,356,200135,1,0,0:0:0:0:
279,355,200296,2,0,P|256:354|236:345,1,44.4499986434937,8|0,0:2|0:0,0:0:0:0:
224,268,200617,6,0,L|272:260,1,44.4499986434937,2|2,0:0|0:0,0:0:0:0:
296,184,200938,2,0,L|248:176,1,44.4499986434937,2|2,0:0|1:2,0:0:0:0:
204,116,201258,5,0,1:0:0:0:
192,104,201419,1,0,0:0:0:0:
184,76,201579,1,2,0:0:0:0:
192,48,201740,1,2,0:0:0:0:
232,20,201900,1,2,0:0:0:0:
304,36,202061,1,2,1:2:0:0:
320,112,202221,1,10,1:2:0:0:
