osu file format v14

[General]
AudioFilename: audio.mp3
AudioLeadIn: 0
PreviewTime: 45323
Countdown: 0
SampleSet: Soft
StackLeniency: 0.7
Mode: 0
LetterboxInBreaks: 0
WidescreenStoryboard: 1

[Editor]
Bookmarks: 17328,128103,149280
DistanceSpacing: 0.6
BeatDivisor: 4
GridSize: 4
TimelineZoom: 2

[Metadata]
Title:Heikousen no Kyoukai
TitleUnicode:平行線の境界
Artist:Metomate
ArtistUnicode:めと
Creator:sorciere
Version:At Crossroads
Source:
Tags:anemone 2020 春M3 spring meto japanese rock めとまて secret messenger
BeatmapID:2680873
BeatmapSetID:1291601

[Difficulty]
HPDrainRate:6
CircleSize:4
OverallDifficulty:8
ApproachRate:9
SliderMultiplier:1.42
SliderTickRate:1

[Events]
//Background and Video events
0,0,"jw.jpg",0,0
//Break Periods
2,82100,88840
2,112902,127503
2,143704,148680
//Storyboard Layer 0 (Background)
//Storyboard Layer 1 (Fail)
//Storyboard Layer 2 (Pass)
//Storyboard Layer 3 (Foreground)
//Storyboard Layer 4 (Overlay)
//Storyboard Sound Samples

[TimingPoints]
1045,320.855614973262,3,2,1,100,1,0
8745,-125,3,2,1,60,0,0
14520,-200,3,2,1,30,0,0
16446,-200,3,3,1,35,0,0
24146,-125,3,2,1,50,0,0
31847,-200,3,3,1,35,0,0
33772,-200,3,3,1,30,0,0
34093,-200,3,3,1,25,0,0
34413,-200,3,3,1,20,0,0
34734,-200,3,3,1,15,0,0
35376,-200,3,3,1,20,0,0
35536,-200,3,3,1,25,0,0
35697,-200,3,3,1,35,0,0
37622,-200,3,3,1,30,0,0
37943,-200,3,3,1,25,0,0
38264,-200,3,3,1,20,0,0
38424,-200,3,3,1,30,0,0
38585,-200,3,3,1,35,0,0
39547,-153.846153846154,3,2,1,50,0,0
45323,-333.333333333333,3,2,1,40,0,0
46285,-200,3,2,1,30,0,0
47248,-100,3,2,1,60,0,1
51098,-100,3,2,2,60,0,1
54948,-100,3,2,1,60,0,1
58799,-100,3,2,2,60,0,1
62649,-100,3,2,1,60,0,0
63611,-83.3333333333333,3,2,1,60,0,0
64574,-125,3,2,1,60,0,0
64895,-100,3,2,1,60,0,0
66499,-100,3,2,1,60,0,1
67462,-83.3333333333333,3,2,1,60,0,1
68424,-100,3,2,1,60,0,1
70349,-125,3,2,2,60,0,1
74200,-200,3,2,1,40,0,0
80938,-200,3,2,1,30,0,0
89601,-125,3,2,1,50,0,0
97301,-200,3,3,1,35,0,0
99226,-200,3,3,1,30,0,0
99547,-200,3,3,1,25,0,0
99868,-200,3,3,1,20,0,0
100189,-200,3,3,1,15,0,0
100831,-200,3,3,1,20,0,0
100991,-200,3,3,1,25,0,0
101151,-153.846153846154,3,3,1,45,0,0
103077,-153.846153846154,3,3,1,30,0,0
103397,-153.846153846154,3,3,1,25,0,0
103718,-153.846153846154,3,3,1,20,0,0
103879,-153.846153846154,3,3,1,30,0,0
104039,-153.846153846154,3,3,1,35,0,0
105002,-153.846153846154,3,2,1,50,0,0
110777,-333.333333333333,3,2,1,40,0,0
111740,-200,3,2,1,50,0,0
112381,-142.857142857143,3,2,1,40,0,0
128103,-333.333333333333,3,3,1,30,0,0
129066,-222.222222222222,3,3,1,30,0,0
130028,-500,3,3,1,30,0,0
130991,-222.222222222222,3,3,1,30,0,0
131954,-333.333333333333,3,3,1,30,0,0
132916,-500,3,3,1,30,0,0
133879,-400,3,3,1,30,0,0
134841,-250,3,3,1,30,0,0
135804,-500,3,3,1,30,0,0
137729,-333.333333333333,3,3,1,30,0,0
138692,-400,3,3,1,30,0,0
139654,-500,3,3,1,30,0,0
140617,-666.666666666667,3,3,1,30,0,0
141579,-333.333333333333,3,3,1,30,0,0
142542,-222.222222222222,3,3,1,30,0,0
149280,-125,3,2,1,45,0,0
156980,-125,3,2,1,60,0,0
157943,-333.333333333333,3,2,1,60,0,0
160831,-100,3,2,1,60,0,1
164681,-100,3,2,2,60,0,1
168531,-100,3,2,1,60,0,1
172381,-100,3,2,2,60,0,1
176232,-100,3,2,1,60,0,0
177194,-83.3333333333333,3,2,1,60,0,0
178157,-125,3,2,1,60,0,0
178478,-100,3,2,1,60,0,0
181044,-83.3333333333333,3,2,1,60,0,1
182007,-100,3,2,1,60,0,1
183932,-83.3333333333333,3,2,1,60,0,1
185857,-100,3,2,1,60,0,1
187462,-76.9230769230769,3,2,1,60,0,1
187782,-200,3,2,1,40,0,0
199975,-125,3,2,1,40,0,0

[Colours]
Combo1 : 213,193,210
Combo2 : 184,155,152
Combo3 : 191,193,213
Combo4 : 188,211,188

[HitObjects]
176,312,8745,6,0,P|119:322|64:334,1,113.6,0|8,1:0|0:0,0:0:0:0:
248,340,9226,1,0,0:0:0:0:
348,332,9387,1,2,0:0:0:0:
252,300,9547,1,0,0:0:0:0:
368,336,9708,6,0,P|396:339|424:345,1,56.8,0|0,1:0|0:0,0:0:0:0:
494,372,10028,2,0,P|466:373|438:379,1,56.8,8|0,0:0|0:0,0:0:0:0:
296,372,10349,1,2,0:0:0:0:
496,336,10510,5,0,0:0:0:0:
496,336,10590,1,0,0:0:0:0:
496,336,10670,2,0,P|444:326|378:308,1,113.6,0|8,1:2|0:0,0:0:0:0:
316,168,11151,2,0,P|371:158|428:153,1,113.6,0|2,0:2|0:0,0:0:0:0:
240,188,11633,5,0,1:0:0:0:
164,168,11793,1,2,1:2:0:0:
240,148,11953,1,10,0:2:0:0:
420,208,12114,5,0,1:0:0:0:
316,168,12274,1,10,2:0:0:0:
428,168,12435,1,2,2:0:0:0:
476,268,12595,6,0,P|488:323|489:379,2,113.6,4|8|0,1:2|0:0|0:0,0:0:0:0:
460,380,13397,1,2,0:0:0:0:
396,284,13558,2,0,P|386:257|381:229,1,56.8,0|0,1:0|0:0,0:0:0:0:
464,204,13879,2,0,P|474:231|479:259,1,56.8,0|2,0:0|0:0,0:0:0:0:
292,372,14200,1,0,1:0:0:0:
264,300,14360,1,0,0:0:0:0:
300,232,14520,6,0,P|315:224|332:219,1,35.5,6|0,0:2|0:0,0:0:0:0:
320,240,14841,2,0,P|337:241|354:245,2,35.5,2|0|2,0:0|0:0|0:0,0:0:0:0:
148,88,15483,5,2,0:0:0:0:
352,148,15804,1,2,0:0:0:0:
228,220,16125,1,2,0:0:0:0:
296,272,16446,5,6,0:2:0:0:
296,272,16606,2,0,P|329:259|364:253,1,71,2|0,0:2|0:0,0:0:0:0:
496,348,17248,1,2,0:2:0:0:
428,304,17408,2,0,P|462:310|495:323,2,71,2|0|0,0:2|0:0|0:0,0:0:0:0:
356,336,18371,1,2,0:2:0:0:
356,336,18852,2,0,B|334:360|303:369|274:368|266:353|278:342|285:341,1,106.5,0|2,0:0|0:2,0:0:0:0:
298,333,19815,2,0,P|281:328|263:328,2,35.5
280,248,20296,6,0,P|227:252|188:286,1,106.5,2|0,0:2|0:0,0:0:0:0:
128,360,20938,2,0,P|123:342|116:326,1,35.5,2|0,0:2|0:0,0:0:0:0:
188,286,21258,2,0,P|184:321|172:354,2,71,2|2|2,0:2|0:2|0:2,0:0:0:0:
224,216,22221,2,0,B|196:236|150:252|110:264|83:266|83:266|71:266|50:264|41:252|41:240|59:222|72:232|72:232|88:244|104:248|124:240,1,284,2|0,0:2|0:0,0:0:0:0:
160,164,23665,2,0,P|180:155|204:140,2,35.5
80,148,24146,6,0,L|60:88,1,56.8,8|0,3:0|0:0,0:0:0:0:
116,36,24467,2,0,L|177:48,1,56.8,8|0,0:0|0:0,0:0:0:0:
284,204,24788,1,2,0:0:0:0:
244,196,24948,1,2,0:0:0:0:
352,168,25109,6,0,L|412:152,1,56.8,4|0,3:0|0:0,0:0:0:0:
464,208,25430,2,0,L|447:267,1,56.8,8|0,0:0|0:0,0:0:0:0:
504,328,25750,1,2,0:0:0:0:
480,200,25911,1,0,1:0:0:0:
484,324,26071,6,0,L|495:379,1,56.8,8|0,3:0|0:0,0:0:0:0:
416,368,26392,1,8,0:0:0:0:
436,192,26553,2,0,L|452:60,1,113.6,4|0,0:0|0:0,0:0:0:0:
492,16,27034,5,4,0:3:0:0:
416,12,27194,1,2,1:2:0:0:
356,68,27355,1,2,0:0:0:0:
320,156,27515,1,0,1:2:0:0:
224,216,27676,1,2,1:2:0:0:
104,196,27836,1,2,3:2:0:0:
104,196,27916,1,0,0:0:0:0:
104,196,27996,6,0,P|87:172|78:145,1,56.8,4|0,3:2|0:0,0:0:0:0:
156,60,28317,2,0,P|130:110|120:166,1,113.6,8|0,0:0|0:0,0:0:0:0:
256,276,28799,1,2,0:0:0:0:
220,208,28959,6,0,P|224:180|248:160,1,56.8,0|0,3:0|0:0,0:0:0:0:
352,176,29280,2,0,P|297:166|252:199,1,113.6,0|0,1:0|0:0,0:0:0:0:
320,324,29761,1,10,0:0:0:0:
320,324,29841,1,0,0:0:0:0:
320,324,29922,6,0,L|384:316,1,56.8,0|0,3:0|0:0,0:0:0:0:
432,376,30242,1,8,0:0:0:0:
412,296,30403,2,0,L|472:304,2,56.8,0|0|0,1:0|0:0|0:0,0:0:0:0:
264,220,30884,6,0,L|248:144,1,56.8,0|0,1:0|0:0,0:0:0:0:
288,96,31205,1,8,0:0:0:0:
288,96,31365,1,8,0:0:0:0:
224,288,31526,1,0,3:0:0:0:
216,300,31847,6,0,B|205:276|169:280|169:280|117:285,1,106.5,6|0,0:2|0:0,0:0:0:0:
260,308,32649,1,2,0:2:0:0:
260,308,32809,2,0,P|221:273|168:280,1,106.5,2|0,0:2|0:0,0:0:0:0:
204,256,33451,2,0,P|186:257|169:263,1,35.5,2|2,0:2|0:2,0:0:0:0:
80,308,33772,5,2,0:2:0:0:
48,336,34093,1,2,0:2:0:0:
36,356,34413,1,2,0:2:0:0:
32,368,34734,1,2,0:2:0:0:
256,296,35216,2,0,P|244:310|239:327,2,35.5
332,276,35697,6,0,B|384:280|384:280|420:282|426:307,1,106.5,2|0,0:2|0:0,0:0:0:0:
426,307,36339,1,0,0:0:0:0:
276,280,36499,5,2,1:2:0:0:
348,248,36659,2,0,P|399:249|435:287,1,106.5,2|0,0:2|0:0,0:0:0:0:
428,248,37301,2,0,P|438:261|445:277,1,35.5,2|2,0:2|0:2,0:0:0:0:
488,348,37622,5,2,0:2:0:0:
468,356,37943,1,2,0:2:0:0:
436,360,38263,1,2,0:2:0:0:
445,278,38424,1,0,1:0:0:0:
364,312,38585,5,2,0:2:0:0:
284,304,38905,1,2,0:2:0:0:
212,340,39226,1,2,0:2:0:0:
188,244,39387,1,0,1:0:0:0:
112,316,39547,6,0,L|96:368,1,46.1499978874208,4|0,1:2|1:0,0:0:0:0:
96,296,39868,2,0,L|80:348,1,46.1499978874208,2|0,0:0|0:0,0:0:0:0:
80,276,40189,2,0,L|64:328,1,46.1499978874208,2|0,0:0|0:0,0:0:0:0:
40,208,40510,6,0,P|30:187|28:164,1,46.1499978874208,0|0,1:0|1:0,0:0:0:0:
184,108,40831,2,0,P|206:110|227:120,1,46.1499978874208,2|0,0:0|0:0,0:0:0:0:
198,282,41151,2,0,P|184:300|165:313,1,46.1499978874208,2|0,0:0|0:0,0:0:0:0:
124,192,41472,6,0,L|172:199,1,46.1499978874208,0|0,1:0|1:0,0:0:0:0:
104,164,41793,2,0,L|152:171,1,46.1499978874208,2|0,0:0|0:0,0:0:0:0:
84,136,42114,2,0,L|132:143,1,46.1499978874208,2|0,0:0|0:0,0:0:0:0:
336,208,42435,5,2,1:2:0:0:
340,204,42595,1,2,1:2:0:0:
344,200,42756,1,2,0:0:0:0:
348,196,42916,1,2,0:0:0:0:
372,124,43077,2,0,P|380:102|383:79,1,46.1499978874208,4|0,0:0|0:0,0:0:0:0:
320,32,43397,6,0,L|260:24,1,46.1499978874208,4|0,1:1|1:0,0:0:0:0:
192,48,43718,2,0,L|237:54,1,46.1499978874208
344,112,44039,2,0,L|298:105,1,46.1499978874208,8|0,0:2|0:0,0:0:0:0:
40,144,44360,5,2,1:2:0:0:
64,128,44520,1,2,1:2:0:0:
104,124,44681,1,2,0:0:0:0:
148,144,44841,1,2,0:0:0:0:
192,204,45002,1,10,0:0:0:0:
268,244,45162,1,2,0:0:0:0:
376,240,45323,6,0,P|420:232|464:216,1,85.1999973999024,4|4,1:2|0:3,0:0:0:0:
468,232,46125,1,8,3:0:0:0:
512,136,46285,6,0,P|441:129|375:104,1,142,4|0,1:0|0:0,0:0:0:0:
375,104,47248,6,0,B|360:120|360:120|356:148|364:168,1,71,4|0,1:2|0:0,0:0:0:0:
472,344,47569,1,8,0:2:0:0:
392,344,47729,1,0,0:0:0:0:
468,320,47889,1,8,0:2:0:0:
396,364,48050,1,0,0:0:0:0:
304,344,48210,6,0,B|286:338|286:338|274:312|275:287,1,71,0|0,1:0|0:0,0:0:0:0:
208,80,48531,1,8,0:2:0:0:
288,128,48692,1,0,0:0:0:0:
232,68,48852,1,8,0:2:0:0:
208,160,49012,1,0,0:0:0:0:
52,136,49173,6,2,B|33:135|17:128|17:128|37:127|50:135,1,71,0|0,1:2|0:0,1:0:0:0:
208,160,49494,1,8,0:0:0:0:
192,236,49654,6,2,B|205:247|214:262|214:262|198:251|192:236,1,71,2|8,0:2|0:0,1:0:0:0:
100,144,49975,1,0,0:0:0:0:
124,116,50135,6,2,B|119:98|121:80|121:80|127:99|124:116,1,71,6|0,1:2|0:0,1:0:0:0:
140,220,50456,1,8,0:0:0:0:
120,224,50617,6,2,B|113:240|101:254|101:254|107:235|120:224,1,71,2|8,0:2|0:0,1:0:0:0:
228,84,50938,1,0,0:0:0:0:
228,84,51018,1,0,0:0:0:0:
228,84,51098,6,0,B|245:88|245:88|264:108|262:137,1,71,4|0,1:1|0:0,0:0:0:0:
224,304,51419,1,8,3:2:0:0:
148,284,51579,1,0,0:0:0:0:
228,280,51740,1,8,3:2:0:0:
144,308,51900,1,0,0:0:0:0:
64,272,52061,6,0,B|51:260|51:260|44:233|61:209,1,71,0|0,1:0|0:0,0:0:0:0:
152,32,52381,1,8,3:2:0:0:
180,52,52542,1,0,0:0:0:0:
240,4,52702,1,8,3:2:0:0:
208,132,52863,1,0,0:0:0:0:
208,132,52943,1,0,0:0:0:0:
208,132,53023,6,2,B|220:151|220:164|220:164|213:153|214:129,1,71,2|0,1:2|0:0,1:0:0:0:
320,88,53344,1,8,0:0:0:0:
297,158,53504,6,2,B|297:181|290:192|290:192|290:179|303:159,1,71,2|8,3:2|0:0,1:0:0:0:
440,200,53825,1,0,0:0:0:0:
354,247,53986,6,2,B|339:263|326:266|326:266|335:256|359:251,1,71,2|0,1:2|0:0,1:0:0:0:
448,368,54307,1,8,0:0:0:0:
320,348,54467,6,2,B|297:348|286:341|286:341|299:341|320:354,1,71,2|8,3:2|0:0,1:0:0:0:
484,296,54788,1,0,0:0:0:0:
484,296,54868,1,0,0:0:0:0:
484,296,54948,6,0,B|494:279|494:279|486:228,1,71,4|0,1:2|0:0,0:0:0:0:
496,84,55269,2,0,B|479:73|479:73|428:81,1,71,8|0,0:2|0:0,0:0:0:0:
284,72,55590,2,0,B|273:88|273:88|281:139,1,71,8|0,0:2|0:0,0:0:0:0:
272,168,55831,1,0,0:0:0:0:
272,168,55911,6,0,B|307:179|307:179|340:172,1,71,0|0,1:0|0:0,0:0:0:0:
280,256,56232,2,0,B|269:291|269:291|276:328,1,71,8|0,0:0|0:0,0:0:0:0:
192,264,56553,2,0,B|157:253|157:253|120:260,1,71,8|0,0:0|0:0,0:0:0:0:
184,176,56873,6,0,B|192:120|192:120|184:100,1,71,0|0,1:0|0:0,0:0:0:0:
12,168,57194,2,0,B|4:224|4:224|12:244,1,71,8|0,2:2|0:0,0:0:0:0:
92,208,57515,2,0,L|104:124,1,71,8|0,2:2|0:0,0:0:0:0:
108,112,57756,1,0,0:0:0:0:
108,112,57836,6,0,L|24:128,1,71,4|0,1:2|0:0,0:0:0:0:
28,212,58157,2,0,L|97:198,1,71,8|0,2:2|0:0,0:0:0:0:
224,132,58478,2,0,L|293:118,1,71,8|0,2:2|0:0,0:0:0:0:
420,52,58799,6,0,P|445:76|457:109,1,71,4|0,1:0|0:0,0:0:0:0:
344,183,59119,2,0,P|367:156|375:122,1,71,10|0,3:2|0:0,0:0:0:0:
242,72,59440,2,0,P|273:88|292:117,1,71,10|0,3:2|0:0,0:0:0:0:
240,268,59761,6,0,P|220:297|189:313,1,71,0|0,1:0|0:0,0:0:0:0:
16,240,60082,2,0,P|49:227|83:232,1,71,10|0,3:2|0:0,0:0:0:0:
140,172,60403,2,0,P|161:199|167:234,1,71,10|0,3:2|0:0,0:0:0:0:
140,248,60643,1,0,0:0:0:0:
140,248,60724,6,0,P|119:221|113:186,1,71,0|0,1:0|0:0,0:0:0:0:
32,208,61044,2,0,P|44:175|71:153,1,71,10|0,3:2|0:0,0:0:0:0:
12,94,61365,2,0,P|46:87|79:100,1,71,10|0,3:2|0:0,0:0:0:0:
96,88,61606,1,0,0:0:0:0:
96,88,61686,6,0,P|93:122|107:154,1,71,0|0,1:2|0:0,0:0:0:0:
180,180,62007,2,0,P|208:199|243:203,1,71,10|0,3:2|0:0,0:0:0:0:
268,180,62328,2,0,P|299:164|320:136,1,71,10|0,3:2|0:0,0:0:0:0:
316,112,62569,1,0,0:0:0:0:
316,112,62649,6,0,B|252:117|252:117|243:114|243:114|175:120,2,142,4|8|0,3:2|0:3|3:0,0:0:0:0:
168,308,63611,6,0,B|244:301|244:301|254:305|254:305|337:298,2,170.399994799805,0|4|0,1:0|3:0|3:0,0:0:0:0:
292,220,64574,6,0,P|251:204|211:195,1,85.2,2|0,1:2|0:0,0:0:0:0:
188,220,64895,6,0,P|258:215|324:190,1,142,2|8,0:2|0:0,0:0:0:0:
308,116,65376,1,0,0:0:0:0:
308,116,65456,1,0,0:0:0:0:
308,116,65536,2,0,P|264:96|232:92,1,71,0|0,1:0|0:0,0:0:0:0:
144,264,65857,2,0,P|180:263|214:253,1,71,8|2,0:2|0:0,0:0:0:0:
244,172,66178,2,0,P|208:172|174:183,1,71,2|0,1:2|0:0,0:0:0:0:
156,172,66419,1,0,0:0:0:0:
156,172,66499,6,8,B|150:240|150:240|153:249|153:249|147:313,2,142,4|8|0,3:2|3:0|3:0,3:0:0:0:
344,92,67301,1,0,0:0:0:0:
344,92,67381,1,0,0:0:0:0:
344,92,67462,6,0,P|384:84|413:113,1,85.1999973999024,0|0,1:2|0:0,1:2:0:0:
484,160,67782,2,0,P|443:167|414:138,1,85.1999973999024,0|0,1:2|0:0,0:0:0:0:
344,92,68103,2,0,P|384:84|413:113,1,85.1999973999024,0|0,1:2|0:0,0:0:0:0:
432,140,68344,1,0,0:0:0:0:
432,140,68424,6,0,B|426:156|426:156|404:173|376:169,1,71,4|0,1:2|0:0,0:0:0:0:
92,152,68745,1,8,0:2:0:0:
172,124,68905,1,0,0:0:0:0:
96,184,69066,1,8,0:2:0:0:
184,212,69226,1,0,0:0:0:0:
184,212,69307,1,0,0:0:0:0:
184,212,69387,6,0,L|200:132,1,71,4|0,1:2|0:0,0:0:0:0:
276,32,69708,1,8,0:2:0:0:
279,56,69868,1,8,1:3:0:0:
292,132,70028,1,8,0:3:0:0:
308,223,70189,1,4,1:3:0:0:
324,324,70349,6,0,L|396:336,2,56.8,4|0|2,1:0|0:0|3:2,0:0:0:0:
232,328,70831,1,0,0:0:0:0:
316,292,70991,1,2,0:0:0:0:
160,268,71151,1,0,0:0:0:0:
160,268,71232,1,0,0:0:0:0:
160,268,71312,6,0,L|88:256,1,56.8,4|0,1:3|0:0,0:0:0:0:
236,292,71633,1,2,3:2:0:0:
316,292,71793,1,0,0:0:0:0:
240,268,71954,2,0,L|211:263,2,28.4,2|0|0,3:2|0:0|0:0,0:0:0:0:
376,346,72274,6,0,L|403:296,1,56.8,4|0,1:2|0:0,0:0:0:0:
316,292,72595,2,0,L|310:235,1,56.8,2|0,3:2|0:0,0:0:0:0:
236,289,72916,2,0,L|198:246,1,56.8,2|0,3:2|0:0,0:0:0:0:
432,216,73237,6,0,P|449:182|450:154,1,56.8,4|0,1:2|0:0,0:0:0:0:
346,159,73558,2,0,P|340:121|325:97,1,56.8,2|0,3:2|0:0,0:0:0:0:
242,160,73879,2,0,P|234:147|223:137,2,28.4,2|0|0,3:2|0:0|0:0,0:0:0:0:
108,272,74200,6,0,P|155:252|168:202,1,106.5,4|0,1:0|0:0,0:0:0:0:
244,208,74841,2,0,P|261:204|277:196,1,35.5,2|0,0:0|0:0,0:0:0:0:
356,216,75162,2,0,P|364:181|387:155,2,71,8|0|0,0:2|0:0|0:0,0:0:0:0:
388,288,75964,1,2,0:0:0:0:
356,216,76125,6,0,P|339:208|323:202,1,35.5,0|0,1:0|0:0,0:0:0:0:
252,116,76446,2,0,P|257:133|260:150,1,35.5,2|0,0:0|0:0,0:0:0:0:
188,64,76766,2,0,P|171:56|155:50,1,35.5,2|0,0:0|1:2,0:0:0:0:
272,16,77087,5,8,0:2:0:0:
240,152,77408,1,2,0:0:0:0:
272,284,77729,5,0,0:3:0:0:
256,360,77889,1,8,0:2:0:0:
180,340,78050,6,0,P|161:309|149:276,1,71,0|0,1:0|0:3,0:0:0:0:
336,232,78531,2,0,P|354:201|366:168,1,71,0|0,1:2|0:0,0:0:0:0:
308,40,79012,5,8,0:0:0:0:
292,24,79173,1,2,0:0:0:0:
252,24,79333,1,2,0:0:0:0:
208,48,79494,1,2,0:0:0:0:
192,104,79654,1,2,0:0:0:0:
212,176,79815,1,2,0:0:0:0:
276,224,79975,6,0,P|303:205|295:172,1,71,0|2,1:0|0:0,0:0:0:0:
212,176,80456,1,2,0:0:0:0:
152,244,80617,1,2,0:0:0:0:
184,340,80777,1,2,0:0:0:0:
292,376,80938,6,0,L|364:364,2,71,8|4|4,3:2|3:0|3:0,0:0:0:0:
380,376,81900,1,4,1:0:0:0:
456,368,89440,5,0,0:0:0:0:
456,368,89520,1,0,0:0:0:0:
456,368,89601,2,0,P|468:340|482:296,1,56.8,8|0,3:0|0:0,0:0:0:0:
420,251,89922,2,0,P|388:252|345:264,1,56.8,8|0,0:2|0:0,0:0:0:0:
192,200,90242,1,2,0:0:0:0:
232,188,90403,1,2,0:0:0:0:
120,172,90563,6,0,P|90:170|52:164,1,56.8,4|0,3:0|0:0,0:0:0:0:
36,88,90884,2,0,P|52:60|76:33,1,56.8,8|0,0:0|0:0,0:0:0:0:
216,68,91205,1,0,1:0:0:0:
144,92,91365,2,0,P|157:94|171:97,1,28.4,2|0,0:0|0:0,0:0:0:0:
272,120,91526,6,0,P|300:116|327:109,1,56.8,8|0,3:0|0:0,0:0:0:0:
504,180,91847,1,0,0:0:0:0:
408,100,92007,2,0,P|436:104|464:112,2,56.8,0|0|0,1:0|0:0|0:0,0:0:0:0:
332,120,92488,6,0,P|304:127|276:131,1,56.8,4|0,0:3|0:0,0:0:0:0:
160,92,92809,1,10,0:0:0:0:
284,120,92970,1,10,0:0:0:0:
168,168,93130,1,2,0:0:0:0:
76,140,93290,1,0,0:0:0:0:
76,140,93371,1,0,0:0:0:0:
76,140,93451,6,0,P|57:109|55:85,1,56.8,4|0,3:2|0:0,0:0:0:0:
116,36,93772,1,8,0:0:0:0:
43,178,93932,2,0,P|25:125|45:73,1,113.6,2|0,0:0|1:0,0:0:0:0:
216,68,94413,6,0,P|235:48|263:49,1,56.8,0|0,3:0|0:0,0:0:0:0:
266,128,94734,1,8,0:0:0:0:
216,20,94895,2,0,P|271:11|319:40,1,113.6,2|0,0:0|1:0,0:0:0:0:
424,140,95376,6,0,P|396:145|369:154,1,56.8,0|0,3:0|0:0,0:0:0:0:
336,264,95697,2,0,P|364:269|391:278,1,56.8,8|0,0:2|0:0,0:0:0:0:
464,224,96018,2,0,P|473:250|479:278,1,56.8,2|0,0:0|0:0,0:0:0:0:
468,360,96339,5,2,1:2:0:0:
392,324,96499,1,2,1:2:0:0:
352,324,96659,1,2,0:0:0:0:
332,332,96820,1,2,1:2:0:0:
300,356,96980,1,2,0:2:0:0:
220,368,97141,1,2,0:0:0:0:
128,332,97301,6,0,P|116:304|104:216,1,106.5,6|0,0:2|0:0,0:0:0:0:
100,320,98103,1,2,0:2:0:0:
100,320,98264,2,0,P|95:267|102:214,1,106.5,2|0,0:2|0:0,0:0:0:0:
88,248,98905,2,0,P|88:230|91:212,1,35.5,2|2,0:2|0:2,0:0:0:0:
156,152,99226,5,2,0:2:0:0:
180,185,99547,1,2,0:2:0:0:
185,207,99867,1,2,0:2:0:0:
186,220,100188,1,2,0:2:0:0:
316,48,100670,2,0,P|310:31|299:17,2,35.5
316,124,101151,6,0,B|311:175|311:175|324:205|324:205|319:259,1,138.449993662262,2|0,0:2|0:0,0:0:0:0:
319,259,101793,1,0,0:0:0:0:
404,148,101954,1,8,0:2:0:0:
328,140,102114,2,0,B|325:175|325:175|335:195|335:195|328:275,1,138.449993662262,2|0,0:2|0:0,0:0:0:0:
344,240,102756,2,0,L|339:285,1,46.1499978874208,2|2,0:2|0:2,0:0:0:0:
268,328,103077,5,2,0:2:0:0:
263,312,103397,1,2,0:2:0:0:
259,297,103718,1,2,0:2:0:0:
292,224,103879,1,0,1:0:0:0:
208,236,104039,5,2,0:2:0:0:
140,148,104360,1,2,0:2:0:0:
168,40,104681,1,2,0:2:0:0:
232,132,104841,1,0,1:0:0:0:
203,212,105002,6,0,L|154:222,1,46.1499978874208,0|0,1:0|1:0,1:0:0:0:
216,228,105323,2,0,L|170:237,1,46.1499978874208,2|0,0:0|0:0,0:0:0:0:
228,244,105643,2,0,L|182:253,1,46.1499978874208,2|0,0:0|0:0,0:0:0:0:
276,308,105964,6,0,P|296:319|318:324,1,46.1499978874208,0|0,1:0|1:0,1:0:0:0:
468,264,106285,2,0,P|467:240|460:219,1,46.1499978874208,2|0,0:0|0:0,0:0:0:0:
333,119,106606,2,0,P|313:130|297:147,1,46.1499978874208,2|0,0:0|0:0,0:0:0:0:
292,172,106847,1,0,0:0:0:0:
292,172,106927,6,0,L|301:232,1,46.1499978874208,0|0,1:0|1:0,1:0:0:0:
264,148,107248,2,0,L|273:208,1,46.1499978874208,2|0,0:0|0:0,0:0:0:0:
236,124,107569,2,0,L|245:184,1,46.1499978874208,2|0,0:0|0:0,0:0:0:0:
344,336,107889,5,2,1:2:0:0:
346,340,108049,1,2,1:2:0:0:
349,345,108210,1,2,0:0:0:0:
352,350,108370,1,2,0:0:0:0:
432,360,108531,2,0,P|452:340|464:312,1,46.1499978874208,4|0,0:0|0:0,0:0:0:0:
404,268,108852,6,0,L|358:260,1,46.1499978874208,4|0,0:1|0:0,0:0:0:0:
284,288,109173,2,0,L|329:295,1,46.1499978874208
432,360,109494,2,0,L|386:352,1,46.1499978874208,8|0,0:2|0:0,0:0:0:0:
224,344,109815,5,2,1:2:0:0:
208,320,109975,1,2,1:2:0:0:
204,280,110136,1,2,0:0:0:0:
224,236,110296,1,2,0:0:0:0:
284,192,110457,1,10,0:0:0:0:
324,116,110617,1,2,0:0:0:0:
296,16,110777,6,0,P|253:18|217:39,1,85.1999973999024,4|0,1:2|0:0,0:0:0:0:
304,204,111740,6,0,P|251:199|201:179,1,106.5,4|0,1:0|0:0,0:0:0:0:
284,104,112381,6,0,P|272:104|260:107,3,24.8499992416382,2|0|0|0,3:2|3:0|3:0|3:0,3:0:0:0:
244,112,112702,1,4,3:2:0:0:
420,48,128103,6,0,P|453:72|454:113,1,85.1999973999024
453,113,129066,2,0,B|421:121|393:105|401:89|381:69|339:67,1,127.799996099854
340,67,130028,2,0,P|312:74|287:87,1,56.8,2|0,0:2|0:0,0:0:0:0:
376,96,130991,2,0,P|320:65|258:56,1,127.799996099854,2|0,0:2|0:0,0:0:0:0:
64,80,131954,6,0,P|46:67|25:65,2,42.5999986999512
64,80,132916,2,0,P|76:109|80:136,1,56.8
76,68,133879,2,0,P|72:103|64:137,1,71,2|0,0:2|0:0,0:0:0:0:
56,48,134841,2,0,P|74:100|84:156,1,113.6,2|0,0:2|0:0,0:0:0:0:
80,344,135804,6,0,P|93:283|151:306,1,142
151,306,137729,2,0,P|157:326|160:347,2,42.5999986999512,0|2|0,0:0|0:2|0:0,0:0:0:0:
151,306,138692,2,0,P|147:323|140:339,2,35.5,0|2|0,0:0|0:2|0:0,0:0:0:0:
116,188,139654,6,0,P|102:193|88:196,2,28.4,0|2|2,0:0|0:2|0:2,0:0:0:0:
116,188,140617,2,0,P|135:179|155:174,1,42.5999986999512
155,174,141579,2,0,P|192:193|234:203,1,85.1999973999024
234,203,142542,5,0,0:0:0:0:
305,179,142863,1,10,0:2:0:0:
349,175,143184,1,2,0:2:0:0:
377,179,143504,1,6,0:2:0:0:
448,212,149280,5,0,0:0:0:0:
328,248,149440,1,8,0:0:0:0:
232,168,149601,5,2,2:0:0:0:
312,172,149761,1,2,2:0:0:0:
240,204,149921,1,2,2:0:0:0:
52,224,150082,5,2,3:2:0:0:
162,205,150243,1,2,3:2:0:0:
72,268,150403,1,2,3:2:0:0:
72,268,150483,1,0,3:0:0:0:
72,268,150563,2,0,P|49:284|28:303,1,56.8,0|0,1:0|0:0,0:0:0:0:
268,276,150884,1,0,1:0:0:0:
250,263,150964,1,0,3:0:0:0:
231,253,151044,1,0,3:0:0:0:
212,248,151125,1,0,3:0:0:0:
192,247,151205,6,0,L|180:304,1,56.8,4|0,1:2|0:0,0:0:0:0:
335,219,151526,2,0,L|390:201,1,56.8,2|0,0:0|0:0,0:0:0:0:
240,109,151847,2,0,L|197:70,1,56.8,2|0,1:2|0:0,0:0:0:0:
151,252,152167,6,0,L|167:306,1,56.8,0|0,1:0|0:0,0:0:0:0:
360,252,152488,2,0,L|398:211,1,56.8,2|0,0:0|0:0,0:0:0:0:
256,71,152809,2,0,L|201:58,1,56.8,2|0,1:2|0:0,0:0:0:0:
192,44,153050,1,0,0:0:0:0:
192,44,153130,6,0,L|252:56,1,56.8,0|0,1:0|0:0,0:0:0:0:
416,210,153451,2,0,L|375:256,1,56.8,2|0,0:0|0:0,0:0:0:0:
159,321,153772,2,0,L|140:263,1,56.8,2|0,1:2|0:0,0:0:0:0:
156,252,154012,1,0,0:0:0:0:
156,252,154093,6,0,L|173:305,1,56.8,0|0,1:0|0:0,0:0:0:0:
352,216,154413,1,10,1:2:0:0:
352,216,154574,1,2,0:0:0:0:
172,132,154734,1,10,1:2:0:0:
172,132,154895,1,2,0:0:0:0:
332,48,155055,2,0,L|315:101,1,56.8,6|0,1:2|0:0,0:0:0:0:
256,324,155376,5,2,1:2:0:0:
160,308,155536,1,2,0:2:0:0:
252,280,155697,1,2,1:2:0:0:
348,296,155857,1,2,0:2:0:0:
252,340,156018,5,2,1:2:0:0:
136,300,156178,1,2,0:2:0:0:
256,268,156339,1,2,1:2:0:0:
372,312,156499,1,2,0:2:0:0:
267,302,156659,6,0,L|240:308,3,28.4,2|0|2|0,0:0|0:0|0:0|0:0,0:0:0:0:
336,248,156980,5,0,1:0:0:0:
182,233,157141,1,2,1:2:0:0:
331,196,157301,1,2,0:2:0:0:
152,156,157462,1,0,1:0:0:0:
375,134,157623,1,2,1:2:0:0:
159,80,157783,1,2,0:2:0:0:
376,32,157943,6,0,P|497:94|440:216,1,298.199990899658,4|0,0:1|0:0,0:0:0:0:
436,228,160510,1,0,3:0:0:0:
432,248,160590,1,0,3:0:0:0:
428,268,160670,1,0,3:0:0:0:
424,288,160750,1,0,3:0:0:0:
420,304,160831,6,0,B|412:300|404:288|404:288|412:264|408:240,1,71,4|0,1:2|0:0,0:0:0:0:
480,60,161151,1,8,0:2:0:0:
380,80,161311,1,0,0:0:0:0:
480,96,161472,1,8,0:2:0:0:
400,44,161632,1,0,0:0:0:0:
292,80,161793,6,0,B|284:84|276:96|276:96|284:120|280:144,1,71,0|0,1:0|0:0,0:0:0:0:
188,344,162114,1,8,2:2:0:0:
288,296,162274,1,0,0:0:0:0:
208,360,162435,1,8,2:2:0:0:
224,256,162595,1,0,0:0:0:0:
100,316,162756,6,2,B|87:332|84:348|84:348|78:332|90:315,1,71,2|0,1:2|0:0,0:1:0:0:
128,212,163077,1,8,0:0:0:0:
80,128,163237,6,2,B|64:115|56:100|56:100|55:117|71:130,1,71,2|8,0:2|0:0,0:1:0:0:
116,216,163558,1,0,0:0:0:0:
80,304,163718,6,2,B|61:312|50:324|50:324|53:307|72:298,1,71,6|0,1:2|0:0,0:1:0:0:
108,216,164039,1,8,0:0:0:0:
60,156,164200,6,2,B|39:152|26:143|26:143|33:159|53:163,1,71,2|8,0:2|0:0,0:1:0:0:
188,272,164520,5,0,0:0:0:0:
188,272,164601,1,0,0:0:0:0:
188,272,164681,2,0,B|196:268|204:256|204:256|196:232|200:208,1,71,4|0,1:0|0:0,0:0:0:0:
332,56,165002,1,10,3:2:0:0:
217,37,165162,1,0,0:0:0:0:
314,30,165323,1,10,3:2:0:0:
206,69,165483,1,0,0:0:0:0:
296,136,165643,6,0,B|304:140|312:152|312:152|304:176|308:200,1,71,0|0,1:2|0:0,0:0:0:0:
368,352,165964,1,10,3:2:0:0:
500,332,166125,1,0,0:0:0:0:
396,348,166285,1,10,3:2:0:0:
492,360,166446,1,0,0:0:0:0:
456,244,166606,6,2,B|459:255|455:278|455:278|463:255|473:247,1,71,2|0,1:2|0:0,0:1:0:0:
444,164,166927,1,8,0:0:0:0:
432,88,167087,6,2,B|422:80|414:57|414:57|418:80|414:93,1,71,2|8,3:2|0:0,0:1:0:0:
400,184,167408,1,0,0:0:0:0:
372,276,167569,6,2,B|375:287|371:310|371:310|379:287|389:279,1,71,2|0,1:2|0:0,0:1:0:0:
360,152,167889,1,8,0:0:0:0:
344,28,168050,6,2,B|334:20|326:-3|326:-3|330:20|326:31,1,71,2|8,3:2|0:0,0:1:0:0:
308,184,168371,1,0,0:0:0:0:
308,184,168451,1,0,0:0:0:0:
308,184,168531,6,0,B|324:192|324:192|376:184,1,71,4|0,1:2|0:0,0:0:0:0:
468,20,168852,2,0,B|452:12|452:12|400:20,1,71,8|0,0:2|0:0,0:0:0:0:
352,96,169173,2,0,L|422:105,1,71,8|0,0:2|0:0,0:0:0:0:
484,244,169494,6,0,B|431:251|431:251|418:263,1,71,0|0,1:0|0:0,0:0:0:0:
184,348,169815,2,0,B|236:340|236:340|249:328,1,71,8|0,0:2|0:0,0:0:0:0:
340,260,170135,2,0,L|328:336,1,71,8|0,0:2|0:0,0:0:0:0:
96,308,170456,6,0,L|84:232,1,71,0|0,1:0|0:0,0:0:0:0:
72,64,170777,2,0,B|108:54|108:54|137:72,1,71,8|0,0:2|0:0,0:0:0:0:
64,140,171098,2,0,B|93:157|93:157|129:148,1,71,8|0,0:2|0:0,0:0:0:0:
308,132,171419,6,0,L|320:52,1,71,4|0,1:2|0:0,0:0:0:0:
224,88,171740,2,0,B|208:120|208:120|214:154,1,71,8|0,0:2|0:0,0:0:0:0:
392,180,172061,2,0,B|408:148|408:148|401:113,1,71,8|0,0:2|0:0,0:0:0:0:
392,88,172301,1,0,0:0:0:0:
392,88,172381,6,0,P|372:116|368:151,1,71,4|0,1:0|0:0,0:0:0:0:
354,341,172702,2,0,P|389:343|421:329,1,71,10|0,3:2|0:0,0:0:0:0:
300,204,173023,2,0,P|315:235|343:256,1,71,10|0,3:2|0:0,0:0:0:0:
444,116,173344,6,0,P|409:113|377:127,1,71,0|0,1:0|0:0,0:0:0:0:
300,204,173665,2,0,P|265:207|233:193,1,71,10|0,3:2|0:0,0:0:0:0:
164,148,173986,2,0,P|129:145|97:159,1,71,10|0,3:2|0:0,0:0:0:0:
72,176,174226,1,0,0:0:0:0:
72,176,174307,6,0,P|106:180|135:200,1,71,0|0,1:0|0:0,0:0:0:0:
84,320,174627,2,0,P|70:287|73:252,1,71,10|0,3:2|0:0,0:0:0:0:
200,244,174948,1,10,3:2:0:0:
190,256,175028,1,0,3:0:0:0:
180,264,175109,1,0,3:0:0:0:
165,272,175189,1,0,3:0:0:0:
152,276,175269,6,0,P|172:252|209:238,1,71,0|0,1:0|0:0,0:0:0:0:
276,200,175590,2,0,P|307:197|342:214,1,71,10|0,3:2|0:0,0:0:0:0:
360,204,175911,2,0,P|384:223|397:261,1,71,10|0,3:2|0:0,0:0:0:0:
412,288,176151,1,0,0:0:0:0:
412,288,176232,6,0,B|417:224|417:224|414:215|414:215|420:147,2,142,4|8|0,3:2|0:3|3:0,0:0:0:0:
228,124,177194,6,0,B|221:200|221:200|225:210|225:210|218:293,2,170.399994799805,0|4|0,1:0|3:0|3:0,0:0:0:0:
304,252,178157,6,0,P|322:213|331:171,1,85.2,2|0,1:2|0:0,0:0:0:0:
304,148,178478,6,0,P|326:213|338:283,1,142,2|8,0:2|0:0,0:0:0:0:
140,344,178959,1,0,0:0:0:0:
140,344,179119,2,0,P|124:308|116:272,1,71,2|0,0:0|0:0,0:0:0:0:
304,256,179440,2,0,P|301:291|292:325,1,71,0|2,1:2|0:0,0:0:0:0:
208,284,179761,2,0,P|210:248|219:214,1,71,2|0,1:2|0:0,0:0:0:0:
236,196,180002,1,0,0:0:0:0:
236,196,180082,6,0,B|230:128|230:128|233:119|233:119|227:55,2,142,4|0|0,3:2|3:0|3:0,0:0:0:0:
120,348,180884,1,0,0:0:0:0:
120,348,180964,1,0,0:0:0:0:
120,348,181044,6,0,P|92:316|102:276,1,85.1999973999024,2|0,1:2|0:0,0:0:0:0:
107,191,181365,2,0,P|132:222|120:261,1,85.1999973999024,2|0,1:2|0:0,0:0:0:0:
120,348,181686,2,0,P|92:316|102:276,1,85.1999973999024,2|0,1:2|0:0,0:0:0:0:
128,284,181927,1,0,0:0:0:0:
128,284,182007,6,0,B|132:291|147:298|147:298|169:286|192:286,1,71,4|0,1:2|0:0,0:0:0:0:
456,296,182328,1,8,0:2:0:0:
360,324,182488,1,0,0:0:0:0:
460,260,182649,1,8,0:2:0:0:
372,224,182809,1,0,0:0:0:0:
372,224,182890,1,0,0:0:0:0:
372,224,182970,6,0,L|446:211,1,71,4|0,1:2|0:0,0:0:0:0:
328,356,183290,2,0,L|258:368,1,71,8|0,0:2|0:0,0:0:0:0:
152,248,183611,1,2,3:2:0:0:
148,228,183692,1,0,3:0:0:0:
152,208,183772,1,0,3:0:0:0:
164,188,183852,1,0,3:0:0:0:
176,176,183932,6,0,B|219:173|219:173|235:163|235:163|284:175|284:175|299:166|299:166|339:162,2,170.399994799805,4|8|0,1:2|3:0|3:0,0:0:0:0:
256,352,184895,6,0,B|289:308|267:266|243:282|229:228|260:193,2,170.399994799805,0|4|0,1:0|3:0|3:0,0:0:0:0:
248,376,185617,1,0,0:0:0:0:
248,376,185697,1,0,0:0:0:0:
152,328,185857,5,4,1:2:0:0:
352,280,186018,1,2,1:2:0:0:
352,280,186178,1,2,0:2:0:0:
184,200,186339,1,0,1:0:0:0:
296,128,186499,1,2,1:2:0:0:
256,64,186659,1,2,0:2:0:0:
256,64,186740,1,0,0:0:0:0:
256,64,186820,6,0,L|249:29,7,35.5,2|0|0|0|2|0|0|0,0:0|0:0|0:0|0:0|0:0|0:0|0:0|0:0,0:0:0:0:
268,140,187462,1,2,3:2:0:0:
264,164,187542,1,0,3:0:0:0:
260,184,187622,1,0,3:0:0:0:
256,204,187702,1,0,3:0:0:0:
252,224,187782,6,0,B|240:252|252:280|260:271|268:296|256:336,1,106.5,4|0,1:0|1:0,0:0:0:0:
258,327,188585,1,2,1:2:0:0:
264,252,188745,2,0,P|263:216|269:181,2,71,8|0|0,0:2|0:0|0:0,0:0:0:0:
252,176,189547,1,2,1:2:0:0:
200,116,189708,6,0,P|184:100|168:88,1,35.5,0|0,1:0|0:0,0:0:0:0:
268,24,190028,2,0,P|262:45|259:65,1,35.5,2|0,0:0|0:0,0:0:0:0:
348,56,190349,2,0,P|364:49|381:45,1,35.5,2|8,0:0|1:2,0:0:0:0:
460,72,190670,5,8,0:2:0:0:
448,88,190991,5,2,0:0:0:0:
368,80,191151,1,2,0:0:0:0:
324,96,191312,1,2,0:0:0:0:
292,92,191472,1,2,1:2:0:0:
224,124,191633,6,0,P|172:128|112:152,1,106.5,0|0,1:0|1:2,0:0:0:0:
121,146,192435,1,2,1:2:0:0:
180,208,192595,2,0,P|197:211|214:215,1,35.5,8|0,0:2|0:0,0:0:0:0:
276,272,192916,5,2,0:0:0:0:
292,288,193077,1,2,0:0:0:0:
324,296,193237,1,2,0:0:0:0:
364,288,193397,1,2,1:2:0:0:
408,304,193558,5,2,1:2:0:0:
344,340,193718,1,2,0:0:0:0:
264,320,193879,1,10,0:0:0:0:
204,248,194039,1,2,0:0:0:0:
192,148,194200,1,2,0:0:0:0:
228,56,194360,1,2,1:2:0:0:
336,4,194520,6,0,L|384:12,1,35.5,8|8,0:0|0:0,0:0:0:0:
444,44,194841,2,0,L|396:52,1,35.5,4|0,3:0|0:0,0:0:0:0:
352,108,195162,2,0,L|384:116,3,17.75,4|0|0|0,0:3|0:0|0:0|0:0,0:0:0:0:
392,128,195483,6,0,P|338:129|286:140,1,106.5,0|0,1:0|1:2,0:0:0:0:
286,140,196285,1,2,0:0:0:0:
220,184,196446,2,0,P|168:195|115:199,1,106.5,8|0,1:2|0:0,0:0:0:0:
115,199,197248,5,2,1:2:0:0:
40,228,197408,2,0,P|17:201|16:166,2,71,0|0|0,1:0|0:0|0:0,0:0:0:0:
92,132,198210,1,2,1:2:0:0:
40,72,198371,6,0,P|35:54|32:37,1,35.5,8|0,0:0|0:0,0:0:0:0:
120,120,198692,2,0,P|128:104|138:89,1,35.5,2|0,0:0|1:0,0:0:0:0:
148,216,199012,1,8,0:0:0:0:
148,216,199173,1,2,0:0:0:0:
224,192,199333,6,0,P|244:208|252:260,1,71,0|0,1:0|0:0,0:0:0:0:
240,356,199815,1,0,1:0:0:0:
232,280,199975,2,0,P|236:223|249:168,1,113.6,0|8,0:0|0:2,0:0:0:0:
248,168,200617,5,2,0:0:0:0:
329,167,200777,1,2,0:0:0:0:
404,185,200938,1,2,0:0:0:0:
326,195,201098,1,2,1:2:0:0:
252,172,201258,2,0,P|240:144|232:112,1,56.8,0|0,1:0|0:0,0:0:0:0:
280,24,201579,5,2,0:0:0:0:
294,46,201740,1,2,0:0:0:0:
312,121,201900,1,2,0:0:0:0:
308,214,202061,1,2,1:2:0:0:
273,317,202221,1,10,1:2:0:0:
