osu file format v14

[General]
AudioFilename: audio.mp3
AudioLeadIn: 0
PreviewTime: 45323
Countdown: 0
SampleSet: Soft
StackLeniency: 0.7
Mode: 0
LetterboxInBreaks: 0
WidescreenStoryboard: 1

[Editor]
Bookmarks: 37301,128103,149280
DistanceSpacing: 1.2
BeatDivisor: 4
GridSize: 4
TimelineZoom: 2

[Metadata]
Title:Heikousen no Kyoukai
TitleUnicode:平行線の境界
Artist:Metomate
ArtistUnicode:めと
Creator:sorciere
Version:Normal
Source:
Tags:anemone 2020 春M3 spring meto japanese rock めとまて secret messenger
BeatmapID:2705365
BeatmapSetID:1291601

[Difficulty]
HPDrainRate:3.5
CircleSize:2.5
OverallDifficulty:4
ApproachRate:5.5
SliderMultiplier:1.07
SliderTickRate:1

[Events]
//Background and Video events
0,0,"jw.jpg",0,0
//Break Periods
2,16446,23021
2,32047,37460
2,82100,88476
2,97501,102914
2,112902,126978
2,143704,148155
2,158143,159385
//Storyboard Layer 0 (Background)
//Storyboard Layer 1 (Fail)
//Storyboard Layer 2 (Pass)
//Storyboard Layer 3 (Foreground)
//Storyboard Layer 4 (Overlay)
//Storyboard Sound Samples

[TimingPoints]
1045,320.855614973262,3,2,1,100,1,0
8745,-100,3,2,1,60,0,0
16446,-100,3,3,1,35,0,0
24146,-100,3,2,1,50,0,0
31847,-100,3,3,1,35,0,0
33772,-100,3,3,1,30,0,0
34093,-100,3,3,1,25,0,0
34413,-100,3,3,1,20,0,0
34734,-100,3,3,1,15,0,0
35376,-100,3,3,1,20,0,0
35536,-100,3,3,1,25,0,0
35697,-100,3,3,1,35,0,0
37622,-100,3,3,1,30,0,0
37943,-100,3,3,1,25,0,0
38264,-100,3,3,1,20,0,0
38424,-100,3,3,1,30,0,0
38585,-100,3,3,1,35,0,0
39547,-100,3,2,1,50,0,0
45323,-100,3,2,1,40,0,0
46285,-100,3,2,1,30,0,0
47248,-100,3,2,1,60,0,1
51098,-100,3,2,2,60,0,1
54948,-100,3,2,1,60,0,1
58799,-100,3,2,2,60,0,1
62649,-100,3,2,1,60,0,0
66499,-100,3,2,1,60,0,1
70349,-100,3,2,2,60,0,1
74200,-100,3,2,1,40,0,0
80938,-100,3,2,1,30,0,0
89601,-100,3,2,1,50,0,0
97301,-100,3,3,1,35,0,0
99226,-100,3,3,1,30,0,0
99547,-100,3,3,1,25,0,0
99868,-100,3,3,1,20,0,0
100189,-100,3,3,1,15,0,0
100831,-100,3,3,1,20,0,0
100991,-100,3,3,1,25,0,0
101151,-100,3,3,1,45,0,0
103077,-100,3,3,1,30,0,0
103397,-100,3,3,1,25,0,0
103718,-100,3,3,1,20,0,0
103879,-100,3,3,1,30,0,0
104039,-100,3,3,1,35,0,0
105002,-100,3,2,1,50,0,0
110777,-100,3,2,1,40,0,0
111740,-100,3,2,1,50,0,0
112381,-100,3,2,1,40,0,0
128103,-111.111111111111,3,3,1,30,0,0
149280,-100,3,2,1,45,0,0
156980,-100,3,2,1,60,0,0
157943,-100,3,2,1,60,0,0
160831,-100,3,2,1,60,0,1
164681,-100,3,2,2,60,0,1
168531,-100,3,2,1,60,0,1
172381,-100,3,2,2,60,0,1
172702,-100,3,2,2,60,0,1
176232,-100,3,2,1,60,0,0
181044,-100,3,2,1,60,0,1
187782,-100,3,2,1,40,0,0

[Colours]
Combo1 : 213,193,210
Combo2 : 184,155,152
Combo3 : 191,193,213
Combo4 : 188,211,188

[HitObjects]
188,368,8745,6,0,P|173:289|186:210,1,160.5,0|0,1:0|0:0,0:0:0:0:
232,168,9387,2,0,L|284:184,1,53.5,2|0,0:0|3:0,0:0:0:0:
332,140,9708,2,0,P|340:87|332:34,2,107,0|8|2,1:0|0:0|0:0,0:0:0:0:
412,240,10670,6,0,P|480:224|496:128,1,160.5,0|2,1:2|0:2,0:0:0:0:
332,56,11633,2,0,P|310:45|288:24,2,53.5,0|2|10,1:0|1:2|0:2,0:0:0:0:
348,116,12114,2,0,P|329:131|312:156,2,53.5,0|10|2,1:0|2:0|2:0,0:0:0:0:
388,64,12595,6,8,P|428:64|453:206,1,214,4|0,1:2|0:0,0:0:0:0:
352,276,13558,2,0,P|327:271|292:260,1,53.5,0|0,1:0|3:0,0:0:0:0:
236,251,13879,2,0,P|209:255|183:263,2,53.5,0|2|0,0:0|0:0|1:0,0:0:0:0:
344,184,14520,1,2,0:0:0:0:
344,184,24146,6,0,L|456:164,2,107,8|8|2,3:0|0:0|0:0,0:0:0:0:
220,148,25109,1,4,3:0:0:0:
172,268,25430,1,8,0:0:0:0:
304,316,25750,1,2,0:0:0:0:
304,316,25911,1,0,1:0:0:0:
304,316,26071,6,0,L|468:279,1,160.5,8|4,3:0|0:0,0:0:0:0:
496,92,27034,2,0,L|517:25,2,53.5,4|2|2,0:3|1:2|0:0,0:0:0:0:
480,152,27515,2,0,L|375:173,1,107,0|2,1:2|3:2,0:0:0:0:
324,212,27996,6,0,L|292:156,1,53.5,4|0,3:2|0:0,0:0:0:0:
264,108,28317,2,0,L|225:289,1,160.5,8|2,0:0|0:0,0:0:0:0:
168,284,28959,6,0,L|136:228,1,53.5,0|0,3:0|0:0,0:0:0:0:
108,180,29280,2,0,L|69:361,1,160.5,0|10,1:0|0:0,0:0:0:0:
132,368,29922,6,0,L|204:350,1,53.5,0|0,3:0|0:0,0:0:0:0:
248,368,30242,2,0,L|320:350,2,53.5,8|0|0,0:0|1:0|0:0,0:0:0:0:
184,256,30884,5,0,1:0:0:0:
267,162,31205,1,8,0:0:0:0:
383,212,31526,1,0,3:0:0:0:
371,337,31847,1,6,0:2:0:0:
371,337,38585,5,2,0:2:0:0:
248,304,38905,1,2,0:2:0:0:
336,208,39226,2,0,L|392:196,1,53.5,2|0,0:2|1:0,0:0:0:0:
440,236,39547,6,8,P|492:146|463:46,1,214,4|2,1:2|0:0,0:0:0:0:
340,76,40510,2,0,P|318:123|326:176,2,107,0|2|2,1:0|0:0|0:0,0:0:0:0:
224,24,41472,2,8,P|171:113|200:213,1,214,0|2,1:0|0:0,0:0:0:0:
300,296,42435,2,0,P|315:327|335:347,1,53.5,2|2,1:2|1:2,0:0:0:0:
356,284,42756,2,0,P|389:285|418:278,1,53.5,2|2,0:0|3:2,0:0:0:0:
380,224,43077,2,0,P|396:200|405:166,1,53.5,4|0,0:0|3:0,0:0:0:0:
340,176,43397,6,0,P|330:121|295:68,1,107,4|0,1:1|0:0,0:0:0:0:
184,32,44039,1,8,0:2:0:0:
204,160,44360,2,0,P|194:185|180:210,1,53.5,2|2,1:2|1:2,0:0:0:0:
120,188,44681,2,0,P|91:194|64:193,1,53.5,2|2,0:0|3:2,0:0:0:0:
52,132,45002,2,0,P|32:111|18:86,1,53.5,10|2,0:0|3:2,0:0:0:0:
44,28,45323,6,0,P|130:12|192:107,1,214,4|4,1:2|0:3,0:0:0:0:
320,107,46285,2,0,P|367:18|468:28,1,214,4|0,1:0|0:0,0:0:0:0:
500,152,47248,6,0,L|471:255,1,107,4|8,1:2|0:2,0:0:0:0:
360,192,47889,1,8,0:2:0:0:
232,212,48210,2,0,L|217:264,1,53.5,0|0,1:0|3:0,0:0:0:0:
156,288,48531,2,0,L|127:178,1,107,8|8,0:2|0:2,0:0:0:0:
96,60,49173,6,2,P|145:47|191:73,1,107,0|8,1:2|0:0,1:0:0:0:
240,114,49654,1,2,0:2:0:0:
272,304,50135,6,2,P|316:330|367:317,1,107,6|8,1:2|0:0,1:0:0:0:
425,290,50617,1,2,0:2:0:0:
492,112,51098,6,0,L|423:98,1,53.5,4|0,1:1|3:0,0:0:0:0:
376,88,51419,1,8,3:2:0:0:
292,188,51740,1,8,3:2:0:0:
168,160,52061,2,0,L|109:148,1,53.5,0|0,1:0|3:0,0:0:0:0:
88,92,52381,2,0,L|198:72,1,107,8|8,3:2|3:2,0:0:0:0:
316,36,53023,6,10,P|355:100|340:141,1,107,10|8,1:2|0:2,0:1:0:0:
300,168,53504,1,2,3:2:0:0:
116,220,53986,6,2,P|110:271|141:312,1,107,2|8,1:2|0:2,0:1:0:0:
200,344,54466,1,2,3:2:0:0:
392,356,54948,6,0,L|499:333,2,107,4|8|8,1:2|0:2|0:2,0:0:0:0:
408,228,55911,2,0,L|515:205,2,107,0|8|8,1:0|0:0|0:0,0:0:0:0:
348,208,56713,1,0,0:0:0:0:
288,188,56873,6,0,L|183:209,2,107,0|8|8,1:0|2:2|2:2,0:0:0:0:
356,180,57676,1,0,0:0:0:0:
356,180,57836,1,4,1:2:0:0:
312,60,58157,2,0,P|261:43|210:55,1,107,8|8,2:2|2:2,0:0:0:0:
120,148,58799,5,4,1:0:0:0:
153,274,59119,1,10,3:2:0:0:
279,307,59440,1,10,3:2:0:0:
372,215,59761,1,0,1:0:0:0:
338,89,60082,1,10,3:2:0:0:
212,55,60403,1,10,3:2:0:0:
129,153,60724,5,0,1:0:0:0:
160,269,61044,1,10,3:2:0:0:
275,298,61365,1,10,3:2:0:0:
360,215,61686,1,0,1:2:0:0:
328,100,62007,1,10,3:2:0:0:
214,69,62328,1,10,3:2:0:0:
128,152,62649,6,0,P|85:143|32:100,2,107,4|8|0,3:2|0:3|3:0,0:0:0:0:
152,280,63611,2,0,P|113:299|76:356,2,107,0|4|0,1:0|3:0|3:0,0:0:0:0:
248,196,64574,1,2,1:2:0:0:
364,252,64895,2,0,P|459:91|284:92,1,428,2|2,0:2|1:2,0:0:0:0:
176,140,66499,6,0,L|64:132,2,107,4|8|0,3:2|3:0|3:0,0:0:0:0:
300,176,67462,2,0,L|318:227,1,53.5,0|0,1:2|3:0,0:0:0:0:
380,232,67782,2,0,L|342:274,1,53.5,0|0,1:2|3:0,0:0:0:0:
360,336,68103,2,0,L|304:324,1,53.5,0|0,1:2|3:0,0:0:0:0:
252,356,68424,5,4,1:2:0:0:
144,284,68745,1,8,0:2:0:0:
188,164,69066,1,8,0:2:0:0:
292,240,69387,2,0,P|385:288|490:278,1,214,4|0,1:2|0:0,0:0:0:0:
504,148,70349,6,0,P|423:84|327:118,1,214,4|2,1:0|0:0,0:0:0:0:
204,76,71312,2,0,P|106:43|27:108,1,214,4|2,1:3|3:2,0:0:0:0:
16,236,72274,5,4,1:2:0:0:
100,332,72595,1,2,3:2:0:0:
216,272,72916,1,2,3:2:0:0:
324,340,73237,2,0,P|384:352|500:268,1,214,4|2,1:2|3:2,0:0:0:0:
420,168,74200,6,0,P|429:89|452:12,2,160.5,4|0|8,1:0|0:0|0:2,0:0:0:0:
116,248,75964,1,2,0:0:0:0:
116,248,76125,2,0,P|102:299|96:352,2,107,0|2|2,1:0|0:0|0:0,0:0:0:0:
92,120,77087,2,0,P|61:75|38:27,2,107,8|2|0,0:2|0:0|0:3,0:0:0:0:
212,164,78050,6,0,P|277:157|364:100,2,160.5,0|0|8,1:0|1:2|0:0,0:0:0:0:
96,216,79333,2,8,P|80:237|72:263,1,53.5,2|2,0:0|3:2,0:0:0:0:
124,300,79654,2,8,P|135:324|153:343,1,53.5,2|2,0:0|3:2,0:0:0:0:
216,328,79975,2,8,P|269:328|318:309,1,107,0|0,1:0|0:0,0:0:0:0:
380,296,80456,2,0,L|407:342,2,53.5,2|0|0,0:0|0:0|0:0,0:0:0:0:
396,232,80938,6,0,L|508:245,2,107,8|4|4,3:2|3:0|3:0,0:0:0:0:
292,156,81900,1,4,1:0:0:0:
292,156,89601,6,0,L|398:168,2,107,8|8|2,3:0|0:2|0:0,0:0:0:0:
164,180,90563,1,4,3:0:0:0:
184,308,90884,1,8,0:0:0:0:
320,300,91205,1,0,1:0:0:0:
320,300,91365,1,2,0:0:0:0:
320,300,91526,6,0,L|504:321,1,160.5,8|0,3:0|1:0,0:0:0:0:
452,128,92488,2,0,L|394:118,1,53.5,4|0,0:3|3:0,0:0:0:0:
344,152,92809,2,0,L|286:142,1,53.5,10|10,0:0|3:2,0:0:0:0:
240,104,93130,1,2,0:0:0:0:
120,144,93451,6,0,L|67:150,1,53.5,4|0,3:2|0:0,0:0:0:0:
23,200,93772,2,0,L|193:227,1,160.5,8|0,0:0|1:0,0:0:0:0:
220,276,94413,6,0,L|167:282,1,53.5,0|0,3:0|0:0,0:0:0:0:
123,332,94734,2,0,L|292:359,1,160.5,8|0,0:0|1:0,0:0:0:0:
344,364,95376,5,0,3:0:0:0:
436,276,95697,2,0,L|416:158,1,107,8|2,0:2|0:0,0:0:0:0:
324,80,96339,6,0,L|267:67,1,53.5,2|2,1:2|1:2,0:0:0:0:
287,131,96659,2,0,L|248:172,1,53.5,2|2,0:0|1:2,0:0:0:0:
315,187,96980,2,0,L|332:238,1,53.5,2|2,0:2|3:2,0:0:0:0:
383,199,97301,1,6,0:2:0:0:
383,199,104039,5,2,0:2:0:0:
482,119,104360,1,2,0:2:0:0:
366,67,104681,2,0,L|313:74,1,53.5,2|0,0:2|1:0,0:0:0:0:
252,52,105002,6,8,P|201:142|232:242,1,214,0|2,1:0|0:0,0:0:0:0:
340,312,105964,2,0,P|362:265|354:212,2,107,0|2|2,1:0|0:0|0:0,0:0:0:0:
456,364,106927,2,8,P|507:274|476:174,1,214,0|2,1:0|0:0,0:0:0:0:
376,92,107889,2,0,P|348:81|320:80,1,53.5,2|2,1:2|1:2,0:0:0:0:
300,20,108210,2,0,P|277:38|262:61,1,53.5,2|2,0:0|3:2,0:0:0:0:
200,48,108531,2,0,P|203:75|216:99,1,53.5,4|0,0:0|3:0,0:0:0:0:
200,160,108852,6,0,P|253:161|300:137,1,107,4|0,0:1|0:0,0:0:0:0:
408,64,109494,1,8,0:2:0:0:
452,184,109815,2,0,P|445:210|434:234,1,53.5,2|2,1:2|1:2,0:0:0:0:
436,300,110135,2,0,P|409:307|381:310,1,53.5,2|2,0:0|3:2,0:0:0:0:
327,344,110456,2,0,P|307:324|290:301,1,53.5,10|2,0:0|3:2,0:0:0:0:
236,272,110777,6,0,P|258:169|360:146,1,214,4|0,1:2|0:0,0:0:0:0:
420,36,111740,2,0,P|498:106|467:206,1,214,4|2,1:0|3:2,0:0:0:0:
360,264,112702,1,4,0:0:0:0:
359,263,128103,6,0,P|264:271|173:241,1,192.599994122315
80,172,129066,2,0,P|149:111|236:140,1,192.599994122315,0|0,0:0|0:0,0:0:0:0:
330,210,130028,2,0,P|260:270|173:241,1,192.599994122315,2|0,0:2|0:0,0:0:0:0:
236,140,130991,2,0,P|305:79|392:108,1,192.599994122315,2|0,0:2|0:0,0:0:0:0:
448,212,131954,6,0,P|404:233|358:243,2,96.2999970611573,0|0|0,0:0|0:0|0:0,0:0:0:0:
512,116,132916,2,0,P|422:82|326:82,1,192.599994122315,0|0,0:0|0:0,0:0:0:0:
212,56,133879,2,0,P|112:66|96:156,1,192.599994122315,2|0,0:2|0:0,0:0:0:0:
48,252,134841,2,0,P|106:333|192:302,1,192.599994122315,2|0,0:2|0:0,0:0:0:0:
236,208,135804,2,0,P|378:198|509:255,1,288.899991183472
304,360,137408,5,0,0:0:0:0:
208,300,137729,2,0,P|161:288|113:287,2,96.2999970611573,0|2|0,0:0|0:2|0:0,0:0:0:0:
308,240,138692,2,0,P|354:228|402:227,2,96.2999970611573,0|2|0,0:0|0:2|0:0,0:0:0:0:
208,184,139654,6,0,P|161:172|113:171,1,96.2999970611573,2|0,0:2|0:2,0:0:0:0:
20,244,140296,1,2,0:2:0:0:
60,352,140617,2,0,P|202:361|333:304,1,288.899991183472
80,68,142542,5,0,0:0:0:0:
160,148,142863,2,0,P|205:163|253:165,2,96.2999970611573,10|2|6,0:2|0:2|0:2,0:0:0:0:
160,148,149280,6,0,L|89:137,1,53.5,0|8,0:0|0:0,0:0:0:0:
64,92,149601,2,0,L|294:56,1,214,2|2,2:0|3:2,0:0:0:0:
396,20,150563,1,0,1:0:0:0:
496,104,150884,1,0,1:0:0:0:
372,144,151205,6,0,P|351:194|351:251,2,107,4|2|2,1:2|0:0|0:0,0:0:0:0:
476,220,152167,2,0,P|477:275|455:327,1,107,0|2,1:0|0:0,0:0:0:0:
340,360,152809,1,2,0:0:0:0:
340,360,152970,1,0,0:0:0:0:
340,360,153130,6,0,P|284:365|225:345,2,107,0|2|2,1:0|0:0|0:0,0:0:0:0:
460,308,154092,1,0,1:0:0:0:
449,178,154413,1,10,1:2:0:0:
321,149,154734,1,10,1:2:0:0:
254,260,155055,1,6,1:2:0:0:
440,304,155536,6,0,L|491:292,2,53.5,2|2|2,0:2|1:2|0:2,0:0:0:0:
380,280,156018,2,0,P|361:224|337:173,1,107,2|2,1:2|1:2,0:0:0:0:
280,200,156499,2,0,P|261:254|237:305,1,107,2|2,0:2|0:0,0:0:0:0:
180,316,156980,6,0,P|170:287|165:244,1,53.5,0|2,1:0|1:2,0:0:0:0:
184,204,157301,2,0,P|157:193|129:188,1,53.5,2|0,0:2|1:0,0:0:0:0:
168,136,157622,2,0,P|164:109|154:85,1,53.5,2|2,1:2|3:2,0:0:0:0:
140,24,157943,1,4,0:1:0:0:
140,24,160510,5,0,3:0:0:0:
68,132,160831,6,0,P|76:196|88:244,1,107,4|8,1:2|0:2,0:0:0:0:
200,176,161472,1,8,0:2:0:0:
324,204,161793,2,0,P|328:232|340:280,1,53.5,0|0,1:0|3:0,0:0:0:0:
392,284,162114,2,0,P|408:248|420:176,1,107,8|8,2:2|2:2,0:0:0:0:
440,56,162756,6,2,P|396:84|340:80,1,107,2|8,1:2|0:2,0:1:0:0:
280,60,163237,1,2,0:0:0:0:
212,240,163718,6,2,P|159:237|114:265,1,107,6|8,1:2|0:2,0:1:0:0:
72,312,164199,1,2,0:0:0:0:
12,128,164681,6,0,P|24:124|68:116,1,53.5,4|0,1:0|3:0,0:0:0:0:
128,108,165002,1,10,3:2:0:0:
228,188,165323,1,10,3:2:0:0:
336,120,165643,2,0,P|348:116|392:108,1,53.5,0|0,1:2|3:0,0:0:0:0:
424,56,165964,2,0,P|374:37|321:28,1,107,10|10,3:2|3:2,0:0:0:0:
192,24,166606,6,2,P|166:98|181:138,1,107,2|8,1:2|0:0,0:1:0:0:
223,163,167087,1,2,3:2:0:0:
400,240,167569,6,2,P|405:292|380:339,1,107,2|8,1:2|0:0,0:1:0:0:
320,366,168050,1,2,3:2:0:0:
136,308,168531,6,0,P|82:313|30:324,2,107,4|8|8,1:2|0:2|0:2,0:0:0:0:
156,180,169494,2,0,P|102:185|50:196,2,107,0|8|8,1:0|0:2|0:2,0:0:0:0:
212,144,170296,1,0,0:0:0:0:
268,112,170456,2,0,P|321:106|373:95,2,107,0|8|8,1:0|0:2|0:2,0:0:0:0:
208,104,171258,1,0,0:0:0:0:
208,104,171419,1,4,1:2:0:0:
88,152,171740,2,0,P|76:203|95:252,1,107,8|8,0:2|0:2,0:0:0:0:
216,292,172381,5,4,1:0:0:0:
342,259,172701,1,10,3:2:0:0:
375,133,173022,1,10,3:2:0:0:
283,40,173343,1,0,1:0:0:0:
157,74,173664,1,10,3:2:0:0:
119,200,173985,1,10,3:2:0:0:
222,280,174306,5,0,1:0:0:0:
336,250,174627,1,10,3:2:0:0:
365,137,174947,1,10,3:2:0:0:
284,53,175268,1,0,1:0:0:0:
170,84,175589,1,10,3:2:0:0:
140,197,175910,1,10,3:2:0:0:
222,280,176232,6,0,P|272:290|311:327,2,107,4|8|0,3:2|0:3|3:0,0:0:0:0:
240,152,177194,2,0,P|292:153|339:128,2,107,0|4|0,1:0|3:0|3:0,0:0:0:0:
120,200,178157,1,2,1:2:0:0:
171,316,178478,2,0,P|347:293|240:152,1,428,2|2,0:2|1:2,0:0:0:0:
112,184,180082,6,0,P|112:130|129:80,2,107,8|0|0,3:0|3:0|3:0,0:0:0:0:
180,292,181044,2,0,P|207:301|234:307,1,53.5,2|0,1:2|3:0,0:0:0:0:
284,344,181365,2,0,P|306:325|325:305,1,53.5,2|0,1:2|3:0,0:0:0:0:
384,288,181686,2,0,P|380:259|372:232,1,53.5,2|0,1:2|3:0,0:0:0:0:
412,184,182007,6,0,P|405:131|380:84,1,107,4|8,1:2|0:2,0:0:0:0:
264,28,182649,1,8,0:2:0:0:
140,64,182970,2,0,P|96:137|108:264,1,214,4|2,1:2|3:2,0:0:0:0:
204,344,183932,5,4,1:2:0:0:
326,299,184253,1,8,3:0:0:0:
228,216,184574,1,0,3:0:0:0:
106,261,184895,2,0,P|53:270|8:298,2,107,0|4|0,1:0|3:0|3:0,0:0:0:0:
212,332,185857,6,0,P|248:354|316:344,1,107,4|2,1:2|0:2,0:0:0:0:
420,284,186499,1,2,1:2:0:0:
396,160,186820,2,0,P|306:106|207:137,1,214,2|2,1:2|3:2,0:0:0:0:
160,256,187782,6,0,L|1:281,2,160.5,4|0|8,1:0|1:0|0:2,0:0:0:0:
404,44,189547,1,2,1:2:0:0:
404,44,189708,2,0,L|298:61,2,107,0|2|2,1:0|0:0|0:0,0:0:0:0:
500,128,190670,1,8,0:2:0:0:
380,176,190991,2,0,L|364:233,1,53.5,2|2,0:0|3:2,0:0:0:0:
300,224,191312,2,0,L|329:274,1,53.5,2|2,0:0|1:2,0:0:0:0:
284,320,191633,6,0,L|451:347,2,160.5,0|0|8,1:0|1:2|0:2,0:0:0:0:
252,196,192916,2,0,L|306:186,1,53.5,2|2,0:0|3:2,0:0:0:0:
368,204,193237,2,0,L|422:195,1,53.5,2|2,0:0|1:2,0:0:0:0:
480,216,193558,1,2,1:2:0:0:
484,88,193879,2,0,L|378:103,1,107,10|2,0:0|0:0,0:0:0:0:
252,92,194520,6,0,L|236:33,1,53.5,8|8,0:0|0:0,0:0:0:0:
188,80,194841,2,0,L|129:65,1,53.5,4|0,3:0|3:0,0:0:0:0:
152,128,195162,2,0,L|109:171,1,53.5,4|0,0:3|3:0,0:0:0:0:
176,180,195483,6,0,L|160:356,2,160.5,0|0|8,1:0|1:2|1:2,0:0:0:0:
496,116,197248,1,2,1:2:0:0:
496,116,197408,2,0,L|505:9,2,107,0|0|0,1:0|0:0|0:0,0:0:0:0:
488,184,198210,1,2,1:2:0:0:
488,184,198371,1,8,0:0:0:0:
384,112,198692,1,2,0:0:0:0:
264,160,199012,1,8,0:0:0:0:
136,136,199333,6,0,P|110:89|110:36,2,107,0|0|0,1:0|0:0|0:0,0:0:0:0:
264,160,200296,2,0,P|306:234|296:360,1,214,8|2,0:2|0:0,0:0:0:0:
172,320,201258,2,0,P|144:329|117:330,1,53.5,0|0,1:0|3:0,0:0:0:0:
100,268,201579,2,0,P|77:249|62:226,1,53.5,2|2,0:0|3:2,0:0:0:0:
104,180,201900,2,0,P|110:122|132:72,1,107,2|10,0:0|1:2,0:0:0:0:
