osu file format v14

[General]
AudioFilename: audio.mp3
AudioLeadIn: 0
PreviewTime: -1
Countdown: 0
SampleSet: Soft
StackLeniency: 0.7
Mode: 0
LetterboxInBreaks: 0
WidescreenStoryboard: 1

[Editor]
DistanceSpacing: 1.1
BeatDivisor: 4
GridSize: 8
TimelineZoom: 2.7

[Metadata]
Title:not out
TitleUnicode:not out
Artist:metadata
ArtistUnicode:metadata
Creator:hot anime girl
Version:Normal
Source:君とつながる恋フラグ
Tags:maffe eroge opening Kimi to Tsunagaru Koi Flag oriental syncopation
BeatmapID:1534843
BeatmapSetID:726443

[Difficulty]
HPDrainRate:3
CircleSize:3
OverallDifficulty:4
ApproachRate:4
SliderMultiplier:0.9
SliderTickRate:1

[Events]
//Background and Video events
0,0,"erogeorie.png",0,0
//Break Periods
//Storyboard Layer 0 (Background)
//Storyboard Layer 1 (Fail)
//Storyboard Layer 2 (Pass)
//Storyboard Layer 3 (Foreground)
//Storyboard Sound Samples

[TimingPoints]
850,326.086956521739,4,2,1,60,1,0
950,-111.111111111111,4,2,1,60,0,0
12589,-100,4,2,1,60,0,0
23023,-111.111111111111,4,2,1,60,0,0
49110,-100,4,2,1,60,0,0

[Colours]
Combo1 : 255,255,74
Combo2 : 74,255,255
Combo3 : 255,74,74
Combo4 : 74,255,74

[HitObjects]
180,144,2154,6,0,P|247:109|334:139,1,161.999995056153
405,239,3295,2,0,B|422:297|422:297|387:365,1,121.499996292114
305,364,4110,1,0,0:0:0:0:
231,313,4436,1,0,0:0:0:0:
149,349,4763,22,0,L|130:178,1,161.999995056153
191,68,5904,2,0,B|251:54|251:54|323:84,1,121.499996292114
349,155,6719,1,0,0:0:0:0:
321,239,7045,1,0,0:0:0:0:
355,321,7371,6,0,L|439:338,1,80.9999975280763
498,274,8023,1,0,0:0:0:0:
470,189,8349,1,0,0:0:0:0:
500,104,8676,6,0,L|419:89,1,80.9999975280763
358,152,9328,2,0,L|277:167,1,80.9999975280763
236,88,9980,6,0,P|155:102|88:53,1,161.999995056153
76,17,10795,1,0,0:0:0:0:
5,71,11121,6,0,L|38:277,1,202.499993820191
120,302,12263,1,0,0:0:0:0:
172,218,12589,6,0,P|242:217|298:274,1,135
295,305,13241,2,0,P|333:287|389:285,1,99.0000030212403
456,225,13893,6,0,L|433:83,1,135
399,57,14545,2,0,L|303:48,1,90
232,111,15197,6,0,P|191:129|145:128,1,90
90,210,15849,2,0,P|131:228|177:227,1,90
270,199,16502,6,0,P|311:181|357:182,1,90
437,237,17154,2,0,L|428:327,1,90
436,375,17643,1,0,0:0:0:0:
390,355,17806,6,0,L|297:362,1,90
234,288,18458,2,0,L|141:281,1,90
68,217,19110,6,0,P|60:168|67:125,1,90
155,84,19763,2,0,P|163:133|156:176,1,90
205,259,20415,6,0,P|272:249|334:281,1,135
361,316,21067,2,0,L|373:252,1,45
404,237,21393,1,0,0:0:0:0:
367,144,21719,6,0,L|274:148,1,90
183,115,22371,1,0,0:0:0:0:
200,17,22697,1,0,0:0:0:0:
107,50,23023,6,0,P|90:88|91:142,1,80.9999975280763
142,197,23676,2,0,P|159:235|159:291,1,80.9999975280763
152,317,24165,1,0,0:0:0:0:
227,364,24491,5,0,0:0:0:0:
256,330,24654,2,0,L|348:323,1,80.9999975280763
408,270,25306,1,0,0:0:0:0:
387,230,25469,6,0,L|395:138,1,80.9999975280763
422,114,25958,1,0,0:0:0:0:
344,70,26284,2,0,B|288:77|288:77|258:61,1,80.9999975280763
244,26,26773,1,0,0:0:0:0:
185,93,27099,5,0,0:0:0:0:
154,126,27263,2,0,L|54:132,1,80.9999975280763
16,197,27915,1,0,0:0:0:0:
35,236,28078,6,0,P|79:232|121:259,1,80.9999975280763
130,288,28567,2,0,P|158:254|207:243,1,80.9999975280763
281,243,29219,1,0,0:0:0:0:
316,270,29382,6,0,L|322:179,1,80.9999975280763
355,160,29871,2,0,L|349:69,1,80.9999975280763
295,8,30523,1,0,0:0:0:0:
259,89,30849,6,0,P|219:88|179:102,1,80.9999975280763
154,137,31339,1,0,0:0:0:0:
99,66,31665,1,0,0:0:0:0:
55,143,31991,6,0,B|75:202|75:202|55:264,1,121.499996292114
20,339,32806,1,0,0:0:0:0:
99,380,33132,1,0,0:0:0:0:
143,303,33458,6,0,L|276:287,1,121.499996292114
304,306,34110,2,0,L|313:223,1,80.9999975280763
388,178,34763,6,0,L|373:49,1,121.499996292114
338,30,35415,2,0,L|211:55,1,121.499996292114
187,84,36067,6,0,L|60:59,1,121.499996292114
33,32,36719,2,0,P|41:74|31:124,1,80.9999975280763
78,189,37371,6,0,P|120:181|170:191,1,80.9999975280763
209,258,38023,2,0,P|247:239|298:236,1,80.9999975280763
324,255,38513,6,0,L|331:165,1,80.9999975280763
312,133,39002,1,0,0:0:0:0:
388,87,39328,2,0,L|471:110,1,80.9999975280763
507,91,39817,6,0,P|493:139|495:180,1,80.9999975280763
511,210,40306,1,0,0:0:0:0:
470,289,40632,2,0,L|386:297,1,80.9999975280763
318,350,41284,5,0,0:0:0:0:
254,287,41610,2,0,L|266:192,2,80.9999975280763
182,339,42589,6,0,P|142:325|96:327,1,80.9999975280763
26,369,43241,1,0,0:0:0:0:
1,283,43567,1,0,0:0:0:0:
78,238,43893,6,0,L|66:106,1,121.499996292114
92,80,44545,2,0,L|180:95,1,80.9999975280763
254,60,45197,5,0,0:0:0:0:
241,148,45523,1,0,0:0:0:0:
265,233,45849,2,0,B|268:261|260:290|260:290|245:295|231:290,1,80.9999975280763
150,313,46502,6,0,P|145:248|114:197,1,121.499996292114
122,156,47154,2,0,P|80:166|43:162,1,80.9999975280763
0,83,47806,5,0,0:0:0:0:
37,2,48132,1,0,0:0:0:0:
109,53,48458,2,0,L|200:62,1,80.9999975280763
229,41,48947,1,0,0:0:0:0:
273,78,49110,6,0,L|252:183,1,90
283,280,49763,1,0,0:0:0:0:
183,340,50089,1,0,0:0:0:0:
97,260,50415,6,0,P|90:211|101:161,1,90
146,65,51067,1,0,0:0:0:0:
262,60,51393,1,0,0:0:0:0:
342,144,51719,6,0,L|445:157,1,90
482,260,52371,1,0,0:0:0:0:
482,260,52534,1,0,0:0:0:0:
399,343,52860,6,0,B|311:375|250:357|250:357|224:325|226:280,1,225
246,174,54002,1,0,0:0:0:0:
