osu file format v14

[General]
AudioFilename: audio.mp3
AudioLeadIn: 0
PreviewTime: -1
Countdown: 0
SampleSet: Soft
StackLeniency: 0.7
Mode: 0
LetterboxInBreaks: 0
WidescreenStoryboard: 0

[Editor]
DistanceSpacing: 1.3
BeatDivisor: 4
GridSize: 8
TimelineZoom: 2.7

[Metadata]
Title:not out
TitleUnicode:not out
Artist:metadata
ArtistUnicode:metadata
Creator:hot anime girl
Version:Another
Source:君とつながる恋フラグ
Tags:maffe eroge opening Kimi to Tsunagaru Koi Flag oriental syncopation
BeatmapID:1533691
BeatmapSetID:726443

[Difficulty]
HPDrainRate:6
CircleSize:4.1
OverallDifficulty:8.7
ApproachRate:8.8
SliderMultiplier:1.3
SliderTickRate:2

[Events]
//Background and Video events
0,0,"erogeorie.png",0,0
//Break Periods
//Storyboard Layer 0 (Background)
//Storyboard Layer 1 (Fail)
//Storyboard Layer 2 (Pass)
//Storyboard Layer 3 (Foreground)
//Storyboard Sound Samples

[TimingPoints]
850,326.086956521739,4,2,1,30,1,0
1502,-100,4,2,1,30,0,0
2154,-200,4,2,1,60,0,0
3295,-142.857142857143,4,2,1,60,0,0
4436,-142.857142857143,4,2,2,60,0,0
4599,-142.857142857143,4,2,1,60,0,0
4763,-200,4,2,1,60,0,0
5904,-142.857142857143,4,2,1,60,0,0
7045,-111.111111111111,4,2,2,60,0,0
7290,-200,4,2,1,5,0,0
7371,-66.6666666666667,4,2,1,40,0,0
7697,-66.6666666666667,4,2,1,50,0,0
8023,-66.6666666666667,4,2,1,60,0,0
8676,-111.111111111111,4,2,1,70,0,0
8920,-111.111111111111,4,2,1,5,0,0
9002,-111.111111111111,4,2,1,70,0,0
9572,-111.111111111111,4,2,1,5,0,0
9654,-111.111111111111,4,2,2,70,0,0
9898,-111.111111111111,4,2,1,5,0,0
9980,-111.111111111111,4,2,1,60,0,0
10143,-200,4,2,1,60,0,0
10632,-111.111111111111,4,2,1,60,0,0
11121,-142.857142857143,4,2,1,60,0,0
12263,-66.6666666666667,4,2,2,60,0,0
12589,-76.9230769230769,4,2,1,70,0,0
17154,-111.111111111111,4,2,1,70,0,0
17398,-111.111111111111,4,2,1,5,0,0
17480,-90.9090909090909,4,2,2,70,0,0
17561,-90.9090909090909,4,2,1,70,0,0
21719,-58.8235294117647,4,2,1,70,0,0
22045,-76.9230769230769,4,2,1,70,0,0
22371,-90.9090909090909,4,2,1,70,0,0
22697,-58.8235294117647,4,2,2,70,0,0
22779,-58.8235294117647,4,2,2,5,0,0
23023,-90.9090909090909,4,2,1,50,0,0
24817,-200,4,2,1,50,0,0
24980,-90.9090909090909,4,2,1,50,0,0
27018,-90.9090909090909,4,2,1,5,0,0
27099,-90.9090909090909,4,2,1,50,0,0
27426,-200,4,2,1,50,0,0
28078,-90.9090909090909,4,2,1,50,0,0
30523,-111.111111111111,4,2,1,50,0,0
30768,-111.111111111111,4,2,1,5,0,0
30849,-76.9230769230769,4,2,1,70,0,0
31991,-90.9090909090909,4,2,1,70,0,0
32235,-90.9090909090909,4,2,1,5,0,0
32317,-200,4,2,1,70,0,0
32969,-76.9230769230769,4,2,1,70,0,0
33458,-111.111111111111,4,2,1,50,0,0
33703,-111.111111111111,4,2,1,5,0,0
33784,-111.111111111111,4,2,1,50,0,0
35007,-111.111111111111,4,2,1,5,0,0
35089,-111.111111111111,4,2,1,50,0,0
35659,-111.111111111111,4,2,1,5,0,0
35741,-111.111111111111,4,2,1,50,0,0
36311,-111.111111111111,4,2,1,5,0,0
36393,-111.111111111111,4,2,1,50,0,0
37616,-111.111111111111,4,2,1,5,0,0
37697,-111.111111111111,4,2,1,50,0,0
41529,-111.111111111111,4,2,1,5,0,0
41610,-90.9090909090908,4,2,1,60,0,0
42833,-90.9090909090908,4,2,1,5,0,0
42915,-90.9090909090908,4,2,1,60,0,0
43241,-142.857142857143,4,2,1,60,0,0
43893,-111.111111111111,4,2,1,40,0,0
45360,-200,4,2,1,40,0,0
45849,-142.857142857143,4,2,1,40,0,0
46176,-142.857142857143,4,2,2,40,0,0
46339,-142.857142857143,4,2,1,40,0,0
46502,-111.111111111111,4,2,1,40,0,0
48784,-90.9090909090908,4,2,1,40,0,0
49029,-90.9090909090908,4,2,1,5,0,0
49110,-90.9090909090908,4,2,1,60,0,0
49273,-142.857142857143,4,2,1,60,0,0
49763,-76.9230769230769,4,2,1,60,0,0
51882,-142.857142857143,4,2,1,60,0,0
52860,-111.111111111111,4,2,1,60,0,0
54165,-66.6666666666667,4,2,1,80,0,1
54409,-66.6666666666667,4,2,1,5,0,1
54491,-66.6666666666667,4,2,1,80,0,1
55714,-66.6666666666667,4,2,1,5,0,1
55795,-66.6666666666667,4,2,1,80,0,1
56773,-76.9230769230769,4,2,1,80,0,1
57263,-66.6666666666667,4,2,1,80,0,1
57833,-66.6666666666667,4,2,1,5,0,1
57915,-66.6666666666667,4,2,1,80,0,1
58322,-66.6666666666667,4,2,1,5,0,1
58404,-66.6666666666667,4,2,1,80,0,1
59382,-111.111111111111,4,2,1,80,0,1
59545,-66.6666666666667,4,2,1,80,0,1
60931,-66.6666666666667,4,2,1,5,0,1
61013,-66.6666666666667,4,2,1,80,0,1
61828,-111.111111111111,4,2,1,80,0,1
62072,-111.111111111111,4,2,1,5,0,1
62154,-111.111111111111,4,2,1,80,0,0
62317,-58.8235294117647,4,2,1,80,0,0
63295,-76.9230769230769,4,2,1,80,0,0
63540,-76.9230769230769,4,2,1,5,0,0
63621,-76.9230769230769,4,2,1,80,0,0
64599,-66.6666666666667,4,2,1,80,0,1
64844,-66.6666666666667,4,2,1,5,0,1
64926,-66.6666666666667,4,2,1,80,0,1
66148,-66.6666666666667,4,2,1,5,0,1
66230,-66.6666666666667,4,2,1,80,0,1
67208,-76.9230769230769,4,2,1,80,0,1
68513,-66.6666666666667,4,2,1,80,0,1
68757,-66.6666666666667,4,2,1,5,0,1
68839,-66.6666666666667,4,2,1,80,0,1
69654,-100,4,2,1,80,0,1
69654,-142.857142857143,4,2,1,80,0,1
69980,-76.9230769230769,4,2,1,80,0,0
70877,-76.9230769230769,4,2,1,5,0,0
70958,-76.9230769230769,4,2,1,80,0,0
71366,-76.9230769230769,4,2,1,5,0,0
71447,-76.9230769230769,4,2,1,80,0,0
72263,-76.9230769230769,4,2,2,80,0,0
72426,-76.9230769230769,4,2,1,80,0,0
72833,-76.9230769230769,4,2,1,5,0,0
72915,-76.9230769230769,4,2,1,80,0,0
73078,-142.857142857143,4,2,1,80,0,0
73730,-76.923076923077,4,2,1,80,0,0
73974,-76.923076923077,4,2,1,5,0,0
74056,-76.923076923077,4,2,1,80,0,0
74708,-90.9090909090909,4,2,1,80,0,0
74871,-90.9090909090909,4,2,2,80,0,0
75034,-90.9090909090909,4,2,1,80,0,0
75197,-66.6666666666667,4,2,1,80,0,0
75442,-66.6666666666667,4,2,1,5,0,0
75523,-76.9230769230769,4,2,1,80,0,0
75849,-66.6666666666667,4,2,1,80,0,0
76094,-66.6666666666667,4,2,1,5,0,0
76176,-76.9230769230769,4,2,1,80,0,0
76502,-66.6666666666667,4,2,1,80,0,0
76746,-66.6666666666667,4,2,1,5,0,0
76828,-66.6666666666667,4,2,1,80,0,0
77480,-76.9230769230769,4,2,2,80,0,0
77724,-76.9230769230769,4,2,2,5,0,0
77806,-66.6666666666667,4,2,1,80,0,0
78458,-76.9230769230769,4,2,1,80,0,0
78947,-90.9090909090909,4,2,1,80,0,0
79192,-90.9090909090909,4,2,1,5,0,0
79273,-90.9090909090909,4,2,1,80,0,0
80089,-66.6666666666667,4,2,2,80,0,0
80170,-66.6666666666667,4,2,2,5,0,0
80415,-76.9230769230769,4,2,1,70,0,0
85224,-76.9230769230769,4,2,1,5,0,0
85306,-76.9230769230769,4,2,2,70,0,0
85388,-76.9230769230769,4,2,1,70,0,0
88241,-90.9090909090909,4,2,1,70,0,0
88893,-76.9230769230769,4,2,1,70,0,0
89545,-66.6666666666667,4,2,1,70,0,0
89871,-58.8235294117647,4,2,1,70,0,0
90360,-66.6666666666667,4,2,1,70,0,0
90686,-52.6315789473684,4,2,1,90,0,0
90931,-52.6315789473684,4,2,1,5,0,0
91013,-52.6315789473684,4,2,1,90,0,0

[Colours]
Combo1 : 255,72,72
Combo2 : 74,255,255
Combo3 : 154,154,154
Combo4 : 170,213,255
Combo5 : 255,255,74
Combo6 : 154,255,53
Combo7 : 212,212,212
Combo8 : 170,170,255

[HitObjects]
164,165,1502,86,0,P|164:119|152:83,1,65
339,232,1828,2,0,P|350:187|374:156,1,65
126,373,2154,6,0,P|162:279|259:246,1,195,4|0,1:2|0:0,0:0:0:0:
244,245,3295,54,0,P|249:292|270:332,1,90.9999972229005,0|0,1:2|0:0,0:0:0:0:
279,333,3703,1,2,0:0:0:0:
290,334,3784,1,2,0:0:0:0:
366,298,3947,1,2,0:0:0:0:
372,89,4110,1,2,0:0:0:0:
289,73,4273,1,2,0:0:0:0:
165,223,4436,69,4,0:0:0:0:
248,207,4599,37,0,0:0:0:0:
52,0,4763,54,0,P|112:52|109:161,1,195,4|0,1:2|0:0,0:0:0:0:
110,160,5904,54,0,P|157:154|201:172,1,90.9999972229005,0|0,1:2|0:0,0:0:0:0:
201,180,6311,1,2,0:0:0:0:
204,192,6393,1,2,0:0:0:0:
189,276,6556,1,2,0:0:0:0:
326,352,6719,1,2,0:0:0:0:
311,268,6882,1,2,0:0:0:0:
392,75,7045,70,0,L|376:162,1,87.7499973220826,4|0,0:0|0:0,0:0:0:0:
381,173,7371,6,0,L|318:177,3,48.750001859665,0|0|0|0,1:2|0:0|0:0|0:0,0:0:0:0:
315,285,7697,2,0,L|252:281,3,48.750001859665,0|0|0|0,1:2|0:0|0:0|0:0,0:0:0:0:
224,131,8023,2,0,L|161:135,3,48.750001859665,2|0|0|0,1:2|0:0|0:0|0:0,0:0:0:0:
125,219,8349,1,8,0:0:0:0:
238,33,8513,1,8,0:0:0:0:
307,275,8676,54,0,L|401:284,1,87.7499973220826,4|0,1:2|0:0,0:0:0:0:
406,296,9002,1,8,0:0:0:0:
453,366,9165,1,0,0:0:0:0:
188,366,9328,54,0,L|94:357,1,87.7499973220826,4|0,1:2|0:0,0:0:0:0:
89,345,9654,102,0,P|80:296|94:244,1,87.7499973220826,4|0,0:0|0:0,0:0:0:0:
100,247,9980,69,2,1:2:0:0:
276,323,10143,1,2,0:0:0:0:
291,320,10224,1,2,0:0:0:0:
307,317,10306,1,10,0:0:0:0:
376,270,10469,1,2,0:0:0:0:
345,124,10632,53,8,0:0:0:0:
316,122,10713,1,8,0:0:0:0:
288,132,10795,1,8,0:0:0:0:
268,152,10876,1,8,0:0:0:0:
258,180,10958,1,8,0:0:0:0:
179,312,11121,54,0,P|113:227|-7:246,1,227.499993057251,4|0,1:2|0:0,0:0:0:0:
3,238,12099,1,0,1:2:0:0:
181,48,12263,38,0,P|181:100|157:153,1,97.50000371933,4|0,0:0|0:0,0:0:0:0:
9,246,12589,6,0,P|98:228|170:280,1,168.999992263794,4|8,1:2|0:0,0:0:0:0:
187,345,13078,1,0,0:0:0:0:
316,199,13241,2,0,P|269:199|215:227,1,84.4999961318971,0|0,1:2|0:0,0:0:0:0:
92,129,13567,2,0,P|137:129|190:162,1,84.4999961318971,8|0,0:0|0:0,0:0:0:0:
444,190,13893,54,0,P|424:110|318:92,1,168.999992263794,0|8,1:2|0:0,0:0:0:0:
263,122,14382,1,0,0:0:0:0:
266,299,14545,2,0,P|280:259|280:213,1,84.4999961318971,0|0,1:2|0:0,0:0:0:0:
128,132,14871,2,0,P|155:164|195:187,1,84.4999961318971,8|0,0:0|0:0,0:0:0:0:
438,309,15197,54,0,P|396:309|354:331,1,84.4999961318971,0|0,1:2|0:0,0:0:0:0:
186,280,15523,2,0,P|228:280|270:302,1,84.4999961318971,8|0,0:0|0:0,0:0:0:0:
349,34,15849,2,0,P|349:83|331:121,1,84.4999961318971,0|0,1:2|0:0,0:0:0:0:
400,186,16176,2,0,P|357:210|315:213,1,84.4999961318971,8|0,0:0|0:0,0:0:0:0:
90,292,16502,54,0,P|90:243|108:205,1,84.4999961318971,0|0,1:2|0:0,0:0:0:0:
264,128,16828,2,0,P|221:152|179:155,1,84.4999961318971,8|0,0:0|0:0,0:0:0:0:
36,55,17154,2,0,P|78:79|103:119,1,87.7499973220826,4|0,1:2|0:0,0:0:0:0:
99,125,17480,37,4,0:0:0:0:
131,109,17561,5,8,0:0:0:0:
166,108,17643,1,8,0:0:0:0:
199,120,17724,1,8,0:0:0:0:
225,144,17806,54,0,P|234:179|234:240,1,71.5000021820069,4|0,1:2|0:0,0:0:0:0:
365,278,18132,2,0,P|365:241|381:182,1,71.5000021820069,8|0,0:0|0:0,0:0:0:0:
146,298,18458,2,0,P|145:261|129:202,1,71.5000021820069,0|0,1:2|0:0,0:0:0:0:
246,372,18784,2,0,P|255:337|286:284,1,71.5000021820069,8|0,0:0|0:0,0:0:0:0:
253,57,19110,54,0,P|262:92|293:145,1,71.5000021820069,0|0,1:2|0:0,0:0:0:0:
230,208,19436,2,0,P|264:217|326:217,1,71.5000021820069,8|0,0:0|0:0,0:0:0:0:
410,192,19763,54,0,P|401:227|370:280,1,71.5000021820069,0|0,1:2|0:0,0:0:0:0:
433,343,20089,2,0,P|398:352|336:352,1,71.5000021820069,8|0,0:0|0:0,0:0:0:0:
256,384,20415,54,0,P|204:302|92:314,1,214.500006546021,4|0,1:2|0:0,0:0:0:0:
32,374,21067,1,0,1:2:0:0:
16,341,21148,1,0,0:0:0:0:
12,306,21230,1,0,0:0:0:0:
18,271,21311,1,0,0:0:0:0:
34,239,21393,1,0,1:2:0:0:
50,207,21475,1,0,0:0:0:0:
56,172,21556,1,0,0:0:0:0:
51,137,21638,1,0,0:0:0:0:
36,104,21719,54,0,P|69:112|106:112,3,55.2500010538101,2|2|2|2,0:0|0:0|0:0|0:0,0:0:0:0:
155,188,22045,1,8,0:0:0:0:
193,172,22126,1,8,0:0:0:0:
235,177,22208,1,8,0:0:0:0:
268,201,22289,1,8,0:0:0:0:
286,239,22371,1,8,0:0:0:0:
308,266,22453,1,8,0:0:0:0:
340,281,22534,1,8,0:0:0:0:
375,281,22616,1,8,0:0:0:0:
408,266,22697,38,0,P|408:232|420:200,1,55.2500010538101,4|0,0:0|0:0,0:0:0:0:
303,28,23023,102,0,P|352:75|331:166,1,143.000004364014,4|8,1:2|0:0,0:0:0:0:
347,145,23513,1,0,0:0:0:0:
261,109,23676,2,0,P|203:109|162:125,1,71.5000021820069,0|0,1:2|0:0,0:0:0:0:
118,173,24002,1,8,0:0:0:0:
112,339,24165,54,0,P|137:277|221:253,1,143.000004364014,0|0,1:2|1:2,0:0:0:0:
284,276,24654,1,8,0:0:0:0:
334,180,24817,1,0,0:0:0:0:
336,196,24898,1,0,0:0:0:0:
338,212,24980,2,0,P|344:169|367:133,1,71.5000021820069,0|0,1:2|0:0,0:0:0:0:
416,85,25306,1,8,0:0:0:0:
204,250,25469,54,0,P|190:177|141:116,1,143.000004364014,0|0,1:2|1:2,0:0:0:0:
63,9,25958,2,0,L|54:81,1,71.5000021820069,8|0,0:0|0:0,0:0:0:0:
40,183,26284,1,0,1:2:0:0:
40,183,26447,1,0,1:2:0:0:
157,107,26610,1,8,0:0:0:0:
111,276,26773,54,0,P|158:255|231:269,1,107.25000327301,0|0,1:2|0:0,0:0:0:0:
220,272,27099,1,0,1:2:0:0:
253,129,27263,1,8,0:0:0:0:
311,253,27426,1,0,0:0:0:0:
314,238,27507,1,0,0:0:0:0:
316,221,27589,1,0,1:2:0:0:
368,157,27752,1,0,0:0:0:0:
380,319,27915,1,8,0:0:0:0:
512,94,28078,54,0,L|418:97,1,71.5000021820069,0|0,1:2|0:0,0:0:0:0:
440,96,28404,1,0,1:2:0:0:
267,154,28567,2,0,L|361:157,1,71.5000021820069,8|0,0:0|0:0,0:0:0:0:
460,0,28893,2,0,L|366:3,1,71.5000021820069,0|0,1:2|1:2,0:0:0:0:
294,65,29219,1,8,0:0:0:0:
129,9,29382,54,0,P|176:64|163:151,1,143.000004364014,0|0,1:2|1:2,0:0:0:0:
108,277,29871,2,0,L|96:197,1,71.5000021820069,8|0,0:0|0:0,0:0:0:0:
80,113,30197,1,0,1:2:0:0:
80,113,30360,1,0,1:2:0:0:
218,240,30523,2,0,P|261:224|320:241,1,87.7499973220826,8|0,0:0|0:0,0:0:0:0:
312,242,30849,86,0,P|324:159|418:118,1,168.999992263794,4|8,1:2|0:0,0:0:0:0:
474,166,31339,2,0,L|483:71,1,84.4999961318971
299,138,31665,2,0,L|290:42,1,84.4999961318971,0|8,1:2|0:0,0:0:0:0:
55,218,31991,54,0,P|104:204|172:236,1,107.25000327301,0|0,1:2|0:0,0:0:0:0:
154,206,32317,1,2,0:0:0:0:
152,189,32398,1,2,0:0:0:0:
151,173,32480,1,2,0:0:0:0:
191,316,32643,1,0,1:2:0:0:
227,128,32806,1,2,0:0:0:0:
258,241,32969,53,8,0:0:0:0:
295,222,33050,1,8,0:0:0:0:
337,222,33132,1,8,0:0:0:0:
375,239,33213,1,8,0:0:0:0:
403,270,33295,1,8,0:0:0:0:
441,284,33376,1,8,0:0:0:0:
481,272,33458,22,0,P|478:228|491:182,1,87.7499973220826,0|0,1:2|0:0,0:0:0:0:
498,174,33784,2,0,P|462:184|436:178,1,58.4999982147217,8|0,0:0|0:0,0:0:0:0:
264,65,34110,2,0,P|290:91|298:116,1,58.4999982147217,0|0,1:2|0:0,0:0:0:0:
287,307,34436,2,0,P|296:270|314:251,1,58.4999982147217,8|0,0:0|0:0,0:0:0:0:
106,217,34763,54,0,P|147:194|202:194,1,87.7499973220826,0|0,1:2|0:0,0:0:0:0:
195,204,35089,2,0,P|189:244|173:265,1,58.4999982147217,8|0,0:0|0:0,0:0:0:0:
224,381,35415,54,0,P|236:335|275:296,1,87.7499973220826,0|0,1:2|0:0,0:0:0:0:
279,307,35741,2,0,P|303:339|306:365,1,58.4999982147217,8|0,0:0|0:0,0:0:0:0:
455,222,36067,54,0,P|414:245|359:245,1,87.7499973220826,0|0,1:2|0:0,0:0:0:0:
361,237,36393,2,0,P|357:203|361:169,1,58.4999982147217,8|0,0:0|0:0,0:0:0:0:
478,44,36719,2,0,P|450:64|419:78,1,58.4999982147217,0|0,1:2|0:0,0:0:0:0:
248,47,37045,2,0,P|279:60|306:80,1,58.4999982147217,8|0,0:0|0:0,0:0:0:0:
168,205,37371,54,0,P|205:184|269:185,1,87.7499973220826,0|0,1:2|0:0,0:0:0:0:
260,192,37697,2,0,P|261:231|253:263,1,58.4999982147217,8|0,0:0|0:0,0:0:0:0:
112,334,38023,2,0,P|100:296|100:263,1,58.4999982147217,0|0,1:2|0:0,0:0:0:0:
147,186,38349,1,8,0:0:0:0:
347,313,38513,54,0,P|323:259|266:235,1,116.999996429443,4|0,1:2|0:0,0:0:0:0:
253,330,39002,2,0,P|217:342|192:343,1,58.4999982147217,8|0,0:0|0:0,0:0:0:0:
144,258,39328,2,0,P|108:246|83:245,1,58.4999982147217,0|0,1:2|0:0,0:0:0:0:
5,298,39654,1,8,0:0:0:0:
51,71,39817,54,0,P|63:124|120:157,1,116.999996429443,0|0,1:2|0:0,0:0:0:0:
113,156,40306,1,8,0:0:0:0:
291,84,40469,2,0,P|239:67|179:92,1,116.999996429443
241,167,40958,2,0,P|244:202|237:235,1,58.4999982147217,8|0,0:0|0:0,0:0:0:0:
168,374,41284,54,0,P|208:356|264:366,1,87.7499973220826,4|0,1:2|0:0,0:0:0:0:
258,371,41610,22,0,P|263:336|282:305,1,71.5000021820069,8|0,0:0|0:0,0:0:0:0:
432,257,41936,2,0,P|399:270|358:265,1,71.5000021820069,0|0,1:2|0:0,0:0:0:0:
249,159,42263,2,0,P|276:180|291:216,1,71.5000021820069,8|0,0:0|0:0,0:0:0:0:
409,368,42589,54,0,P|417:319|462:274,1,107.25000327301,0|0,1:2|0:0,0:0:0:0:
469,276,42915,2,0,P|460:244|464:200,1,71.5000021820069,8|0,0:0|0:0,0:0:0:0:
437,30,43241,2,0,P|441:92|384:158,1,136.499995834351,0|0,1:2|0:0,0:0:0:0:
398,150,43893,6,0,P|347:128|283:145,1,116.999996429443,0|0,1:2|0:0,0:0:0:0:
288,141,44382,1,0,0:0:0:0:
199,229,44545,2,0,L|186:89,1,116.999996429443,0|0,1:2|0:0,0:0:0:0:
188,112,45034,1,0,0:0:0:0:
116,240,45197,5,0,1:2:0:0:
279,168,45360,1,2,0:0:0:0:
294,171,45441,1,2,0:0:0:0:
310,175,45523,1,2,0:0:0:0:
377,227,45686,1,2,0:0:0:0:
411,41,45849,2,0,P|404:85|356:126,1,90.9999972229005,0|4,1:2|0:0,0:0:0:0:
373,118,46339,1,0,0:0:0:0:
207,58,46502,38,0,L|330:45,1,116.999996429443,0|0,1:2|0:0,0:0:0:0:
323,45,46991,1,0,0:0:0:0:
187,209,47154,2,0,P|167:156|102:125,1,116.999996429443,0|0,1:2|0:0,0:0:0:0:
116,126,47643,1,0,0:0:0:0:
137,277,47806,5,0,1:2:0:0:
249,150,47969,1,0,0:0:0:0:
296,323,48132,2,0,L|374:333,1,58.4999982147217
479,250,48458,2,0,L|401:260,1,58.4999982147217,0|0,1:2|1:2,0:0:0:0:
349,85,48784,2,0,P|363:129|343:203,1,107.25000327301,2|0,0:0|0:0,0:0:0:0:
339,199,49110,85,0,1:2:0:0:
218,135,49273,1,2,0:0:0:0:
194,137,49354,1,2,0:0:0:0:
172,144,49436,1,2,0:0:0:0:
121,210,49599,1,2,0:0:0:0:
45,98,49763,2,0,L|56:8,1,84.4999961318971,8|0,0:0|0:0,0:0:0:0:
145,225,50089,2,0,L|156:315,1,84.4999961318971,8|0,0:0|0:0,0:0:0:0:
376,371,50415,54,0,P|364:326|335:293,1,84.4999961318971,0|0,1:2|0:0,0:0:0:0:
323,291,50659,1,2,0:0:0:0:
302,289,50741,1,2,0:0:0:0:
218,289,50904,1,2,0:0:0:0:
130,338,51067,2,0,P|85:338|42:322,1,84.4999961318971,8|0,0:0|0:0,0:0:0:0:
92,169,51393,2,0,P|135:180|172:207,1,84.4999961318971,8|0,0:0|0:0,0:0:0:0:
332,261,51719,54,0,L|338:167,1,84.4999961318971,0|0,1:2|0:0,0:0:0:0:
343,160,51964,1,2,0:0:0:0:
351,143,52045,1,2,0:0:0:0:
409,82,52208,1,2,0:0:0:0:
249,277,52371,1,2,0:0:0:0:
227,283,52452,1,2,0:0:0:0:
204,285,52534,1,2,0:0:0:0:
138,233,52697,1,2,0:0:0:0:
40,27,52860,6,0,L|61:341,1,292.499991073609,0|0,1:2|0:0,0:0:0:0:
59,318,53839,1,0,1:2:0:0:
176,353,54002,1,8,0:0:0:0:
342,166,54165,22,0,P|274:187|243:270,1,146.250005578995,4|0,1:2|0:0,0:0:0:0:
250,271,54491,1,0,1:2:0:0:
335,353,54654,2,0,P|391:353|437:332,1,97.50000371933,8|0,0:0|0:0,0:0:0:0:
394,66,54980,2,0,P|366:114|361:164,1,97.50000371933,0|0,1:2|0:0,0:0:0:0:
430,232,55306,1,8,0:0:0:0:
158,72,55469,54,0,P|226:93|257:176,1,146.250005578995,0|0,1:2|0:0,0:0:0:0:
252,180,55795,1,0,1:2:0:0:
174,266,55958,2,0,P|120:265|73:241,1,97.50000371933,8|0,0:0|0:0,0:0:0:0:
357,83,56284,53,0,1:2:0:0:
407,206,56447,1,0,0:0:0:0:
350,344,56610,1,8,0:0:0:0:
40,311,56773,54,0,P|117:295|195:372,1,168.999992263794,0|0,1:2|0:0,0:0:0:0:
185,346,57263,2,0,P|193:294|226:250,1,97.50000371933,8|0,0:0|0:0,0:0:0:0:
424,159,57589,2,0,P|363:192|266:157,1,146.250005578995,0|0,1:2|0:0,0:0:0:0:
278,157,57915,1,8,0:0:0:0:
125,0,58078,54,0,P|172:50|163:153,1,146.250005578995,0|0,1:2|0:0,0:0:0:0:
163,141,58404,1,0,1:2:0:0:
93,233,58567,2,0,P|44:233|-6:210,1,97.50000371933,8|0,0:0|0:0,0:0:0:0:
208,249,58893,1,0,1:2:0:0:
271,347,59056,1,0,0:0:0:0:
403,340,59219,1,8,0:0:0:0:
490,218,59382,1,8,0:0:0:0:
495,189,59463,1,8,0:0:0:0:
493,160,59545,54,0,P|475:114|466:58,1,97.50000371933,0|0,1:2|0:0,0:0:0:0:
269,329,59871,2,0,P|314:335|370:356,1,97.50000371933,8|0,0:0|0:0,0:0:0:0:
239,57,60197,2,0,P|209:92|164:131,1,97.50000371933,0|0,1:2|0:0,0:0:0:0:
195,239,60523,1,8,0:0:0:0:
0,384,60686,54,0,P|45:324|137:328,1,146.250005578995,0|0,1:2|0:0,0:0:0:0:
127,332,61013,1,0,1:2:0:0:
213,381,61176,2,0,P|264:380|315:357,1,97.50000371933,8|0,0:0|0:0,0:0:0:0:
135,142,61502,2,0,P|110:186|104:242,1,97.50000371933,0|0,1:2|0:0,0:0:0:0:
362,277,61828,2,0,P|373:234|371:168,1,87.7499973220826,8|0,0:0|0:0,0:0:0:0:
390,171,62154,53,2,1:2:0:0:
302,339,62317,2,0,P|264:339|196:303,1,110.50000210762,2|0,0:0|0:0,0:0:0:0:
148,105,62643,2,0,P|167:137|163:213,1,110.50000210762,2|0,0:0|0:0,0:0:0:0:
19,364,62969,2,0,P|37:331|117:288,1,110.50000210762,2|0,0:0|0:0,0:0:0:0:
309,117,63295,6,0,P|274:150|282:245,1,126.749994197846,0|0,1:2|0:0,0:0:0:0:
287,239,63621,1,0,1:2:0:0:
395,197,63784,1,8,0:0:0:0:
131,205,63947,54,0,P|166:238|154:359,1,168.999992263794,0|0,1:2|0:0,0:0:0:0:
160,350,64436,1,8,0:0:0:0:
466,142,64599,38,0,P|402:108|335:130,1,146.250005578995,0|0,1:2|0:0,0:0:0:0:
331,147,64925,1,0,1:2:0:0:
236,285,65089,2,0,P|285:285|333:262,1,97.50000371933,8|0,0:0|0:0,0:0:0:0:
254,53,65415,2,0,P|206:65|166:100,1,97.50000371933,0|0,1:2|0:0,0:0:0:0:
148,209,65740,1,8,0:0:0:0:
435,358,65903,54,0,P|414:290|331:259,1,146.250005578995,0|0,1:2|0:0,0:0:0:0:
328,265,66229,1,0,1:2:0:0:
250,333,66392,2,0,P|202:333|150:308,1,97.50000371933,8|0,0:0|0:0,0:0:0:0:
99,153,66719,53,0,1:2:0:0:
213,85,66882,1,0,0:0:0:0:
360,107,67045,1,8,0:0:0:0:
463,384,67208,54,0,P|447:307|524:229,1,168.999992263794,0|0,1:2|0:0,0:0:0:0:
498,239,67697,2,0,P|449:239|401:204,1,84.4999961318971,8|0,0:0|0:0,0:0:0:0:
333,75,68023,2,0,P|357:117|351:176,1,84.4999961318971,0|0,1:2|0:0,0:0:0:0:
305,219,68349,1,8,0:0:0:0:
118,344,68513,54,0,P|137:278|231:234,1,146.250005578995,0|0,1:2|0:0,0:0:0:0:
217,243,68839,1,0,1:2:0:0:
281,323,69002,2,0,P|330:323|380:300,1,97.50000371933,8|0,0:0|0:0,0:0:0:0:
294,101,69328,2,0,P|246:113|204:148,1,97.50000371933,0|0,1:2|0:0,0:0:0:0:
140,276,69654,1,8,0:0:0:0:
135,253,69735,1,8,0:0:0:0:
128,232,69817,1,8,0:0:0:0:
116,213,69898,1,8,0:0:0:0:
101,196,69980,6,0,P|99:152|106:101,1,84.4999961318971,0|0,1:2|0:0,0:0:0:0:
4,259,70306,2,0,P|6:215|-1:164,1,84.4999961318971,8|0,0:0|0:0,0:0:0:0:
108,313,70632,2,0,P|161:288|240:307,1,126.749994197846,0|0,1:2|0:0,0:0:0:0:
239,317,70958,1,8,0:0:0:0:
451,384,71121,54,0,P|438:320|370:277,1,126.749994197846,0|0,1:2|0:0,0:0:0:0:
379,283,71447,1,2,1:2:0:0:
366,285,71529,1,2,0:0:0:0:
356,293,71610,1,2,0:0:0:0:
309,363,71773,1,2,0:0:0:0:
268,147,71936,53,0,1:2:0:0:
215,280,72099,1,0,0:0:0:0:
292,51,72263,101,4,0:0:0:0:
345,184,72426,69,0,0:0:0:0:
74,231,72589,54,0,P|87:173|157:135,1,126.749994197846,0|0,1:2|0:0,0:0:0:0:
162,143,72915,1,8,0:0:0:0:
234,255,73078,1,0,0:0:0:0:
256,259,73159,1,0,0:0:0:0:
278,259,73241,1,0,1:2:0:0:
356,228,73404,1,0,0:0:0:0:
404,139,73567,1,8,0:0:0:0:
505,11,73730,54,0,P|506:70|514:154,1,126.749994197846,0|0,1:2|0:0,0:0:0:0:
507,157,74056,1,0,1:2:0:0:
244,119,74219,2,0,P|319:104|391:164,1,168.999992263794,8|0,0:0|0:0,0:0:0:0:
388,157,74708,2,0,P|389:115|403:79,2,71.5000021820069,0|4|0,0:0|0:0|0:0,0:0:0:0:
462,273,75197,54,0,P|391:256|321:310,1,146.250005578995,0|0,1:2|0:0,0:0:0:0:
327,306,75523,2,0,P|314:260|286:230,1,84.4999961318971,8|0,0:0|0:0,0:0:0:0:
48,188,75849,54,0,P|119:171|189:225,1,146.250005578995,0|0,1:2|0:0,0:0:0:0:
183,221,76175,2,0,P|183:176|208:126,1,97.50000371933,8|0,0:0|0:0,0:0:0:0:
350,56,76502,54,0,P|339:118|401:182,1,146.250005578995,0|0,1:2|0:0,0:0:0:0:
402,179,76828,1,10,0:0:0:0:
414,177,76909,1,2,0:0:0:0:
425,170,76991,1,2,0:0:0:0:
425,353,77154,2,0,P|420:300|384:253,1,97.50000371933,0|0,1:2|0:0,0:0:0:0:
67,251,77480,102,0,P|118:218|204:234,1,126.749994197846,4|0,0:0|0:0,0:0:0:0:
190,235,77806,70,0,P|182:182|198:132,1,97.50000371933,0|0,1:2|0:0,0:0:0:0:
319,15,78132,2,0,P|340:64|337:116,1,97.50000371933,8|0,0:0|0:0,0:0:0:0:
273,243,78458,53,8,0:0:0:0:
314,235,78539,1,8,0:0:0:0:
353,249,78621,1,8,0:0:0:0:
381,280,78702,1,8,0:0:0:0:
391,320,78784,1,8,0:0:0:0:
512,99,78947,54,0,P|465:120|446:174,1,107.25000327301,0|0,1:2|0:0,0:0:0:0:
456,191,79273,1,0,1:2:0:0:
420,267,79436,1,8,0:0:0:0:
321,257,79599,1,0,0:0:0:0:
175,78,79763,1,8,0:0:0:0:
274,68,79926,1,0,0:0:0:0:
218,334,80089,38,0,P|213:296|191:255,1,48.750001859665,4|0,0:0|0:0,0:0:0:0:
0,169,80415,6,0,P|89:151|161:203,1,168.999992263794,0|8,1:2|0:0,0:0:0:0:
175,272,80904,1,0,0:0:0:0:
255,336,81067,2,0,P|302:336|356:308,1,84.4999961318971,0|0,1:2|0:0,0:0:0:0:
474,241,81393,2,0,P|428:228|369:241,1,84.4999961318971,8|0,0:0|0:0,0:0:0:0:
234,210,81719,54,0,P|258:132|358:108,1,168.999992263794,0|8,1:2|0:0,0:0:0:0:
406,146,82208,1,0,0:0:0:0:
373,258,82371,2,0,P|333:272|287:272,1,84.4999961318971,0|0,1:2|0:0,0:0:0:0:
149,154,82697,2,0,P|181:181|204:221,1,84.4999961318971,8|0,0:0|0:0,0:0:0:0:
84,359,83023,54,0,P|60:323|48:279,1,84.4999961318971,0|0,1:2|0:0,0:0:0:0:
134,72,83349,2,0,P|148:112|148:158,1,84.4999961318971,8|0,0:0|0:0,0:0:0:0:
189,326,83675,2,0,P|231:301|273:298,1,84.4999961318971,0|0,1:2|0:0,0:0:0:0:
295,196,84002,2,0,P|337:220|361:255,1,84.4999961318971,8|0,0:0|0:0,0:0:0:0:
441,355,84328,54,0,P|441:306|459:268,1,84.4999961318971,0|0,1:2|0:0,0:0:0:0:
457,95,84654,2,0,P|414:119|372:122,1,84.4999961318971,8|0,0:0|0:0,0:0:0:0:
237,200,84980,2,0,P|286:235|304:298,1,126.749994197846,4|0,1:2|0:0,0:0:0:0:
314,312,85306,37,4,0:0:0:0:
282,296,85387,5,8,0:0:0:0:
247,295,85469,1,8,0:0:0:0:
214,307,85550,1,8,0:0:0:0:
188,331,85632,54,0,P|176:291|149:248,1,84.4999961318971,4|0,1:2|0:0,0:0:0:0:
361,262,85958,2,0,P|361:225|377:166,1,71.5000021820069,8|0,0:0|0:0,0:0:0:0:
238,74,86284,2,0,P|237:111|221:170,1,71.5000021820069,0|0,1:2|0:0,0:0:0:0:
436,24,86610,2,0,P|445:59|476:112,1,71.5000021820069,8|0,0:0|0:0,0:0:0:0:
367,191,86936,54,0,P|406:172|452:176,1,84.4999961318971,0|0,1:2|0:0,0:0:0:0:
425,270,87263,2,0,P|467:284|496:319,1,84.4999961318971,8|0,0:0|0:0,0:0:0:0:
272,297,87589,54,0,P|235:271|216:230,1,84.4999961318971,0|0,1:2|0:0,0:0:0:0:
132,285,87915,2,0,P|122:242|129:194,1,84.4999961318971,8|0,0:0|0:0,0:0:0:0:
322,0,88241,54,0,L|340:216,1,214.500006546021,4|0,1:2|0:0,0:0:0:0:
339,213,88893,53,10,0:0:0:0:
300,199,88974,1,2,0:0:0:0:
259,206,89056,1,2,0:0:0:0:
227,232,89137,1,2,0:0:0:0:
212,271,89219,1,10,0:0:0:0:
197,310,89301,1,2,0:0:0:0:
164,336,89382,1,2,0:0:0:0:
123,343,89464,1,2,0:0:0:0:
84,329,89545,54,0,L|77:262,1,48.750001859665,2|0,0:0|0:0,0:0:0:0:
291,331,89708,2,0,L|298:264,1,48.750001859665,2|0,0:0|0:0,0:0:0:0:
137,161,89871,54,0,L|130:89,2,55.2500010538101,8|8|8,0:0|0:0|0:0,0:0:0:0:
183,262,90116,2,0,L|176:334,2,55.2500010538101,8|8|8,0:0|0:0|0:0,0:0:0:0:
252,192,90360,1,0,1:2:0:0:
298,180,90441,1,0,1:2:0:0:
346,186,90523,1,0,1:2:0:0:
491,384,90686,38,0,P|435:319|450:207,1,185.249995053291,4|0,1:2|0:0,0:0:0:0:
466,206,91013,1,8,0:0:0:0:
306,302,91176,1,8,0:0:0:0:
311,322,91502,1,8,0:0:0:0:
135,253,91665,1,8,0:0:0:0:
128,229,91991,1,12,0:0:0:0:
