osu file format v14

[General]
AudioFilename: audio.mp3
AudioLeadIn: 0
PreviewTime: 113746
Countdown: 0
SampleSet: Soft
StackLeniency: 0.7
Mode: 0
LetterboxInBreaks: 0
WidescreenStoryboard: 1

[Editor]
DistanceSpacing: 1.2
BeatDivisor: 4
GridSize: 32
TimelineZoom: 0.6999999

[Metadata]
Title:Venom
TitleUnicode:ベノム
Artist:merry-san
ArtistUnicode:めりーさん
Creator:Houshou Hari
Version:Normal
Source:
Tags:かいりきベア kairiki bear ボカロイド vocaloid flower japanese female cover song novelty papple104 pappl_e_104
BeatmapID:2250229
BeatmapSetID:1073331

[Difficulty]
HPDrainRate:4
CircleSize:3
OverallDifficulty:5
ApproachRate:6
SliderMultiplier:1
SliderTickRate:1

[Events]
//Background and Video events
0,0,"2019-04-01-987995.jpeg",0,0
//Break Periods
2,151840,152998
//Storyboard Layer 0 (Background)
//Storyboard Layer 1 (Fail)
//Storyboard Layer 2 (Pass)
//Storyboard Layer 3 (Foreground)
//Storyboard Layer 4 (Overlay)
//Storyboard Sound Samples

[TimingPoints]
62,394.736842105263,4,2,1,60,1,0
1246,-100,4,2,1,60,0,0
14272,-100,4,2,1,45,0,0
33219,-100,4,2,1,45,0,0
42693,-100,4,2,1,55,0,0
61640,-83.3333333333333,4,2,1,60,0,1
74272,-100,4,2,1,60,0,0
86904,-100,4,2,1,45,0,0
96377,-100,4,2,1,55,0,0
113746,-83.3333333333333,4,2,1,70,0,1
126377,-100,4,2,1,60,0,0
157956,-83.3333333333333,4,2,1,70,0,1
180061,-100,4,2,1,60,0,0
192693,-100,4,2,1,45,0,0
195456,-100,4,2,1,35,0,0

[Colours]
Combo1 : 255,128,192
Combo2 : 128,128,192
Combo3 : 0,128,192
Combo4 : 255,0,128

[HitObjects]
96,81,1246,37,2,0:0:0:0:
198,42,1640,22,0,L|304:48,1,100,12|8,0:1|0:0,0:0:0:0:
299,147,2430,2,0,L|405:153,1,100,8|10,0:1|0:0,0:0:0:0:
424,249,3219,2,0,P|391:298|374:344,2,100,8|8|8,0:1|0:0|0:1,0:0:0:0:
347,314,4404,1,8,0:0:0:0:
261,365,4798,6,0,L|150:362,1,100,8|8,0:1|0:0,0:0:0:0:
123,270,5588,2,0,L|12:267,1,100,8|8,0:1|0:0,0:0:0:0:
37,168,6377,2,0,P|83:112|96:85,2,100,8|8|8,0:1|0:0|0:1,0:0:0:0:
124,120,7561,1,8,0:0:0:0:
208,64,7956,38,0,P|261:44|308:51,1,100,12|8,0:1|0:0,0:0:0:0:
379,113,8746,2,0,P|428:117|474:98,1,100,8|8,0:1|0:0,0:0:0:0:
495,195,9535,2,0,L|449:293,2,100,8|8|8,0:1|0:0|0:1,0:0:0:0:
414,254,10719,1,8,0:0:0:0:
335,316,11114,6,0,P|280:304|235:312,1,100,8|8,0:1|0:0,0:0:0:0:
146,353,11904,2,0,P|82:361|45:346,1,100,8|8,0:1|0:0,0:0:0:0:
32,250,12693,2,0,L|59:142,2,100,8|8|8,0:1|0:0|0:1,0:0:0:0:
98,175,13877,1,8,0:0:0:0:
161,97,14272,38,0,L|206:77,1,50,12|2,0:1|0:0,0:0:0:0:
251,98,14667,2,0,L|306:72,1,50,8|0,0:0|0:0,0:0:0:0:
343,62,15061,1,8,0:1:0:0:
428,9,15456,1,8,0:0:0:0:
438,109,15851,2,0,L|461:213,1,100,8|8,0:1|0:0,0:0:0:0:
452,306,16640,1,8,0:1:0:0:
360,342,17035,1,8,0:0:0:0:
264,375,17430,6,0,L|220:340,1,50,8|0,0:1|0:0,0:0:0:0:
184,373,17825,2,0,L|140:338,1,50,8|0,0:0|0:0,0:0:0:0:
107,308,18219,1,8,0:1:0:0:
7,316,18614,1,10,0:0:0:0:
30,219,19009,2,0,L|23:113,1,100,8|8,0:1|0:0,0:0:0:0:
93,47,19798,2,0,P|137:33|193:43,1,100,8|8,0:1|0:0,0:0:0:0:
177,141,20588,38,0,L|191:203,1,50,12|0,0:1|0:0,0:0:0:0:
200,238,20983,1,8,0:0:0:0:
296,211,21377,2,0,L|272:321,1,100,8|8,0:1|0:0,0:0:0:0:
176,287,22167,6,0,L|190:349,1,50,8|0,0:1|0:0,0:0:0:0:
197,384,22561,1,8,0:0:0:0:
294,361,22956,2,0,P|347:352|410:364,1,100,8|8,0:1|0:0,0:0:0:0:
447,273,23746,38,0,L|456:205,1,50,8|0,0:1|0:0,0:0:0:0:
420,186,24140,2,0,L|429:118,1,50,8|0,0:0|0:0,0:0:0:0:
429,86,24535,1,8,0:1:0:0:
329,98,24930,1,10,0:0:0:0:
279,186,25325,2,0,P|215:170|109:252,1,200,8|8,0:1|0:1,0:0:0:0:
78,336,26509,1,8,0:0:0:0:
22,252,26904,6,0,P|23:181|35:131,1,100,12|8,0:1|0:0,0:0:0:0:
77,65,27693,2,0,P|138:57|187:63,1,100,8|8,0:1|0:0,0:0:0:0:
276,67,28483,2,0,P|338:74|381:64,2,100,8|8|8,0:1|0:0|0:1,0:0:0:0:
355,127,29667,1,8,0:0:0:0:
441,179,30061,38,0,P|434:242|443:289,1,100,8|8,0:1|0:0,0:0:0:0:
357,335,30851,2,0,P|300:328|246:334,1,100,8|8,0:1|0:0,0:0:0:0:
158,341,31640,2,0,P|108:351|50:341,2,100,8|8|8,0:1|0:0|0:1,0:0:0:0:
100,258,32825,1,8,0:0:0:0:
68,161,33219,6,0,L|56:102,1,50,12|2,0:1|0:0,0:0:0:0:
107,106,33614,2,0,L|95:47,1,50,8|0,0:0|0:0,0:0:0:0:
87,7,34009,1,8,0:1:0:0:
182,36,34404,1,8,0:0:0:0:
224,126,34798,2,0,P|271:101|333:98,1,100,8|8,0:1|0:0,0:0:0:0:
415,111,35588,1,8,0:1:0:0:
451,204,35983,1,8,0:0:0:0:
447,304,36377,38,0,L|385:288,1,50,8|2,0:1|0:0,0:0:0:0:
386,340,36772,2,0,L|324:324,1,50,8|0,0:0|0:0,0:0:0:0:
289,312,37167,1,8,0:1:0:0:
201,359,37561,1,8,0:0:0:0:
132,285,37956,2,0,P|98:232|100:179,1,100,8|8,0:1|0:0,0:0:0:0:
137,105,38746,1,8,0:1:0:0:
212,40,39140,1,8,0:0:0:0:
312,43,39535,6,0,L|339:93,1,50,12|0,0:1|0:0,0:0:0:0:
365,127,39930,1,8,0:0:0:0:
444,187,40325,2,0,P|395:221|338:222,1,100,8|8,0:1|0:0,0:0:0:0:
264,184,41114,38,0,L|240:232,1,50,8|0,0:1|0:0,0:0:0:0:
218,273,41509,1,8,0:0:0:0:
123,307,41904,2,0,P|155:355|200:373,1,100,8|8,0:1|0:0,0:0:0:0:
291,360,42693,6,0,P|357:348|398:357,1,100,8|8,0:1|0:0,0:0:0:0:
470,295,43483,2,0,P|452:240|458:189,1,100,8|8,0:1|0:0,0:0:0:0:
448,98,44272,2,0,P|395:79|339:83,1,100,8|8,0:1|0:0,0:0:0:0:
255,106,45061,2,0,P|202:115|130:99,1,100,8|8,0:1|0:0,0:0:0:0:
63,71,45851,37,12,0:1:0:0:
63,71,46048,2,0,P|36:134|52:222,1,150,0|8,0:0|0:1,0:0:0:0:
193,349,47430,5,8,0:1:0:0:
193,349,47627,2,0,P|277:313|349:328,1,150,0|8,0:0|0:1,0:0:0:0:
424,361,48614,1,8,0:0:0:0:
447,263,49009,37,12,0:1:0:0:
447,263,49206,2,0,P|421:197|435:99,1,150,0|8,0:0|0:1,0:0:0:0:
235,61,50588,5,8,0:1:0:0:
235,61,50785,2,0,P|160:44|81:62,1,150,0|8,0:0|0:1,0:0:0:0:
0,100,51772,1,8,0:0:0:0:
30,195,52167,37,12,0:1:0:0:
30,195,52364,2,0,P|61:253|37:346,1,150,0|8,0:0|0:1,0:0:0:0:
245,355,53746,6,0,P|292:329|345:330,1,100,8|8,0:1|0:0,0:0:0:0:
436,337,54535,2,0,L|446:220,1,100,8|8,0:1|0:0,0:0:0:0:
415,141,55325,38,0,L|343:128,1,50,8|0,0:1|0:0,0:0:0:0:
317,120,55719,1,8,0:0:0:0:
250,45,56114,6,0,L|309:36,1,50,8|0,0:1|0:0,0:0:0:0:
349,32,56509,1,8,0:0:0:0:
447,49,56904,37,8,0:1:0:0:
437,148,57298,1,8,0:0:0:0:
427,247,57693,1,8,0:1:0:0:
417,346,58088,1,8,0:0:0:0:
331,294,58483,6,0,P|277:285|224:302,1,100,8|8,0:1|0:0,0:0:0:0:
138,327,59272,2,0,P|85:335|33:326,1,100,8|8,0:1|0:0,0:0:0:0:
83,238,60061,38,0,P|39:136|88:50,1,200,8|8,0:1|0:1,0:0:0:0:
160,10,61246,1,8,0:0:0:0:
253,84,61640,22,0,L|321:80,1,59.9999981689454,12|2,0:1|0:0,0:0:0:0:
380,119,62035,2,0,L|446:112,1,59.9999981689454,8|0,0:0|0:0,0:0:0:0:
489,172,62430,2,0,P|474:239|491:292,1,119.999996337891,8|8,0:1|0:0,0:0:0:0:
434,343,63022,1,0,0:0:0:0:
434,343,63219,6,0,L|297:338,1,119.999996337891,8|8,0:1|0:0,0:0:0:0:
164,383,64009,2,0,L|153:311,1,59.9999981689454,8|2,0:1|0:0,0:0:0:0:
231,308,64404,2,0,L|222:249,1,59.9999981689454,8|2,0:0|0:0,0:0:0:0:
207,172,64798,38,0,P|272:134|328:129,1,119.999996337891,8|8,0:1|0:0,0:0:0:0:
160,106,65588,2,0,P|90:102|33:117,1,119.999996337891,8|8,0:1|0:0,0:0:0:0:
167,20,66377,6,0,L|235:7,1,59.9999981689454,8|2,0:1|0:0,0:0:0:0:
300,33,66772,1,8,0:0:0:0:
377,24,66969,1,0,0:0:0:0:
433,78,67167,2,0,P|453:141|447:206,1,119.999996337891,8|8,0:1|0:0,0:0:0:0:
393,333,67956,38,0,L|331:320,1,59.9999981689454,12|2,0:1|0:0,0:0:0:0:
266,359,68351,2,0,L|204:346,1,59.9999981689454,8|0,0:0|0:0,0:0:0:0:
134,317,68746,2,0,L|73:200,1,119.999996337891,8|8,0:1|0:0,0:0:0:0:
38,143,69338,1,0,0:0:0:0:
38,143,69535,6,0,P|85:100|146:87,1,119.999996337891,12|12,0:1|0:0,0:0:0:0:
280,21,70325,2,0,L|298:78,1,59.9999981689454,12|2,0:1|0:0,0:0:0:0:
370,45,70719,2,0,L|388:102,1,59.9999981689454,12|2,0:0|0:0,0:0:0:0:
398,179,71114,38,0,P|463:184|515:223,1,119.999996337891,8|8,0:1|0:0,0:0:0:0:
461,363,71904,2,0,P|396:358|344:319,1,119.999996337891,8|8,0:1|0:0,0:0:0:0:
200,290,72693,6,0,L|214:211,1,59.9999981689454,8|8,0:1|0:1,0:0:0:0:
262,170,73088,1,8,0:1:0:0:
262,170,73285,1,8,0:1:0:0:
262,170,73483,1,8,0:1:0:0:
181,34,73877,1,6,0:0:0:0:
311,35,74272,6,0,P|369:17|419:19,1,100,12|8,0:1|0:0,0:0:0:0:
446,110,75061,2,0,P|446:173|431:222,1,100,8|8,0:1|0:0,0:0:0:0:
387,295,75851,2,0,L|279:283,2,100,8|8|8,0:1|0:0|0:1,0:0:0:0:
292,328,77035,1,8,0:0:0:0:
192,342,77430,6,0,P|119:333|82:341,1,100,8|8,0:1|0:0,0:0:0:0:
40,252,78219,2,0,P|61:192|60:144,1,100,8|8,0:1|0:0,0:0:0:0:
50,56,79009,2,0,L|162:65,2,100,8|8|8,0:1|0:0|0:1,0:0:0:0:
128,118,80193,1,8,0:0:0:0:
215,167,80588,38,0,P|256:124|266:82,1,100,12|8,0:1|0:0,0:0:0:0:
365,95,81377,2,0,P|385:154|418:181,1,100,8|8,0:1|0:0,0:0:0:0:
466,262,82167,2,0,L|349:278,2,100,8|8|8,0:1|0:0|0:1,0:0:0:0:
380,313,83351,1,8,0:0:0:0:
287,352,83746,6,0,P|256:298|247:250,1,100,8|8,0:1|0:0,0:0:0:0:
148,269,84535,2,0,P|151:327|134:370,1,100,8|8,0:1|0:0,0:0:0:0:
56,305,85325,2,0,L|32:198,2,100,8|8|8,0:1|0:0|0:1,0:0:0:0:
69,205,86509,1,8,0:0:0:0:
72,105,86904,38,0,L|123:86,1,50,14|2,0:1|0:0,0:0:0:0:
158,117,87298,2,0,L|209:98,1,50,8|0,0:0|0:0,0:0:0:0:
253,87,87693,1,8,0:1:0:0:
340,135,88088,1,8,0:0:0:0:
378,42,88483,2,0,P|436:34|481:47,1,100,8|8,0:1|0:0,0:0:0:0:
510,137,89272,1,8,0:1:0:0:
507,240,89667,1,8,0:0:0:0:
468,332,90061,6,0,L|412:335,1,50,8|2,0:1|0:0,0:0:0:0:
383,298,90456,2,0,L|324:303,1,50,8|0,0:0|0:0,0:0:0:0:
283,306,90851,1,8,0:1:0:0:
292,206,91246,1,8,0:0:0:0:
196,176,91640,2,0,P|138:166|82:176,1,100,8|8,0:1|0:0,0:0:0:0:
48,258,92430,2,0,P|11:212|1:168,1,100,8|8,0:1|0:0,0:0:0:0:
30,77,93219,38,0,L|77:62,1,50,12|2,0:1|0:0,0:0:0:0:
126,49,93614,1,8,0:0:0:0:
184,130,94009,6,0,L|192:180,1,50,8|2,0:1|0:0,0:0:0:0:
240,165,94404,2,0,L|248:215,1,50,8|0,0:0|0:0,0:0:0:0:
257,263,94798,2,0,P|318:275|364:260,1,100,8|8,0:1|0:0,0:0:0:0:
425,195,95588,38,0,L|416:134,1,50,8|2,0:1|0:0,0:0:0:0:
408,96,95983,1,8,0:0:0:0:
321,45,96377,6,0,L|265:27,1,50,8|2,0:1|0:0,0:0:0:0:
230,55,96772,2,0,L|174:37,1,50,8|0,0:0|0:0,0:0:0:0:
134,24,97167,1,8,0:1:0:0:
61,92,97561,1,8,0:0:0:0:
92,186,97956,2,0,P|97:240|82:295,1,100,8|8,0:1|0:0,0:0:0:0:
162,349,98746,2,0,P|227:337|276:345,1,100,8|8,0:1|0:0,0:0:0:0:
359,348,99535,37,12,0:1:0:0:
359,348,99733,2,0,P|394:285|382:201,1,150,2|8,0:0|0:1,0:0:0:0:
484,35,101114,5,8,0:1:0:0:
484,35,101311,2,0,P|411:62|332:40,1,150,2|8,0:0|0:1,0:0:0:0:
253,1,102298,1,8,0:0:0:0:
163,46,102693,37,12,0:1:0:0:
163,46,102890,2,0,P|108:84|76:168,1,150,2|8,0:0|0:1,0:0:0:0:
5,345,104272,5,8,0:1:0:0:
5,345,104469,2,0,P|84:331|161:360,1,150,2|8,0:0|0:1,0:0:0:0:
247,335,105456,1,8,0:0:0:0:
343,360,105851,37,12,0:1:0:0:
343,360,106048,2,0,P|389:307|395:217,1,150,2|8,0:0|0:1,0:0:0:0:
286,63,107430,6,0,P|236:54|170:65,1,100,8|8,0:1|0:0,0:0:0:0:
103,113,108219,2,0,P|42:115|-10:106,1,100,8|8,0:1|0:0,0:0:0:0:
51,197,109009,38,0,L|109:202,1,50,8|2,0:1|0:0,0:0:0:0:
150,207,109404,1,8,0:0:0:0:
222,275,109798,6,0,L|158:290,1,50,8|2,0:1|0:0,0:0:0:0:
125,302,110193,1,8,0:0:0:0:
26,319,110588,37,8,0:1:0:0:
51,222,110983,1,8,0:0:0:0:
77,125,111377,1,8,0:1:0:0:
108,29,111772,1,8,0:0:0:0:
192,82,112167,6,0,P|239:97|296:88,1,100,8|8,0:1|0:0,0:0:0:0:
384,63,112956,1,8,0:1:0:0:
435,297,113746,6,0,L|363:289,1,59.9999981689454,12|2,0:1|0:0,0:0:0:0:
312,336,114140,2,0,L|240:328,1,59.9999981689454,8|0,0:0|0:0,0:0:0:0:
211,262,114535,2,0,P|134:296|117:331,1,119.999996337891,8|8,0:1|0:0,0:0:0:0:
48,291,115127,1,0,0:0:0:0:
48,291,115325,6,0,P|63:221|44:169,1,119.999996337891,8|8,0:1|0:0,0:0:0:0:
142,51,116114,2,0,L|208:38,1,59.9999981689454,8|2,0:1|0:0,0:0:0:0:
251,102,116509,2,0,L|249:170,1,59.9999981689454,8|2,0:0|0:0,0:0:0:0:
193,219,116904,38,0,P|184:291|203:343,1,119.999996337891,8|8,0:1|0:0,0:0:0:0:
353,352,117693,2,0,P|380:293|432:265,1,119.999996337891,8|8,0:1|0:0,0:0:0:0:
425,109,118483,6,0,L|363:99,1,59.9999981689454,8|2,0:1|0:0,0:0:0:0:
294,67,118877,1,8,0:0:0:0:
216,58,119075,1,0,0:0:0:0:
149,97,119272,2,0,P|100:162|93:218,1,119.999996337891,8|8,0:1|0:0,0:0:0:0:
123,352,120061,38,0,L|189:329,1,59.9999981689454,12|2,0:1|0:0,0:0:0:0:
253,356,120456,2,0,L|319:333,1,59.9999981689454,8|0,0:0|0:0,0:0:0:0:
387,344,120851,2,0,P|414:267|401:218,1,119.999996337891,8|8,0:1|0:0,0:0:0:0:
466,180,121443,1,0,0:0:0:0:
466,180,121640,6,0,P|402:142|344:143,1,119.999996337891,12|12,0:1|0:0,0:0:0:0:
218,69,122430,2,0,L|249:8,1,59.9999981689454,12|2,0:1|0:0,0:0:0:0:
322,38,122825,2,0,L|327:97,1,59.9999981689454,12|2,0:0|0:0,0:0:0:0:
259,136,123219,38,0,P|174:141|128:114,1,119.999996337891,8|8,0:1|0:0,0:0:0:0:
120,281,124009,2,0,P|70:234|50:181,1,119.999996337891,8|8,0:1|0:0,0:0:0:0:
198,238,124798,6,0,L|267:231,1,59.9999981689454,8|8,0:1|0:1,0:0:0:0:
339,275,125193,1,8,0:1:0:0:
339,275,125390,1,8,0:1:0:0:
339,275,125588,1,8,0:1:0:0:
494,259,125983,1,6,0:0:0:0:
431,146,126377,6,0,P|381:128|326:135,1,100,12|8,0:1|0:0,0:0:0:0:
291,43,127167,2,0,P|241:46|195:28,1,100,8|8,0:1|0:0,0:0:0:0:
95,18,127956,2,0,L|91:124,2,100,8|8|8,0:1|0:0|0:1,0:0:0:0:
51,108,129140,1,8,0:0:0:0:
30,207,129535,6,0,P|81:199|137:219,1,100,8|8,0:1|0:0,0:0:0:0:
162,306,130325,2,0,P|216:321|274:306,1,100,8|8,0:1|0:0,0:0:0:0:
344,261,131114,2,0,L|367:366,2,100,8|8|8,0:1|0:0|0:1,0:0:0:0:
419,195,132298,1,8,0:0:0:0:
492,126,132693,38,0,P|468:60|433:32,1,100,12|8,0:1|0:0,0:0:0:0:
364,96,133483,2,0,P|295:107|257:90,1,100,8|8,0:1|0:0,0:0:0:0:
178,53,134272,2,0,L|186:163,2,100,8|8|8,0:1|0:0|0:1,0:0:0:0:
87,96,135456,1,8,0:0:0:0:
2,148,135851,6,0,P|57:128|104:139,1,100,8|8,0:1|0:0,0:0:0:0:
154,216,136640,2,0,P|99:236|52:225,1,100,8|8,0:1|0:0,0:0:0:0:
15,204,137233,2,0,P|13:274|154:363,1,250,8|10,0:0|0:1,0:0:0:0:
246,336,138614,1,10,0:0:0:0:
301,252,139009,38,0,L|284:195,1,50,14|2,0:1|0:0,0:0:0:0:
340,177,139404,2,0,L|324:120,1,50,8|2,0:0|0:0,0:0:0:0:
308,71,139798,2,0,P|366:51|417:57,1,100,8|8,0:1|0:0,0:0:0:0:
492,134,140588,6,0,L|485:248,1,100,8|8,0:1|0:0,0:0:0:0:
483,293,141180,1,2,0:0:0:0:
434,327,141377,2,0,L|379:324,1,50,8|2,0:1|0:0,0:0:0:0:
337,362,141772,2,0,L|282:359,1,50,8|2,0:0|0:0,0:0:0:0:
234,330,142167,38,0,P|185:313|136:323,1,100,8|10,0:1|0:0,0:0:0:0:
29,370,142956,2,0,L|14:313,1,50,8|0,0:1|0:0,0:0:0:0:
3,273,143351,1,8,0:0:0:0:
93,193,143746,6,0,P|39:171|10:120,1,100,8|8,0:1|0:0,0:0:0:0:
119,78,144535,2,0,P|167:61|228:66,1,100,8|8,0:1|0:0,0:0:0:0:
328,104,145325,38,0,L|353:44,1,50,12|2,0:1|0:0,0:0:0:0:
370,2,145719,1,8,0:0:0:0:
437,101,146114,6,0,L|459:161,1,50,8|2,0:1|0:0,0:0:0:0:
474,204,146509,1,8,0:0:0:0:
357,223,146904,38,0,L|303:220,1,50,12|0,0:1|0:0,0:0:0:0:
283,275,147298,2,0,L|229:272,1,50,12|0,0:0|0:0,0:0:0:0:
202,323,147693,2,0,L|148:320,1,50,12|2,0:1|0:0,0:0:0:0:
91,318,148088,1,12,0:0:0:0:
28,215,148483,6,0,P|7:152|21:99,1,100,8|8,0:1|0:0,0:0:0:0:
128,146,149272,2,0,P|144:83|132:37,1,100,8|8,0:1|0:0,0:0:0:0:
257,54,150061,38,0,P|335:21|411:31,1,150,8|0,0:1|0:0,0:0:0:0:
438,56,150851,2,0,L|438:115,1,50,8|2,0:1|0:0,0:0:0:0:
471,143,151246,2,0,L|471:202,1,50,8|2,0:0|0:0,0:0:0:0:
471,242,151640,1,12,0:1:0:0:
20,368,154798,5,8,0:1:0:0:
20,368,155983,38,0,L|27:292,1,50,8|0,0:0|0:0,0:0:0:0:
32,268,156377,1,12,0:1:0:0:
93,189,156772,1,12,0:1:0:0:
154,110,157167,1,8,0:1:0:0:
215,31,157561,1,0,0:0:0:0:
346,115,157956,22,0,L|417:116,1,59.9999981689454,12|2,0:1|0:0,0:0:0:0:
434,193,158351,2,0,L|362:232,1,59.9999981689454,8|0,0:0|0:0,0:0:0:0:
308,189,158746,2,0,P|309:268|344:306,1,119.999996337891,8|8,0:1|0:0,0:0:0:0:
282,362,159338,1,0,0:0:0:0:
282,362,159535,6,0,P|223:333|163:335,1,119.999996337891,12|12,0:1|0:0,0:0:0:0:
66,216,160325,2,0,L|54:146,1,59.9999981689454,12|2,0:1|0:0,0:0:0:0:
122,116,160719,2,0,L|183:159,1,59.9999981689454,12|2,0:0|0:0,0:0:0:0:
143,223,161114,38,0,P|216:226|263:189,1,119.999996337891,8|8,0:1|0:0,0:0:0:0:
373,101,161904,2,0,P|333:162|342:221,1,119.999996337891,8|8,0:1|0:0,0:0:0:0:
365,359,162693,6,0,P|331:294|275:272,1,119.999996337891,12|8,0:1|0:0,0:0:0:0:
143,223,163483,2,0,P|216:226|263:189,1,119.999996337891,8|8,0:1|0:0,0:0:0:0:
306,54,164272,38,0,L|244:43,1,59.9999981689454,12|2,0:1|0:0,0:0:0:0:
171,64,164667,2,0,L|109:53,1,59.9999981689454,8|0,0:0|0:0,0:0:0:0:
37,32,165061,2,0,P|11:98|22:154,1,119.999996337891,8|8,0:1|0:0,0:0:0:0:
43,228,165654,1,0,0:0:0:0:
43,228,165851,6,0,P|51:306|25:360,1,119.999996337891,8|8,0:1|0:0,0:0:0:0:
188,358,166640,2,0,L|265:357,1,59.9999981689454,8|2,0:1|0:0,0:0:0:0:
259,279,167035,2,0,L|205:252,1,59.9999981689454,8|2,0:0|0:0,0:0:0:0:
139,295,167430,38,0,P|103:232|123:175,1,119.999996337891,8|8,0:1|0:0,0:0:0:0:
219,74,168219,2,0,P|284:82|339:52,1,119.999996337891,8|8,0:1|0:0,0:0:0:0:
468,136,169009,6,0,L|438:216,1,59.9999981689454,8|2,0:1|0:0,0:0:0:0:
387,243,169404,1,8,0:0:0:0:
310,254,169601,1,0,0:0:0:0:
243,215,169798,2,0,P|174:247|139:292,1,119.999996337891,8|8,0:1|0:0,0:0:0:0:
9,203,170588,38,0,L|-3:134,1,59.9999981689454,12|2,0:1|0:0,0:0:0:0:
68,108,170983,2,0,L|56:39,1,59.9999981689454,8|0,0:0|0:0,0:0:0:0:
131,23,171377,2,0,P|188:-1|253:3,1,119.999996337891,8|8,0:1|0:0,0:0:0:0:
317,45,171969,1,0,0:0:0:0:
317,45,172167,6,0,P|393:53|446:34,1,119.999996337891,12|12,0:1|0:0,0:0:0:0:
407,194,172956,2,0,L|427:262,1,59.9999981689454,12|2,0:1|0:0,0:0:0:0:
364,302,173351,2,0,L|306:262,1,59.9999981689454,12|2,0:0|0:0,0:0:0:0:
327,190,173746,38,0,P|247:185|193:212,1,119.999996337891,8|8,0:1|0:0,0:0:0:0:
189,44,174535,2,0,P|141:105|129:154,1,119.999996337891,8|8,0:1|0:0,0:0:0:0:
0,233,175325,6,0,L|-2:169,1,59.9999981689454,8|8,0:1|0:1,0:0:0:0:
49,112,175719,1,8,0:1:0:0:
49,112,175917,1,8,0:1:0:0:
49,112,176114,1,8,0:1:0:0:
169,12,176509,1,8,0:0:0:0:
316,63,176904,38,0,L|384:101,1,59.9999981689454,8|8,0:1|0:1,0:0:0:0:
436,155,177298,1,8,0:1:0:0:
436,155,177496,1,8,0:1:0:0:
436,155,177693,1,8,0:1:0:0:
407,308,178088,1,8,0:0:0:0:
253,333,178483,6,0,L|185:311,1,59.9999981689454,8|8,0:1|0:1,0:0:0:0:
133,361,178877,1,8,0:1:0:0:
133,361,179075,1,8,0:1:0:0:
133,361,179272,1,8,0:1:0:0:
93,209,179667,1,14,0:0:0:0:
224,219,180061,6,0,P|212:279|195:331,1,100,12|8,0:1|0:0,0:0:0:0:
97,337,180851,2,0,P|46:299|14:255,1,100,8|8,0:1|0:0,0:0:0:0:
60,168,181640,2,0,P|121:158|171:137,2,100,8|8|8,0:1|0:0|0:1,0:0:0:0:
136,102,182825,1,8,0:0:0:0:
211,36,183219,6,0,P|260:66|282:110,1,100,8|8,0:1|0:0,0:0:0:0:
344,180,184009,2,0,P|293:207|244:204,1,100,8|8,0:1|0:0,0:0:0:0:
160,229,184798,2,0,P|161:171|188:130,2,100,8|8|8,0:1|0:0|0:1,0:0:0:0:
241,287,185983,1,8,0:0:0:0:
330,333,186377,38,0,P|368:293|413:282,1,100,12|8,0:1|0:0,0:0:0:0:
415,181,187167,2,0,P|357:160|328:121,1,100,8|8,0:1|0:0,0:0:0:0:
243,176,187956,2,0,L|243:288,2,100,8|8|8,0:1|0:0|0:1,0:0:0:0:
161,118,189140,1,8,0:0:0:0:
77,64,189535,6,0,P|41:119|37:168,1,100,8|8,0:1|0:0,0:0:0:0:
82,240,190325,2,0,P|118:185|122:136,1,100,8|8,0:1|0:0,0:0:0:0:
173,65,191114,2,0,L|288:42,2,100,8|8|8,0:1|0:0|0:1,0:0:0:0:
212,156,192298,1,8,0:0:0:0:
256,245,192693,5,4,0:0:0:0:
256,192,192890,12,0,195654,0:0:0:0:
