osu file format v14

[General]
AudioFilename: audio.mp3
AudioLeadIn: 0
PreviewTime: 113746
Countdown: 0
SampleSet: Soft
StackLeniency: 0.7
Mode: 0
LetterboxInBreaks: 0
WidescreenStoryboard: 1

[Editor]
DistanceSpacing: 2
BeatDivisor: 4
GridSize: 8
TimelineZoom: 1.3

[Metadata]
Title:Venom
TitleUnicode:ベノム
Artist:merry-san
ArtistUnicode:めりーさん
Creator:Houshou Hari
Version:Hard
Source:
Tags:かいりきベア kairiki bear ボカロイド vocaloid flower japanese female cover song novelty papple104 pappl_e_104
BeatmapID:2248725
BeatmapSetID:1073331

[Difficulty]
HPDrainRate:4
CircleSize:3.5
OverallDifficulty:7
ApproachRate:8
SliderMultiplier:1.3
SliderTickRate:1

[Events]
//Background and Video events
0,0,"2019-04-01-987995.jpeg",0,0
//Break Periods
//Storyboard Layer 0 (Background)
//Storyboard Layer 1 (Fail)
//Storyboard Layer 2 (Pass)
//Storyboard Layer 3 (Foreground)
//Storyboard Layer 4 (Overlay)
//Storyboard Sound Samples

[TimingPoints]
62,394.736842105263,4,2,1,60,1,0
14272,-125,4,2,1,45,0,0
26904,-100,4,2,1,45,0,0
33219,-125,4,2,1,45,0,0
42693,-125,4,2,1,55,0,0
52956,-125,4,2,1,55,0,0
61640,-83.3333333333333,4,2,1,60,0,1
74272,-100,4,2,1,60,0,0
86904,-125,4,2,1,45,0,0
96377,-125,4,2,1,55,0,0
113746,-83.3333333333333,4,2,1,70,0,1
126377,-100,4,2,1,60,0,0
157956,-83.3333333333333,4,2,1,70,0,1
180061,-100,4,2,1,60,0,0
192693,-100,4,2,1,45,0,0
195456,-100,4,2,1,35,0,0

[Colours]
Combo1 : 255,128,192
Combo2 : 128,128,192
Combo3 : 0,128,192
Combo4 : 255,0,128

[HitObjects]
131,97,1246,37,2,0:0:0:0:
306,46,1640,22,0,L|315:121,1,65,12|2,0:1|0:0,0:0:0:0:
396,128,2035,2,0,L|405:203,1,65,8|0,0:0|0:0,0:0:0:0:
331,237,2430,2,0,L|345:348,1,97.5,8|0,0:1|0:0,0:0:0:0:
343,333,2825,1,10,0:0:0:0:
256,304,3022,6,0,P|188:292|129:321,1,130,0|2,0:0|0:0,0:0:0:0:
50,327,3614,2,0,L|44:253,1,65,8|0,0:0|0:0,0:0:0:0:
52,171,4009,1,8,0:1:0:0:
52,171,4404,1,8,0:0:0:0:
52,171,4798,38,0,L|128:179,1,65,8|2,0:1|0:0,0:0:0:0:
168,110,5193,2,0,L|244:118,1,65,8|0,0:0|0:0,0:0:0:0:
256,198,5588,2,0,L|361:209,1,97.5,8|0,0:1|0:0,0:0:0:0:
353,208,5983,1,8,0:0:0:0:
426,154,6180,6,0,P|441:225|415:278,1,130,2|2,0:0|0:0,0:0:0:0:
349,324,6772,2,0,L|267:310,1,65,8|0,0:0|0:0,0:0:0:0:
196,335,7167,1,8,0:1:0:0:
196,335,7561,1,8,0:0:0:0:
196,335,7956,38,0,L|189:260,1,65,12|2,0:1|0:0,0:0:0:0:
111,239,8351,2,0,L|104:164,1,65,8|0,0:0|0:0,0:0:0:0:
178,132,8746,2,0,L|167:25,1,97.5,8|0,0:1|0:0,0:0:0:0:
168,35,9140,1,8,0:0:0:0:
253,67,9338,6,0,P|315:33|375:45,1,130,2|2,0:0|0:0,0:0:0:0:
444,84,9930,2,0,L|436:155,1,65,8|0,0:0|0:0,0:0:0:0:
408,235,10325,1,8,0:1:0:0:
408,235,10719,1,8,0:0:0:0:
408,235,11114,38,0,L|335:224,1,65,8|2,0:1|0:0,0:0:0:0:
290,291,11509,2,0,L|217:280,1,65,8|0,0:0|0:0,0:0:0:0:
189,204,11904,2,0,L|75:186,1,97.5,8|2,0:1|0:0,0:0:0:0:
92,188,12298,1,8,0:0:0:0:
18,242,12496,6,0,P|6:180|32:122,1,130,2|2,0:0|0:0,0:0:0:0:
94,62,13088,2,0,L|166:70,1,65,8|0,0:0|0:0,0:0:0:0:
238,41,13483,1,8,0:1:0:0:
238,41,13877,2,0,B|285:22|285:22|345:30,1,97.5,8|0,0:0|0:0,0:0:0:0:
331,28,14272,38,0,L|336:92,1,52,12|2,0:1|0:0,0:0:0:0:
404,114,14667,2,0,L|408:166,1,52,8|0,0:0|0:0,0:0:0:0:
358,225,15061,2,0,P|315:214|277:219,1,78,8|2,0:1|0:0,0:0:0:0:
263,225,15456,1,8,0:0:0:0:
171,224,15654,5,2,0:0:0:0:
171,224,15752,1,0,0:0:0:0:
171,224,15851,2,0,L|159:288,1,52,8|0,0:1|0:0,0:0:0:0:
146,358,16246,2,0,P|203:381|250:377,2,104,8|8|8,0:0|0:1|0:0,0:0:0:0:
28,248,17430,38,0,L|16:192,1,52,8|0,0:1|0:0,0:0:0:0:
73,142,17825,2,0,L|62:91,1,52,8|0,0:0|0:0,0:0:0:0:
48,14,18219,2,0,P|90:-3|135:5,1,78,8|0,0:1|0:0,0:0:0:0:
158,14,18614,1,10,0:0:0:0:
243,34,18811,5,0,0:0:0:0:
243,34,18910,1,2,0:0:0:0:
243,34,19009,2,0,L|244:95,1,52,8|2,0:1|0:0,0:0:0:0:
324,50,19404,2,0,L|324:102,1,52,8|0,0:0|0:0,0:0:0:0:
403,64,19798,2,0,L|401:149,1,78,8|0,0:1|0:0,0:0:0:0:
401,141,20193,1,8,0:0:0:0:
365,282,20588,38,0,P|395:283|428:277,1,52,12|0,0:1|0:0,0:0:0:0:
488,266,20983,1,8,0:0:0:0:
343,282,21377,6,0,P|357:308|378:334,1,52,8|0,0:1|0:0,0:0:0:0:
417,382,21772,1,8,0:0:0:0:
320,272,22167,38,0,P|304:297|292:329,1,52,8|0,0:1|0:0,0:0:0:0:
265,384,22562,1,8,0:0:0:0:
316,247,22956,6,0,P|286:246|252:252,1,52,8|0,0:1|0:0,0:0:0:0:
194,271,23351,1,8,0:0:0:0:
51,185,23746,38,0,L|47:134,1,52,8|0,0:1|0:0,0:0:0:0:
127,112,24140,2,0,L|123:60,1,52,8|0,0:0|0:0,0:0:0:0:
206,43,24535,2,0,P|245:27|293:25,1,78,8|0,0:1|0:0,0:0:0:0:
280,23,24930,1,10,0:0:0:0:
354,60,25127,1,8,0:0:0:0:
430,25,25325,6,0,P|436:55|435:82,1,52,8|2,0:1|0:0,0:0:0:0:
471,151,25719,2,0,P|463:192|465:219,1,52,8|0,0:0|0:0,0:0:0:0:
457,285,26114,2,0,P|414:277|373:288,1,78,8|0,0:1|0:0,0:0:0:0:
381,284,26509,1,8,0:0:0:0:
298,281,26706,1,0,0:0:0:0:
266,361,26904,38,0,L|202:348,1,65,12|2,0:1|0:0,0:0:0:0:
118,353,27298,2,0,L|54:340,1,65,8|0,0:0|0:0,0:0:0:0:
12,267,27693,2,0,P|6:195|30:148,1,97.5,8|0,0:1|0:0,0:0:0:0:
14,172,28088,1,8,0:0:0:0:
109,155,28285,6,0,P|132:84|115:25,1,130,2|2,0:0|0:0,0:0:0:0:
202,18,28877,2,0,L|278:20,1,65,8|0,0:0|0:0,0:0:0:0:
360,49,29272,1,8,0:1:0:0:
360,49,29667,1,8,0:0:0:0:
360,49,30061,38,0,L|370:124,1,65,8|2,0:1|0:0,0:0:0:0:
437,163,30456,2,0,L|447:238,1,65,8|0,0:0|0:0,0:0:0:0:
457,311,30851,2,0,P|397:353|362:354,1,97.5,8|0,0:1|0:0,0:0:0:0:
374,355,31246,1,8,0:0:0:0:
284,317,31443,6,0,P|217:307|152:340,1,130,2|2,0:0|0:0,0:0:0:0:
86,291,32035,2,0,L|75:219,1,65,8|0,0:0|0:0,0:0:0:0:
84,129,32430,1,8,0:1:0:0:
84,129,32825,2,0,B|132:135|132:135|188:108,1,97.5,8|0,0:0|0:0,0:0:0:0:
176,113,33219,38,0,L|173:54,1,52,12|2,0:1|0:0,0:0:0:0:
250,72,33614,2,0,L|248:21,1,52,8|0,0:0|0:0,0:0:0:0:
326,18,34009,2,0,P|367:10|408:15,1,78,8|2,0:1|0:0,0:0:0:0:
402,13,34404,1,8,0:0:0:0:
474,79,34601,5,2,0:0:0:0:
474,79,34700,1,0,0:0:0:0:
474,79,34798,2,0,P|482:106|480:139,1,52,8|0,0:1|0:0,0:0:0:0:
408,171,35193,2,0,P|403:226|419:280,2,104,8|8|8,0:0|0:1|0:0,0:0:0:0:
512,286,36377,38,0,L|460:291,1,52,8|2,0:1|0:0,0:0:0:0:
417,356,36772,2,0,L|366:362,1,52,8|0,0:0|0:0,0:0:0:0:
321,297,37167,2,0,P|281:279|232:284,1,78,8|2,0:1|0:0,0:0:0:0:
247,279,37561,1,8,0:0:0:0:
176,307,37759,5,0,0:0:0:0:
176,307,37858,1,2,0:0:0:0:
176,307,37956,2,0,L|163:249,1,52,8|2,0:1|0:0,0:0:0:0:
98,302,38351,2,0,L|85:238,1,52,8|2,0:0|0:0,0:0:0:0:
18,289,38746,2,0,L|-1:191,1,78,8|0,0:1|0:0,0:0:0:0:
3,212,39140,1,8,0:0:0:0:
121,126,39535,38,0,P|109:96|91:78,1,52,12|0,0:1|0:0,0:0:0:0:
39,34,39930,1,8,0:0:0:0:
151,126,40325,6,0,P|170:100|177:76,1,52,8|0,0:1|0:0,0:0:0:0:
191,10,40719,1,8,0:0:0:0:
172,154,41114,38,0,P|203:158|228:152,1,52,8|0,0:1|0:0,0:0:0:0:
288,122,41509,1,8,0:0:0:0:
162,195,41904,6,0,P|173:225|191:243,1,52,8|0,0:1|0:0,0:0:0:0:
247,278,42298,1,8,0:0:0:0:
363,365,42693,38,0,L|366:305,1,52,8|0,0:1|0:0,0:0:0:0:
443,311,43088,2,0,L|446:260,1,52,8|0,0:0|0:0,0:0:0:0:
445,180,43483,2,0,P|410:153|368:143,1,78,8|0,0:1|0:0,0:0:0:0:
377,143,43877,1,8,0:0:0:0:
300,128,44075,1,8,0:0:0:0:
229,160,44272,6,0,P|192:154|172:154,1,52,8|2,0:1|0:0,0:0:0:0:
117,204,44667,2,0,P|81:207|54:202,1,52,8|0,0:0|0:0,0:0:0:0:
38,132,45061,2,0,L|31:66,1,52,8|0,0:1|0:0,0:0:0:0:
93,16,45456,1,8,0:0:0:0:
93,16,45851,38,0,L|150:20,1,52,12|0,0:1|0:0,0:0:0:0:
237,54,46246,1,8,0:0:0:0:
237,54,46344,1,0,0:0:0:0:
237,54,46443,1,2,0:0:0:0:
332,30,46640,1,8,0:1:0:0:
332,30,47035,6,0,L|343:120,1,78
341,107,47430,2,0,L|401:104,1,52,8|0,0:1|0:0,0:0:0:0:
473,161,47825,2,0,L|475:205,2,26,8|0|2,0:0|0:0|0:0,0:0:0:0:
418,243,48219,2,0,L|420:297,1,52,8|0,0:1|0:0,0:0:0:0:
336,322,48614,2,0,P|283:311|250:314,1,78,8|0,0:0|0:0,0:0:0:0:
259,312,49009,38,0,L|251:253,1,52,12|0,0:1|0:0,0:0:0:0:
165,212,49404,1,8,0:0:0:0:
165,212,49502,1,0,0:0:0:0:
165,212,49601,1,2,0:0:0:0:
96,282,49798,1,8,0:1:0:0:
96,282,50193,6,0,L|68:205,1,78
69,208,50588,2,0,P|33:191|9:188,1,52,8|0,0:1|0:0,0:0:0:0:
93,121,50983,2,0,P|118:102|129:83,1,52,8|2,0:0|0:0,0:0:0:0:
196,12,51377,2,0,L|203:70,1,52,8|8,0:1|0:0,0:0:0:0:
291,107,51772,2,0,P|337:80|368:80,1,78,8|0,0:0|0:0,0:0:0:0:
360,78,52167,38,0,L|362:42,2,26,12|0|0,0:1|0:0|0:0,0:0:0:0:
458,79,52561,2,0,L|453:46,2,26,8|0|2,0:0|0:0|0:0,0:0:0:0:
411,166,52956,1,8,0:1:0:0:
411,166,53351,6,0,L|412:253,1,78
411,243,53746,2,0,P|363:236|340:237,1,52,8|2,0:1|0:0,0:0:0:0:
322,310,54140,2,0,P|291:308|261:301,1,52,8|2,0:0|0:0,0:0:0:0:
211,245,54535,1,0,0:0:0:0:
173,319,54733,1,0,0:0:0:0:
117,257,54930,1,0,0:0:0:0:
67,323,55127,1,0,0:0:0:0:
34,247,55325,38,0,L|44:190,1,52,8|0,0:1|0:0,0:0:0:0:
59,109,55719,1,8,0:0:0:0:
59,109,55917,1,0,0:0:0:0:
124,49,56114,6,0,L|175:52,1,52,8|0,0:1|0:0,0:0:0:0:
260,79,56509,1,8,0:0:0:0:
260,79,56706,1,0,0:0:0:0:
347,83,56904,38,0,L|411:75,1,52,8|2,0:1|0:0,0:0:0:0:
359,172,57298,2,0,L|423:164,1,52,8|2,0:0|0:0,0:0:0:0:
377,264,57693,2,0,L|441:256,1,52,8|0,0:1|0:0,0:0:0:0:
428,257,57989,1,2,0:0:0:0:
428,257,58088,1,8,0:0:0:0:
221,283,58483,6,0,P|212:329|226:384,1,104,8|8,0:1|0:0,0:0:0:0:
91,303,59272,2,0,P|100:228|86:187,1,104,8|8,0:1|0:0,0:0:0:0:
33,56,60061,38,0,L|97:61,3,52,8|8|8|8,0:1|0:1|0:1|0:1,0:0:0:0:
153,130,60851,2,0,P|180:75|172:14,1,104,8|8,0:1|0:0,0:0:0:0:
302,37,61640,22,0,P|339:23|382:26,1,77.999997619629,12|2,0:1|0:0,0:0:0:0:
502,80,62035,2,0,P|465:94|422:91,1,77.999997619629,8|0,0:0|0:0,0:0:0:0:
351,103,62430,2,0,L|348:192,1,77.999997619629,8|2,0:1|0:0,0:0:0:0:
407,261,62825,1,8,0:0:0:0:
441,173,63022,1,0,0:0:0:0:
309,223,63219,6,0,L|319:304,1,77.999997619629,8|0,0:1|0:0,0:0:0:0:
266,378,63614,2,0,P|203:366|129:385,1,116.999996429443,8|0,0:0|0:0,0:0:0:0:
151,375,64009,2,0,L|137:294,1,77.999997619629,8|2,0:1|0:0,0:0:0:0:
6,278,64404,2,0,L|19:354,1,77.999997619629,8|2,0:0|0:0,0:0:0:0:
73,234,64798,38,0,P|27:198|-5:197,1,77.999997619629,8|0,0:1|0:0,0:0:0:0:
141,184,65193,2,0,P|163:152|207:136,1,77.999997619629,8|0,0:0|0:0,0:0:0:0:
88,95,65588,2,0,L|81:9,1,77.999997619629,8|2,0:1|0:0,0:0:0:0:
89,17,65884,1,0,0:0:0:0:
89,17,65983,2,0,P|138:10|173:17,1,77.999997619629,8|0,0:0|0:0,0:0:0:0:
321,77,66377,5,8,0:1:0:0:
236,62,66575,1,2,0:0:0:0:
186,132,66772,2,0,P|234:146|267:143,1,77.999997619629,8|0,0:0|0:0,0:0:0:0:
246,225,67167,2,0,L|241:313,1,77.999997619629,8|2,0:1|0:0,0:0:0:0:
322,367,67561,2,0,L|326:289,1,77.999997619629,8|2,0:0|0:0,0:0:0:0:
460,245,67956,38,0,P|423:230|373:234,1,77.999997619629,12|2,0:1|0:0,0:0:0:0:
251,274,68351,2,0,P|288:289|338:285,1,77.999997619629,8|0,0:0|0:0,0:0:0:0:
303,206,68746,2,0,L|283:115,1,77.999997619629,8|2,0:1|0:0,0:0:0:0:
183,80,69140,1,8,0:0:0:0:
165,172,69338,1,0,0:0:0:0:
191,260,69535,6,0,L|198:344,1,77.999997619629,12|0,0:1|0:0,0:0:0:0:
80,273,69930,2,0,L|73:195,1,77.999997619629,12|0,0:0|0:0,0:0:0:0:
76,70,70325,2,0,P|122:60|160:68,1,77.999997619629,12|2,0:1|0:0,0:0:0:0:
251,152,70719,2,0,P|205:162|167:154,1,77.999997619629,12|2,0:0|0:0,0:0:0:0:
269,62,71114,38,0,P|356:73|390:99,1,116.999996429443,8|2,0:1|0:0,0:0:0:0:
378,88,71509,2,0,L|398:9,1,77.999997619629,8|0,0:0|0:0,0:0:0:0:
471,122,71904,2,0,P|424:188|377:193,1,116.999996429443,8|2,0:1|0:0,0:0:0:0:
392,194,72298,2,0,L|408:278,1,77.999997619629,8|0,0:0|0:0,0:0:0:0:
315,367,72693,6,0,B|277:351|277:351|230:357,3,77.999997619629,8|8|8|8,0:1|0:1|0:1|0:1,0:0:0:0:
144,349,73483,1,8,0:1:0:0:
156,266,73680,38,0,L|162:217,2,38.9999988098145,8|0|6,0:1|0:0|0:0,0:0:0:0:
44,117,74272,22,0,L|120:110,1,65,12|2,0:1|0:0,0:0:0:0:
174,38,74667,2,0,L|250:31,1,65,8|0,0:0|0:0,0:0:0:0:
299,107,75061,2,0,L|415:93,1,97.5,8|0,0:1|0:0,0:0:0:0:
395,95,75456,1,8,0:0:0:0:
399,239,75654,6,0,P|474:243|518:294,1,130,2|2,0:0|0:0,0:0:0:0:
429,332,76246,2,0,P|387:339|343:329,1,65,8|0,0:0|0:0,0:0:0:0:
268,300,76640,1,8,0:1:0:0:
268,300,77035,1,8,0:0:0:0:
268,300,77430,38,0,L|297:390,1,65,8|2,0:1|0:0,0:0:0:0:
166,284,77825,2,0,L|195:374,1,65,8|0,0:0|0:0,0:0:0:0:
60,266,78219,2,0,L|88:372,1,97.5,8|0,0:1|0:0,0:0:0:0:
84,360,78614,1,8,0:0:0:0:
156,248,78811,6,0,P|118:194|45:176,1,130,2|2,0:0|0:0,0:0:0:0:
7,91,79404,2,0,L|82:74,1,65,8|0,0:0|0:0,0:0:0:0:
186,57,79798,1,8,0:1:0:0:
186,57,80193,1,8,0:0:0:0:
186,57,80588,38,0,P|206:84|211:129,1,65,12|2,0:1|0:0,0:0:0:0:
287,177,80983,2,0,P|291:137|305:111,1,65,8|0,0:0|0:0,0:0:0:0:
394,85,81377,2,0,P|428:118|444:180,1,97.5,8|0,0:1|0:0,0:0:0:0:
443,164,81772,1,8,0:0:0:0:
349,258,81969,6,0,P|348:314|392:382,1,130,2|2,0:0|0:0,0:0:0:0:
448,303,82561,2,0,P|449:263|431:231,1,65,8|0,0:0|0:0,0:0:0:0:
365,163,82956,1,8,0:1:0:0:
365,163,83351,1,8,0:0:0:0:
365,163,83746,38,0,L|293:174,1,65,8|2,0:1|0:0,0:0:0:0:
270,265,84140,2,0,L|198:276,1,65,8|0,0:0|0:0,0:0:0:0:
130,212,84535,2,0,L|16:230,1,97.5,8|0,0:1|0:0,0:0:0:0:
33,227,84930,1,8,0:0:0:0:
41,95,85127,6,0,P|85:53|158:51,1,130,2|0,0:0|0:0,0:0:0:0:
249,53,85719,2,0,L|249:13,2,32.5,8|0|0,0:0|0:0|0:0,0:0:0:0:
346,41,86114,2,0,P|365:84|365:108,1,65,8|0,0:1|0:0,0:0:0:0:
392,196,86509,2,0,P|436:171|492:178,1,97.5,8|0,0:0|0:0,0:0:0:0:
481,173,86904,38,0,L|492:235,1,52,14|2,0:1|0:0,0:0:0:0:
432,291,87298,2,0,L|442:352,1,52,8|0,0:0|0:0,0:0:0:0:
352,354,87693,2,0,P|313:344|260:350,1,78,8|2,0:1|0:0,0:0:0:0:
275,345,88088,1,8,0:0:0:0:
174,370,88285,5,2,0:0:0:0:
174,370,88384,1,0,0:0:0:0:
174,370,88483,2,0,L|110:356,1,52,8|2,0:1|0:0,0:0:0:0:
60,296,88877,2,0,P|68:236|39:189,2,104,8|8|8,0:0|0:1|0:0,0:0:0:0:
143,105,90061,38,0,L|197:91,1,52,8|2,0:1|0:0,0:0:0:0:
232,12,90456,2,0,L|286:-2,1,52,8|0,0:0|0:0,0:0:0:0:
321,78,90851,2,0,P|361:71|410:78,1,78,8|2,0:1|0:0,0:0:0:0:
397,74,91246,1,8,0:0:0:0:
454,160,91443,5,0,0:0:0:0:
454,160,91542,1,0,0:0:0:0:
454,160,91640,2,0,L|460:222,1,52,8|2,0:1|0:0,0:0:0:0:
338,244,92035,1,8,0:0:0:0:
452,294,92233,1,0,0:0:0:0:
344,357,92430,2,0,P|281:359|230:335,1,104,8|8,0:1|0:0,0:0:0:0:
98,194,93219,38,0,L|98:259,1,52,12|2,0:1|0:0,0:0:0:0:
138,325,93614,1,8,0:0:0:0:
190,155,94009,6,0,L|190:90,1,52,8|2,0:1|0:0,0:0:0:0:
150,24,94404,2,0,L|98:23,1,52,8|0,0:0|0:0,0:0:0:0:
60,102,94798,2,0,L|114:102,1,52,8|2,0:1|0:0,0:0:0:0:
216,102,95193,2,0,P|245:95|272:96,1,52,8|0,0:0|0:0,0:0:0:0:
373,166,95588,2,0,P|343:169|316:166,1,52,8|2,0:1|0:0,0:0:0:0:
348,86,95983,2,0,P|367:33|391:13,1,78,8|0,0:0|0:0,0:0:0:0:
385,17,96377,38,0,L|448:9,1,52,8|2,0:1|0:0,0:0:0:0:
482,100,96772,2,0,L|430:106,1,52,8|0,0:0|0:0,0:0:0:0:
413,198,97167,2,0,P|410:240|424:292,1,78,8|2,0:1|0:0,0:0:0:0:
417,274,97561,1,8,0:0:0:0:
476,360,97759,1,8,0:0:0:0:
372,369,97956,6,0,L|314:358,1,52,8|2,0:1|0:0,0:0:0:0:
236,297,98351,2,0,L|176:284,1,52,8|0,0:0|0:0,0:0:0:0:
109,214,98746,2,0,L|93:277,1,52,8|0,0:1|0:0,0:0:0:0:
72,365,99140,1,8,0:0:0:0:
72,365,99535,38,0,P|50:347|35:321,1,52,12|2,0:1|0:0,0:0:0:0:
5,231,99930,1,8,0:0:0:0:
5,231,100028,1,0,0:0:0:0:
5,231,100127,1,2,0:0:0:0:
69,123,100325,1,8,0:1:0:0:
69,123,100719,6,0,L|155:117,1,78,8|0,0:0|0:0,0:0:0:0:
146,117,101114,2,0,P|146:83|151:59,1,52,8|2,0:1|0:0,0:0:0:0:
234,6,101509,1,8,0:0:0:0:
234,6,101608,1,0,0:0:0:0:
234,6,101706,1,2,0:0:0:0:
342,78,101904,2,0,L|398:74,1,52,8|0,0:1|0:0,0:0:0:0:
477,135,102298,1,8,0:0:0:0:
477,135,102693,38,0,P|482:160|483:205,1,52,12|2,0:1|0:0,0:0:0:0:
405,291,103088,1,8,0:0:0:0:
405,291,103186,1,0,0:0:0:0:
405,291,103285,1,2,0:0:0:0:
302,312,103483,1,8,0:1:0:0:
302,312,103877,6,0,L|211:308,1,78,8|0,0:0|0:0,0:0:0:0:
224,308,104272,2,0,P|228:276|227:245,1,52,8|2,0:1|0:0,0:0:0:0:
123,254,104667,2,0,P|121:215|122:190,1,52,8|2,0:0|0:0,0:0:0:0:
232,157,105061,2,0,P|206:137|185:104,1,52,8|10,0:1|0:0,0:0:0:0:
147,12,105456,2,0,P|212:9|233:14,1,78,8|0,0:0|0:0,0:0:0:0:
224,11,105851,38,0,L|242:45,2,26,12|0|2,0:1|0:0|0:0,0:0:0:0:
282,98,106246,2,0,L|264:131,2,26,8|0|2,0:0|0:0|0:0,0:0:0:0:
330,6,106640,1,8,0:1:0:0:
330,6,107035,6,0,L|408:38,1,78,8|0,0:0|0:0,0:0:0:0:
402,35,107430,2,0,P|399:63|406:98,1,52,8|2,0:1|0:0,0:0:0:0:
506,98,107825,2,0,P|509:125|502:160,1,52,8|0,0:0|0:0,0:0:0:0:
494,242,108219,1,8,0:1:0:0:
437,316,108417,1,2,0:0:0:0:
406,230,108614,1,8,0:0:0:0:
346,301,108811,1,2,0:0:0:0:
310,214,109009,38,0,P|281:223|254:244,1,52,8|2,0:1|0:0,0:0:0:0:
180,296,109404,1,8,0:0:0:0:
180,296,109601,1,0,0:0:0:0:
162,193,109798,6,0,P|179:160|199:139,1,52,8|2,0:1|0:0,0:0:0:0:
261,74,110193,1,8,0:0:0:0:
261,74,110390,1,0,0:0:0:0:
140,57,110588,38,0,L|77:69,1,52,8|2,0:1|0:0,0:0:0:0:
132,190,110983,2,0,L|69:202,1,52,8|2,0:0|0:0,0:0:0:0:
124,323,111377,2,0,L|61:335,1,52,8|0,0:1|0:0,0:0:0:0:
72,332,111673,1,2,0:0:0:0:
72,332,111772,1,8,0:0:0:0:
292,236,112167,6,0,B|404:246,2,104,8|8|8,0:1|0:0|0:1,0:0:0:0:
224,156,113154,1,0,0:0:0:0:
224,156,113252,1,2,0:0:0:0:
224,156,113351,2,0,P|208:110|216:61,1,78,8|0,0:0|0:0,0:0:0:0:
209,81,113746,6,0,P|253:55|282:50,1,77.999997619629,12|2,0:1|0:0,0:0:0:0:
404,93,114140,2,0,P|360:119|331:124,1,77.999997619629,8|0,0:0|0:0,0:0:0:0:
256,189,114535,2,0,L|246:281,1,77.999997619629,8|2,0:1|0:0,0:0:0:0:
318,349,114930,1,8,0:0:0:0:
349,252,115127,1,0,0:0:0:0:
219,338,115325,6,0,L|137:323,1,77.999997619629,8|0,0:1|0:0,0:0:0:0:
22,266,115719,2,0,P|80:208|128:212,1,116.999996429443,8|0,0:0|0:0,0:0:0:0:
110,207,116114,2,0,P|123:162|116:127,1,77.999997619629,8|2,0:1|0:0,0:0:0:0:
26,35,116509,2,0,P|13:80|20:115,1,77.999997619629,8|2,0:0|0:0,0:0:0:0:
124,29,116904,38,0,L|217:24,1,77.999997619629,8|0,0:1|0:0,0:0:0:0:
305,106,117298,2,0,L|227:110,1,77.999997619629,8|0,0:0|0:0,0:0:0:0:
341,37,117693,2,0,P|365:46|393:94,1,77.999997619629,8|2,0:1|0:0,0:0:0:0:
392,88,117989,1,0,0:0:0:0:
392,88,118088,2,0,P|452:81|481:89,1,77.999997619629,8|0,0:0|0:0,0:0:0:0:
431,187,118483,5,8,0:1:0:0:
489,278,118680,1,2,0:0:0:0:
391,348,118877,2,0,P|399:304|388:254,1,77.999997619629,8|0,0:0|0:0,0:0:0:0:
301,285,119272,2,0,L|197:284,1,77.999997619629,8|2,0:1|0:0,0:0:0:0:
138,366,119667,2,0,L|215:366,1,77.999997619629,8|2,0:0|0:0,0:0:0:0:
112,281,120061,38,0,P|69:297|45:324,1,77.999997619629,12|2,0:1|0:0,0:0:0:0:
26,199,120456,2,0,P|16:149|-4:121,1,77.999997619629,8|0,0:0|0:0,0:0:0:0:
109,49,120851,2,0,L|201:83,1,77.999997619629,8|2,0:1|0:0,0:0:0:0:
227,186,121246,1,8,0:0:0:0:
151,155,121443,1,0,0:0:0:0:
259,104,121640,6,0,P|297:91|345:95,1,77.999997619629,12|0,0:1|0:0,0:0:0:0:
418,156,122035,2,0,P|380:169|332:165,1,77.999997619629,12|0,0:0|0:0,0:0:0:0:
260,272,122430,2,0,L|266:355,1,77.999997619629,12|2,0:1|0:0,0:0:0:0:
350,247,122825,2,0,L|344:169,1,77.999997619629,12|2,0:0|0:0,0:0:0:0:
193,176,123219,38,0,P|112:217|89:253,1,116.999996429443,8|2,0:1|0:0,0:0:0:0:
97,236,123614,2,0,L|44:170,1,77.999997619629,8|0,0:0|0:0,0:0:0:0:
109,57,124009,2,0,P|189:87|228:66,1,116.999996429443,8|2,0:1|0:0,0:0:0:0:
213,77,124404,2,0,L|249:0,1,77.999997619629,8|0,0:0|0:0,0:0:0:0:
362,68,124798,6,0,B|399:50|399:50|458:60,3,77.999997619629,8|8|8|8,0:1|0:1|0:1|0:1,0:0:0:0:
500,137,125588,1,8,0:1:0:0:
501,231,125785,38,0,L|502:274,2,38.9999988098145,8|0|6,0:1|0:0|0:0,0:0:0:0:
327,332,126377,22,0,L|256:322,1,65,12|0,0:1|0:0,0:0:0:0:
161,348,126772,2,0,L|90:338,1,65,8|0,0:0|0:0,0:0:0:0:
44,248,127167,2,0,P|26:197|39:134,1,97.5,8|2,0:1|0:0,0:0:0:0:
30,154,127561,1,8,0:0:0:0:
139,58,127759,6,0,P|161:121|147:186,1,130,2|2,0:0|0:0,0:0:0:0:
249,132,128351,2,0,P|292:122|318:125,1,65,8|0,0:0|0:0,0:0:0:0:
415,140,128746,1,8,0:1:0:0:
415,140,129140,1,8,0:0:0:0:
432,347,129535,38,0,L|431:270,1,65,8|0,0:1|0:0,0:0:0:0:
508,212,129930,2,0,L|507:135,1,65,8|0,0:0|0:0,0:0:0:0:
435,70,130325,2,0,P|367:45|331:46,1,97.5,8|2,0:1|0:0,0:0:0:0:
342,44,130719,1,8,0:0:0:0:
290,135,130917,6,0,P|211:119|180:75,1,130,2|2,0:0|0:0,0:0:0:0:
95,25,131509,2,0,L|87:89,1,65,8|0,0:0|0:0,0:0:0:0:
105,200,131904,1,8,0:1:0:0:
105,200,132298,1,8,0:0:0:0:
242,356,132693,38,0,L|309:349,1,65,12|0,0:1|0:0,0:0:0:0:
409,368,133088,2,0,L|476:361,1,65,8|0,0:0|0:0,0:0:0:0:
491,258,133483,2,0,P|478:204|497:161,1,97.5,8|2,0:1|0:0,0:0:0:0:
492,166,133877,1,8,0:0:0:0:
453,69,134075,6,0,P|385:42|313:52,1,130,2|2,0:0|0:0,0:0:0:0:
233,88,134667,2,0,P|179:78|162:65,1,65,8|0,0:0|0:0,0:0:0:0:
42,57,135061,1,8,0:1:0:0:
42,57,135456,1,8,0:0:0:0:
47,265,135851,38,0,L|118:285,1,65,8|0,0:1|0:0,0:0:0:0:
204,238,136246,2,0,L|275:258,1,65,8|0,0:0|0:0,0:0:0:0:
307,351,136640,2,0,P|370:319|390:297,1,97.5,8|2,0:1|0:0,0:0:0:0:
387,299,137035,1,8,0:0:0:0:
376,196,137233,6,0,P|417:139|428:67,1,130,8|2,0:0|0:0,0:0:0:0:
344,19,137825,2,0,L|274:18,1,65,8|0,0:0|0:0,0:0:0:0:
181,14,138219,2,0,L|170:48,3,32.5,10|2|0|2,0:1|0:0|0:0|0:0,0:0:0:0:
196,86,138614,2,0,L|182:136,3,32.5,10|2|2|0,0:0|0:0|0:0|0:0,0:0:0:0:
149,148,139009,38,0,P|111:154|84:167,1,65,14|2,0:1|0:0,0:0:0:0:
122,290,139404,2,0,P|135:254|138:224,1,65,8|2,0:0|0:0,0:0:0:0:
13,195,139798,1,8,0:1:0:0:
36,296,139996,1,2,0:0:0:0:
138,227,140193,1,8,0:0:0:0:
163,327,140390,1,2,0:0:0:0:
267,319,140588,6,0,P|304:307|340:306,1,65,8|2,0:1|0:0,0:0:0:0:
421,356,140983,2,0,P|459:350|492:337,1,65,8|2,0:0|0:0,0:0:0:0:
483,340,141279,1,0,0:0:0:0:
483,340,141377,2,0,L|475:252,1,65,8|2,0:1|0:0,0:0:0:0:
468,158,141772,1,8,0:0:0:0:
363,209,141969,1,2,0:0:0:0:
336,95,142167,38,0,P|304:86|266:90,1,65,8|0,0:1|0:0,0:0:0:0:
187,147,142561,2,0,P|154:157|112:150,1,65,10|2,0:0|0:0,0:0:0:0:
44,87,142956,2,0,L|35:14,1,65,8|0,0:1|0:0,0:0:0:0:
36,22,143252,1,2,0:0:0:0:
36,22,143351,1,8,0:0:0:0:
133,57,143548,1,2,0:0:0:0:
187,147,143746,6,0,P|204:193|189:258,1,97.5,8|8,0:1|0:1,0:0:0:0:
197,240,144140,2,0,L|270:234,1,65,0|10,0:0|0:0,0:0:0:0:
215,327,144535,2,0,L|100:339,2,97.5,8|0|2,0:1|0:0|0:0,0:0:0:0:
313,361,145325,38,0,L|301:315,2,32.5,12|0|2,0:1|0:0|0:0,0:0:0:0:
416,321,145719,2,0,L|425:275,2,32.5,8|0|2,0:0|0:0|0:0,0:0:0:0:
334,245,146114,2,0,L|322:199,2,32.5,8|0|2,0:1|0:0|0:0,0:0:0:0:
435,199,146509,2,0,L|444:153,2,32.5,8|0|2,0:0|0:0|0:0,0:0:0:0:
376,93,146904,6,0,P|326:78|271:91,1,97.5,12|2,0:1|0:0,0:0:0:0:
282,85,147298,2,0,L|262:17,1,65,12|0,0:0|0:0,0:0:0:0:
198,136,147693,2,0,L|141:87,1,65,12|2,0:1|0:0,0:0:0:0:
60,26,148088,1,12,0:0:0:0:
60,26,148483,37,8,0:1:0:0:
47,135,148680,1,2,0:0:0:0:
148,93,148877,1,8,0:0:0:0:
145,203,149075,1,0,0:0:0:0:
252,175,149272,2,0,P|276:201|281:237,1,65,8|2,0:1|0:0,0:0:0:0:
392,235,149667,2,0,P|386:270|368:298,1,65,8|0,0:0|0:0,0:0:0:0:
286,354,150061,6,0,B|144:284|159:399|32:342,1,260,8|8,0:1|0:1,0:0:0:0:
26,247,151048,1,2,0:0:0:0:
26,247,151147,1,0,0:0:0:0:
26,247,151246,2,0,L|40:167,1,65,8|2,0:0|0:0,0:0:0:0:
55,87,151640,1,12,0:1:0:0:
63,36,153910,38,0,P|130:25|166:33,1,97.5,2|0,0:0|0:0,0:0:0:0:
158,30,154305,1,2,0:0:0:0:
158,30,154404,2,0,L|165:107,1,65,8|0,0:0|0:0,0:0:0:0:
252,189,154798,1,8,0:1:0:0:
252,189,155785,5,0,0:0:0:0:
252,189,155884,1,0,0:0:0:0:
252,189,155983,2,0,P|315:165|353:166,1,97.5,8|0,0:0|0:0,0:0:0:0:
344,164,156377,38,0,L|342:91,1,65,12|12,0:1|0:1,0:0:0:0:
469,32,156772,2,0,L|472:97,1,65,12|12,0:1|0:1,0:0:0:0:
428,198,157167,1,8,0:1:0:0:
342,260,157364,1,0,0:0:0:0:
466,301,157561,1,0,0:0:0:0:
374,365,157758,1,0,0:0:0:0:
220,328,157956,22,0,P|176:313|135:315,1,77.999997619629,12|2,0:1|0:0,0:0:0:0:
60,244,158351,2,0,P|101:215|138:206,1,77.999997619629,8|0,0:0|0:0,0:0:0:0:
238,181,158746,2,0,L|236:96,1,77.999997619629,8|2,0:1|0:0,0:0:0:0:
122,42,159140,1,8,0:0:0:0:
149,122,159338,1,0,0:0:0:0:
205,17,159535,6,0,L|306:22,1,77.999997619629,12|0,0:1|0:0,0:0:0:0:
473,43,159930,2,0,P|430:85|359:92,1,116.999996429443,12|0,0:0|0:0,0:0:0:0:
376,96,160325,2,0,L|373:184,1,77.999997619629,12|2,0:1|0:0,0:0:0:0:
457,257,160719,2,0,L|453:335,1,77.999997619629,12|2,0:0|0:0,0:0:0:0:
303,314,161114,38,0,P|216:280|181:280,1,116.999996429443,8|2,0:1|0:0,0:0:0:0:
193,279,161509,2,0,L|191:196,1,77.999997619629,8|2,0:0|0:0,0:0:0:0:
88,115,161904,6,0,P|165:68|201:70,1,116.999996429443,8|2,0:1|0:0,0:0:0:0:
188,68,162298,2,0,L|271:69,1,77.999997619629,8|2,0:0|0:0,0:0:0:0:
301,199,162693,38,0,P|359:191|407:141,1,116.999996429443,12|2,0:1|0:0,0:0:0:0:
400,152,163088,2,0,L|402:229,1,77.999997619629,8|2,0:0|0:0,0:0:0:0:
354,354,163483,6,0,L|270:345,1,77.999997619629,8|2,0:1|0:0,0:0:0:0:
276,345,163779,1,2,0:0:0:0:
276,345,163877,1,8,0:0:0:0:
186,283,164075,1,2,0:0:0:0:
186,283,164173,1,0,0:0:0:0:
186,283,164272,38,0,P|168:329|168:366,1,77.999997619629,12|2,0:1|0:0,0:0:0:0:
74,262,164667,2,0,P|85:211|80:177,1,77.999997619629,8|0,0:0|0:0,0:0:0:0:
129,63,165061,2,0,L|214:68,1,77.999997619629,8|2,0:1|0:0,0:0:0:0:
290,171,165456,2,0,L|212:166,1,77.999997619629,8|0,0:0|0:0,0:0:0:0:
339,101,165851,6,0,P|367:130|370:181,1,77.999997619629,8|0,0:1|0:0,0:0:0:0:
447,278,166246,2,0,P|419:307|422:393,1,116.999996429443,8|0,0:0|0:0,0:0:0:0:
415,380,166640,2,0,P|371:366|334:365,1,77.999997619629,8|2,0:1|0:0,0:0:0:0:
206,360,167035,2,0,P|151:365|118:354,1,77.999997619629,8|2,0:0|0:0,0:0:0:0:
32,268,167430,38,0,L|47:359,1,77.999997619629,8|2,0:1|0:0,0:0:0:0:
166,285,167825,2,0,L|182:198,1,77.999997619629,8|0,0:0|0:0,0:0:0:0:
68,142,168219,2,0,L|55:64,1,77.999997619629,8|2,0:1|0:0,0:0:0:0:
55,64,168515,1,0,0:0:0:0:
55,64,168614,2,0,P|94:47|147:53,1,77.999997619629,8|0,0:0|0:0,0:0:0:0:
255,89,169009,5,8,0:1:0:0:
221,201,169206,1,2,0:0:0:0:
337,182,169404,2,0,L|334:260,1,77.999997619629,8|0,0:0|0:0,0:0:0:0:
450,196,169798,2,0,L|453:103,1,77.999997619629,8|2,0:1|0:0,0:0:0:0:
372,12,170193,2,0,L|367:91,1,77.999997619629,8|2,0:0|0:0,0:0:0:0:
239,53,170588,38,0,L|156:47,1,77.999997619629,12|2,0:1|0:0,0:0:0:0:
74,149,170983,2,0,L|151:154,1,77.999997619629,8|0,0:0|0:0,0:0:0:0:
271,193,171377,1,8,0:1:0:0:
151,232,171575,1,2,0:0:0:0:
225,130,171772,1,8,0:0:0:0:
225,256,171969,1,0,0:0:0:0:
290,204,172167,6,0,P|327:189|368:191,1,77.999997619629,12|0,0:1|0:0,0:0:0:0:
473,284,172561,2,0,P|436:299|395:297,1,77.999997619629,12|0,0:0|0:0,0:0:0:0:
473,189,172956,2,0,L|452:107,1,77.999997619629,12|2,0:1|0:0,0:0:0:0:
348,31,173351,2,0,L|367:106,1,77.999997619629,12|2,0:0|0:0,0:0:0:0:
220,84,173746,38,0,P|123:72|94:79,1,116.999996429443,8|2,0:1|0:0,0:0:0:0:
105,75,174140,2,0,L|115:171,1,77.999997619629,8|0,0:0|0:0,0:0:0:0:
68,303,174535,2,0,P|149:315|187:296,1,116.999996429443,8|2,0:1|0:0,0:0:0:0:
178,301,174930,2,0,L|170:223,1,77.999997619629,8|0,0:0|0:0,0:0:0:0:
318,273,175325,5,8,0:1:0:0:
333,276,175522,1,8,0:1:0:0:
348,279,175719,1,8,0:1:0:0:
363,282,175917,1,8,0:1:0:0:
378,285,176114,1,8,0:1:0:0:
489,244,176311,38,0,L|481:202,2,38.9999988098145,8|0|8,0:1|0:0|0:0,0:0:0:0:
365,43,176904,5,8,0:1:0:0:
355,55,177101,1,8,0:1:0:0:
345,67,177298,1,8,0:1:0:0:
335,79,177496,1,8,0:1:0:0:
325,91,177693,1,8,0:1:0:0:
210,110,177890,38,0,L|188:77,2,38.9999988098145,8|0|8,0:1|0:0|0:0,0:0:0:0:
45,277,178483,5,8,0:1:0:0:
60,273,178680,1,8,0:1:0:0:
75,269,178877,1,8,0:1:0:0:
90,265,179075,1,8,0:1:0:0:
105,261,179272,1,8,0:1:0:0:
254,219,179469,38,0,L|270:182,2,38.9999988098145,8|0|14,0:1|0:0|0:0,0:0:0:0:
450,77,180061,22,0,L|373:77,1,65,12|2,0:1|0:0,0:0:0:0:
296,36,180456,2,0,L|231:36,1,65,8|0,0:0|0:0,0:0:0:0:
165,108,180851,2,0,L|51:111,1,97.5,8|2,0:1|0:0,0:0:0:0:
67,110,181246,1,8,0:0:0:0:
115,236,181443,6,0,P|105:307|63:347,1,130,0|2,0:0|0:0,0:0:0:0:
161,363,182035,2,0,L|250:360,1,65,8|0,0:0|0:0,0:0:0:0:
347,312,182430,1,8,0:1:0:0:
347,312,182825,1,8,0:0:0:0:
347,312,183219,38,0,L|346:240,1,65,8|2,0:1|0:0,0:0:0:0:
441,223,183614,2,0,L|440:151,1,65,8|0,0:0|0:0,0:0:0:0:
346,130,184009,2,0,L|343:14,1,97.5,8|2,0:1|0:0,0:0:0:0:
343,32,184404,1,8,0:0:0:0:
252,125,184601,6,0,P|182:134|117:105,1,130,0|2,0:0|0:0,0:0:0:0:
60,42,185193,2,0,L|41:124,1,65,8|0,0:0|0:0,0:0:0:0:
52,235,185588,1,8,0:1:0:0:
52,235,185983,1,8,0:0:0:0:
53,236,186377,38,0,L|124:238,1,65,12|2,0:1|0:0,0:0:0:0:
185,325,186772,2,0,L|256:327,1,65,8|0,0:0|0:0,0:0:0:0:
324,244,187167,2,0,L|433:247,1,97.5,8|2,0:1|0:0,0:0:0:0:
421,246,187561,1,8,0:0:0:0:
406,120,187759,6,0,P|392:74|445:5,1,130,2|2,0:0|0:0,0:0:0:0:
323,18,188351,2,0,L|245:9,1,65,8|0,0:0|0:0,0:0:0:0:
130,56,188746,1,8,0:1:0:0:
130,56,189140,1,8,0:0:0:0:
130,56,189535,38,0,L|109:131,1,65,8|2,0:1|0:0,0:0:0:0:
183,203,189930,2,0,L|162:278,1,65,8|0,0:0|0:0,0:0:0:0:
66,216,190325,2,0,L|38:323,1,97.5,8|2,0:1|0:0,0:0:0:0:
41,310,190719,1,8,0:0:0:0:
164,368,190917,6,0,P|227:334|281:346,1,130,0|2,0:0|0:0,0:0:0:0:
391,334,191509,2,0,L|386:288,2,32.5,8|0|2,0:0|0:0|0:0,0:0:0:0:
464,250,191904,2,0,P|474:182|452:142,1,97.5,8|2,0:1|0:0,0:0:0:0:
463,157,192298,1,8,0:0:0:0:
256,79,192693,5,4,0:0:0:0:
256,192,192890,12,0,195654,0:0:0:0:
