osu file format v14

[General]
AudioFilename: audio.mp3
AudioLeadIn: 0
PreviewTime: 25589
Countdown: 1
SampleSet: Normal
StackLeniency: 0.2
Mode: 0
LetterboxInBreaks: 0
WidescreenStoryboard: 0

[Editor]
Bookmarks: 13589,25589,37589,49589,61589,73589,85589,109589,121589,127589,133589
DistanceSpacing: 0.9
BeatDivisor: 4
GridSize: 32
TimelineZoom: 2

[Metadata]
Title:erebus
TitleUnicode:erebus
Artist:memme
ArtistUnicode:memme
Creator:Histoire
Version:collab
Source:
Tags:
BeatmapID:1182951
BeatmapSetID:559325

[Difficulty]
HPDrainRate:4
CircleSize:4
OverallDifficulty:7
ApproachRate:9.7
SliderMultiplier:2.1
SliderTickRate:1

[Events]
//Background and Video events
0,0,"erebus.jpg",0,0
//Break Periods
//Storyboard Layer 0 (Background)
//Storyboard Layer 1 (Fail)
//Storyboard Layer 2 (Pass)
//Storyboard Layer 3 (Foreground)
//Storyboard Sound Samples

[TimingPoints]
89,375,4,2,2,85,1,0
7589,-100,4,1,2,85,0,0
12464,-83.3333333333333,4,2,0,85,0,0
13589,-90.9090909090909,4,1,2,85,0,0
20901,-133.333333333333,4,1,2,85,0,0
22214,-90.9090909090909,4,1,2,85,0,0
24839,-66.6666666666667,4,1,2,85,0,0
25589,-75.7575757575758,4,1,2,85,0,0
37589,-75.7575757575758,4,1,2,85,0,0
38901,-50,4,1,2,85,0,0
39089,-75.7575757575758,4,1,2,85,0,0
40214,-55.5555555555556,4,1,2,85,0,0
40589,-75.7575757575758,4,1,2,85,0,0
41339,-55.5555555555556,4,1,2,85,0,0
41901,-50,4,1,2,85,0,0
42089,-75.7575757575758,4,1,2,85,0,0
43214,-55.5555555555556,4,1,2,85,0,0
43589,-50,4,1,2,85,0,0
43964,-75.7575757575758,4,1,2,85,0,0
44901,-50,4,1,2,85,0,0
45089,-75.7575757575758,4,1,2,85,0,0
46589,-55.5555555555556,4,1,2,85,0,0
46964,-75.7575757575758,4,1,2,85,0,0
47339,-50,4,1,2,85,0,0
49589,-200,4,1,2,85,0,0
52214,-100,4,1,2,85,0,0
52354,-100,4,1,2,5,0,0
52401,-50,4,1,2,85,0,0
52589,-200,4,1,2,85,0,0
54089,-66.6666666666667,4,1,2,85,0,0
55026,-100,4,1,2,85,0,0
55214,-50,4,1,2,85,0,0
55589,-66.6666666666667,4,1,2,85,0,0
56714,-50,4,1,2,85,0,0
57089,-66.6666666666667,4,1,2,85,0,0
60089,-50,4,1,2,85,0,0
61214,-33.3333333333333,4,1,2,85,0,0
61401,-50,4,1,2,85,0,0
61589,-83.3333333333333,4,1,2,85,0,0
62151,-111.111111111111,4,1,2,85,0,0
64214,-200,4,1,2,85,0,0
64589,-83.3333333333333,4,1,2,85,0,0
65151,-111.111111111111,4,1,2,85,0,0
67214,-200,4,1,2,85,0,0
67589,-83.3333333333333,4,1,2,60,0,0
68151,-111.111111111111,4,1,2,60,0,0
70214,-200,4,1,2,60,0,0
70589,-83.3333333333333,4,1,2,60,0,0
71151,-200,4,1,2,60,0,0
72089,-111.111111111111,4,1,2,60,0,0
72370,-83.3333333333333,4,1,2,60,0,0
72651,-66.6666666666667,4,1,2,60,0,0
73589,-100,4,1,2,60,0,0
85214,-66.6666666666667,4,1,2,60,0,0
85589,-71.4285714285714,4,1,2,85,0,1
85776,-50,4,1,2,85,0,1
86995,-71.4285714285714,4,1,2,85,0,1
87276,-50,4,1,2,85,0,1
88589,-71.4285714285714,4,1,2,85,0,1
88870,-50,4,1,2,85,0,1
90089,-71.4285714285714,4,1,2,85,0,1
90370,-50,4,1,2,85,0,1
91589,-71.4285714285714,4,1,2,85,0,1
91870,-50,4,1,2,85,0,1
93089,-71.4285714285714,4,1,2,85,0,1
93370,-50,4,1,2,85,0,1
94589,-71.4285714285714,4,1,2,85,0,1
94870,-50,4,1,2,85,0,1
96089,-71.4285714285714,4,1,2,85,0,1
96370,-50,4,1,2,85,0,1
97589,-71.4285714285714,4,1,2,85,0,1
97870,-50,4,1,2,85,0,1
99089,-71.4285714285714,4,1,2,85,0,1
99370,-50,4,1,2,85,0,1
100589,-71.4285714285714,4,1,2,85,0,1
100870,-50,4,1,2,85,0,1
102089,-71.4285714285714,4,1,2,85,0,1
102370,-50,4,1,2,85,0,1
103589,-71.4285714285714,4,1,2,85,0,1
103870,-50,4,1,2,85,0,1
105089,-71.4285714285714,4,1,2,85,0,1
105370,-50,4,1,2,85,0,1
106589,-71.4285714285714,4,1,2,85,0,1
106870,-50,4,1,2,85,0,1
108089,-71.4285714285714,4,1,2,85,0,1
108276,-50,4,1,2,85,0,1
109589,-75.7575757575758,4,1,2,85,0,0
121589,-100,4,1,2,85,0,0
137620,-75.7575757575758,4,1,1,5,0,0

[HitObjects]
161,148,1589,6,0,P|128:189|117:240,1,105
241,178,1964,2,0,P|237:109|179:66,1,105
197,270,2245,1,0,0:0:0:0:
342,91,2432,5,0,0:0:0:0:
342,91,2526,1,0,0:0:0:0:
342,91,2620,1,0,0:0:0:0:
342,91,2714,2,0,L|366:200,1,105
419,273,3089,2,0,L|395:164,1,105
220,273,3464,2,0,B|273:276|273:276|329:249,1,105
253,169,3745,1,0,0:0:0:0:
130,318,3932,5,0,0:0:0:0:
111,298,4026,1,0,0:0:0:0:
99,274,4119,1,0,0:0:0:0:
96,246,4214,2,0,P|104:191|85:138,1,105
40,39,4589,2,0,P|98:57|176:52,1,105
287,159,4964,2,0,P|229:141|151:146,1,105
27,191,5245,1,0,0:0:0:0:
217,246,5432,2,0,B|158:255,2,52.5
74,383,5714,5,0,0:0:0:0:
74,383,5807,1,0,0:0:0:0:
74,383,5901,1,0,0:0:0:0:
109,374,5994,1,0,0:0:0:0:
146,370,6089,2,0,P|216:358|258:333,1,105
224,193,6464,2,0,P|180:229|186:299,1,105
336,355,6745,1,0,0:0:0:0:
331,146,6932,5,0,0:0:0:0:
330,140,7026,1,0,0:0:0:0:
335,137,7120,1,0,0:0:0:0:
340,139,7214,1,0,0:0:0:0:
340,145,7307,1,0,0:0:0:0:
336,147,7401,2,0,L|322:208,1,52.5
91,259,7589,6,0,P|138:271|197:351,1,105
376,289,7964,2,0,B|343:249|343:249|320:182,1,105
158,126,8339,1,0,0:0:0:0:
310,12,8526,5,0,0:0:0:0:
309,38,8619,1,0,0:0:0:0:
301,63,8714,2,0,B|267:104|267:104|258:158,1,105
395,335,9089,2,0,P|398:274|382:213,1,105
258,154,9464,2,0,P|255:215|271:276,1,105
121,335,9839,1,0,0:0:0:0:
91,176,10026,5,0,0:0:0:0:
91,139,10120,1,0,0:0:0:0:
122,157,10214,2,0,P|167:196|193:205,1,52.5
187,265,10401,2,0,P|142:226|116:217,1,52.5
307,333,10589,6,0,P|296:280|320:211,1,105
293,78,10964,2,0,P|356:105|432:96,1,105
162,193,11339,1,0,0:0:0:0:
162,193,11526,2,0,L|175:247,1,52.5
281,297,11714,2,0,L|268:243,1,52.5
278,98,11901,2,0,L|291:152,1,52.5
410,298,12089,6,0,L|374:149,1,105
155,127,12464,6,0,L|310:90,1,125.999996154785
309,278,12839,2,0,L|291:203,1,62.9999980773926
150,210,13026,2,0,L|224:192,1,62.9999980773926
175,342,13214,1,0,0:0:0:0:
175,342,13307,1,0,0:0:0:0:
175,342,13401,2,0,L|224:262,1,62.9999980773926
324,169,13589,6,0,P|300:226|323:302,1,115.50000352478
384,234,13964,1,0,0:0:0:0:
156,158,14151,1,0,0:0:0:0:
459,277,14339,2,0,P|467:221|444:169,1,115.50000352478
335,39,14714,2,0,L|200:50,1,115.50000352478
219,48,15276,1,0,0:0:0:0:
33,168,15464,6,0,L|168:157,1,115.50000352478
270,145,15839,2,0,L|243:210,1,57.7500017623902
169,244,16026,1,0,0:0:0:0:
169,244,16120,1,0,0:0:0:0:
169,244,16214,1,0,0:0:0:0:
233,71,16401,2,0,P|267:64|304:71,1,57.7500017623902
396,26,16589,2,0,L|384:160,1,115.50000352478
247,242,16964,5,0,0:0:0:0:
373,236,17151,1,0,0:0:0:0:
281,118,17339,2,0,P|221:117|162:160,1,115.50000352478
42,226,17620,1,0,0:0:0:0:
106,280,17714,2,0,P|109:316|124:347,1,57.7500017623902
191,289,17901,2,0,P|267:308|303:355,1,115.50000352478
291,333,18276,2,0,L|377:303,1,57.7500017623902
319,225,18464,6,0,L|378:156,1,57.7500017623902
214,72,18651,1,0,0:0:0:0:
298,60,18745,6,0,P|289:116|235:155,1,115.50000352478
166,154,19025,1,0,0:0:0:0:
113,212,19119,1,0,0:0:0:0:
116,290,19214,2,0,P|123:319|144:355,1,57.7500017623902
245,152,19401,2,0,P|236:124|213:89,1,57.7500017623902
28,35,19589,2,0,L|43:171,1,115.50000352478
61,275,19964,5,0,0:0:0:0:
116,48,20151,1,0,0:0:0:0:
108,344,20339,1,0,0:0:0:0:
70,114,20526,1,0,0:0:0:0:
268,268,20714,1,0,0:0:0:0:
116,48,20901,2,0,P|48:40|-7:123,1,157.500006008148
78,316,21464,5,0,0:0:0:0:
116,48,21651,2,0,P|48:40|-7:123,1,157.500006008148
44,217,22214,6,0,L|114:204,1,57.7500017623902
136,171,22401,2,0,L|66:184,1,57.7500017623902
105,299,22589,2,0,L|242:274,1,115.50000352478
253,201,22870,1,0,0:0:0:0:
317,140,22964,6,0,P|337:193|324:249,1,115.50000352478
105,299,23339,5,0,0:0:0:0:
84,246,23432,1,0,0:0:0:0:
98,190,23526,1,0,0:0:0:0:
108,134,23619,1,0,0:0:0:0:
86,82,23713,1,0,0:0:0:0:
86,82,23901,1,0,0:0:0:0:
86,82,24089,2,0,L|195:88,1,57.7500017623902
219,27,24276,1,0,0:0:0:0:
215,142,24369,1,0,0:0:0:0:
294,85,24464,6,0,L|352:83,1,57.7500017623902
462,37,24651,2,0,P|475:91|472:106,1,57.7500017623902
391,270,24839,2,0,B|310:318|310:318|327:186,1,157.500006008148
193,192,25120,2,0,B|210:324|210:324|121:270,1,236.250009012223
121,270,25495,1,0,0:0:0:0:
101,111,25589,6,0,P|171:61|240:66,1,138.599999577026
339,8,25964,2,0,P|347:93|308:150,1,138.599999577026
309,265,26339,1,0,0:0:0:0:
244,241,26432,1,0,0:0:0:0:
205,186,26526,1,0,0:0:0:0:
208,119,26620,1,0,0:0:0:0:
50,111,26714,2,0,L|64:218,1,69.2999997885132
117,282,26901,2,0,L|93:100,1,138.599999577026
191,59,27276,5,0,0:0:0:0:
253,33,27369,1,0,0:0:0:0:
313,64,27463,1,0,0:0:0:0:
329,129,27557,1,0,0:0:0:0:
396,131,27651,1,0,0:0:0:0:
437,185,27745,1,0,0:0:0:0:
424,250,27839,6,0,L|400:323,1,69.2999997885132
308,384,28026,6,0,L|284:311,1,69.2999997885132
192,250,28214,6,0,L|168:323,1,69.2999997885132
77,382,28401,5,0,0:0:0:0:
92,169,28589,6,0,P|63:189|94:183,1,69.2999997885132
68,53,28776,2,0,P|105:51|136:78,1,69.2999997885132
271,138,28964,2,0,P|251:100|246:58,1,69.2999997885132
348,283,29151,2,0,P|343:231|331:202,1,69.2999997885132
410,71,29339,2,0,P|415:123|427:152,3,69.2999997885132
193,272,29714,2,0,P|240:259|266:257,1,69.2999997885132
433,248,29901,1,0,0:0:0:0:
278,31,30089,5,0,0:0:0:0:
258,96,30182,1,0,0:0:0:0:
212,147,30276,1,0,0:0:0:0:
148,172,30370,1,0,0:0:0:0:
79,166,30464,1,0,0:0:0:0:
104,230,30557,1,0,0:0:0:0:
93,298,30651,6,0,P|87:328|55:365,1,69.2999997885132
19,136,30839,6,0,P|48:142|85:174,1,69.2999997885132
143,269,31026,6,0,P|136:298|104:335,1,69.2999997885132
68,106,31214,6,0,P|97:112|134:144,1,69.2999997885132
192,240,31401,1,0,0:0:0:0:
322,132,31589,6,0,B|296:198|296:198|333:276,1,138.599999577026
470,152,31964,2,0,B|496:86|496:86|459:8,1,138.599999577026
322,32,32339,1,0,0:0:0:0:
252,35,32432,1,0,0:0:0:0:
183,31,32526,1,0,0:0:0:0:
115,19,32620,1,0,0:0:0:0:
49,145,32714,6,0,L|124:151,1,69.2999997885132
162,182,32901,2,0,L|24:171,1,138.599999577026
294,201,33276,5,0,0:0:0:0:
358,219,33369,1,0,0:0:0:0:
383,281,33463,1,0,0:0:0:0:
349,339,33557,1,0,0:0:0:0:
282,347,33651,1,0,0:0:0:0:
235,300,33744,1,0,0:0:0:0:
243,234,33839,6,0,P|257:193|251:130,1,69.2999997885132
312,82,34026,6,0,P|271:68|208:74,1,69.2999997885132
160,13,34214,6,0,P|146:54|152:117,1,69.2999997885132
91,165,34401,6,0,P|132:179|195:173,1,69.2999997885132
320,190,34589,2,0,P|393:202|463:229,1,138.599999577026
375,239,34964,2,0,P|421:252|453:270,1,69.2999997885132
252,305,35151,2,0,P|299:298|335:301,1,69.2999997885132,0|0,2:0|0:0,0:0:0:0:
140,270,35339,2,0,P|149:309|143:352,1,69.2999997885132
289,192,35526,2,0,P|250:201|207:195,1,69.2999997885132
78,128,35714,2,0,L|153:120,1,69.2999997885132
242,48,35901,2,0,P|243:83|253:128,1,69.2999997885132
297,293,36089,5,0,0:0:0:0:
354,254,36182,1,0,0:0:0:0:
420,237,36276,1,0,0:0:0:0:
489,244,36370,1,0,0:0:0:0:
450,186,36464,1,0,0:0:0:0:
433,120,36558,1,0,0:0:0:0:
440,52,36652,1,0,0:0:0:0:
381,91,36745,1,0,0:0:0:0:
315,108,36839,6,0,P|233:113|180:99,1,138.599999577026
0,68,37120,6,0,P|45:136|59:189,1,138.599999577026
123,361,37401,6,0,P|155:293|191:257,1,69.2999997885132
409,306,37589,6,0,P|445:346|391:340,1,138.599999577026
444,119,37964,1,0,0:0:0:0:
425,148,38057,2,0,P|409:121|437:84,1,69.2999997885132
489,231,38245,2,0,P|425:254|361:232,1,138.599999577026
179,149,38526,6,0,B|140:143|140:143|159:166,1,69.2999997885132
222,241,38714,1,0,0:0:0:0:
255,232,38807,1,0,0:0:0:0:
114,244,38901,6,0,P|165:330|266:336,1,210
391,53,39276,5,0,0:0:0:0:
374,142,39370,1,0,0:0:0:0:
391,53,39464,1,0,0:0:0:0:
448,90,39557,1,0,0:0:0:0:
464,157,39651,1,0,0:0:0:0:
426,215,39745,1,0,0:0:0:0:
358,230,39839,5,0,0:0:0:0:
289,172,39932,2,0,L|136:178,1,138.599999577026
425,214,40214,6,0,P|475:197|504:201,1,78.7500030040742
204,331,40401,6,0,P|152:347|73:235,1,188.999994232178,0|0,2:0|2:0,2:0:0:0:
150,178,40682,5,0,0:0:0:0:
204,331,40776,2,0,P|172:345|138:345,1,69.2999997885132,0|0,2:0|2:0,2:0:0:0:
22,157,40964,6,0,B|67:153|67:153|101:182|101:182|149:177,1,138.599999577026
184,175,41245,1,0,0:0:0:0:
300,248,41339,6,0,P|347:252|387:229,1,94.499997116089
463,257,41526,1,0,0:0:0:0:
387,229,41620,2,0,P|383:275|406:315,1,94.499997116089
329,173,41807,5,0,0:0:0:0:
489,67,41901,2,0,P|512:166|462:256,1,210
121,243,42276,6,0,L|51:241,1,69.2999997885132
111,329,42464,5,0,0:0:0:0:
145,327,42557,1,0,0:0:0:0:
175,310,42651,1,0,0:0:0:0:
197,283,42745,1,0,0:0:0:0:
289,335,42839,5,0,0:0:0:0:
301,267,42932,1,0,0:0:0:0:
268,205,43026,1,0,0:0:0:0:
204,177,43120,1,0,0:0:0:0:
300,266,43214,6,0,P|369:279|428:242,1,141.749995674133
456,174,43401,2,0,P|441:242|383:284,1,141.749995674133
238,325,43589,6,0,B|198:289|120:281|81:321|81:321|120:327|155:291,1,210
56,43,43964,6,0,P|70:51|80:65,1,34.6499998942566
113,55,44057,2,0,P|97:63|80:65,1,34.6499998942566,0|0,2:0|2:0,2:0:0:0:
105,138,44151,2,0,P|70:141|38:129,1,69.2999997885132
186,193,44339,5,0,0:0:0:0:
195,96,44432,1,0,0:0:0:0:
275,43,44526,1,0,0:0:0:0:
368,72,44620,1,0,0:0:0:0:
402,163,44714,1,0,0:0:0:0:
306,146,44807,1,0,0:0:0:0:
402,163,44901,6,0,B|443:166|468:200|468:200|434:149|451:100|492:67,1,210
299,328,45276,5,0,0:0:0:0:
257,272,45370,1,0,0:0:0:0:
299,328,45464,1,0,0:0:0:0:
330,267,45557,1,0,0:0:0:0:
397,249,45651,1,0,0:0:0:0:
455,286,45745,1,0,0:0:0:0:
468,354,45839,5,0,0:0:0:0:
441,270,45932,1,0,0:0:0:0:
353,256,46026,1,0,0:0:0:0:
299,328,46120,1,0,0:0:0:0:
210,334,46214,6,0,P|189:307|184:258,1,69.2999997885132
17,230,46401,1,0,0:0:0:0:
112,211,46495,1,0,0:0:0:0:
70,299,46589,6,0,P|102:238|26:143,1,188.999994232178
182,273,46964,5,0,0:0:0:0:
216,175,47057,1,0,0:0:0:0:
312,136,47151,1,0,0:0:0:0:
404,184,47245,1,0,0:0:0:0:
394,198,47339,6,0,P|443:213|489:190,1,105
258,57,47526,2,0,P|300:85|312:136,1,105
300,238,47714,5,0,0:0:0:0:
216,175,47807,1,0,0:0:0:0:
299,237,47901,2,0,P|261:272|258:324,1,105
488,190,48089,5,0,0:0:0:0:
128,7,48276,5,0,0:0:0:0:
21,10,48370,1,0,0:0:0:0:
130,32,48464,5,0,0:0:0:0:
27,87,48558,1,0,0:0:0:0:
154,43,48651,5,0,0:0:0:0:
80,161,48745,1,0,0:0:0:0:
218,168,48839,6,0,P|347:130|267:22,1,315
218,168,49214,6,0,B|258:150|314:169|330:215|330:215|315:169|339:123|377:66|450:80|479:140|458:185|412:190,1,420
392,273,49682,5,0,0:0:0:0:
404,275,49776,1,0,0:0:0:0:
417,275,49870,1,0,0:0:0:0:
430,273,49964,1,0,0:0:0:0:
442,270,50057,1,0,0:0:0:0:
454,264,50151,1,0,0:0:0:0:
465,256,50245,1,0,0:0:0:0:
475,247,50338,1,0,0:0:0:0:
467,256,50432,1,0,0:0:0:0:
458,266,50526,1,0,0:0:0:0:
448,273,50620,1,0,0:0:0:0:
437,280,50713,1,0,0:0:0:0:
424,284,50807,1,0,0:0:0:0:
411,286,50901,1,0,0:0:0:0:
397,287,50995,1,0,0:0:0:0:
383,285,51089,1,0,0:0:0:0:
365,282,51182,1,0,0:0:0:0:
348,274,51276,1,0,0:0:0:0:
331,256,51370,1,0,0:0:0:0:
319,235,51464,1,0,0:0:0:0:
311,207,51557,1,0,0:0:0:0:
313,178,51651,1,0,0:0:0:0:
327,147,51745,1,0,0:0:0:0:
351,123,51839,1,0,0:0:0:0:
388,110,51932,1,0,0:0:0:0:
427,112,52026,1,0,0:0:0:0:
464,136,52120,1,0,0:0:0:0:
488,173,52214,6,0,B|524:162|524:162|501:197,1,78.75
400,199,52401,6,0,P|298:177|204:219,1,210
121,240,52682,5,0,0:0:0:0:
119,228,52776,1,0,0:0:0:0:
119,215,52870,1,0,0:0:0:0:
121,202,52964,1,0,0:0:0:0:
124,190,53057,1,0,0:0:0:0:
130,178,53151,1,0,0:0:0:0:
138,167,53245,1,0,0:0:0:0:
147,157,53339,1,0,0:0:0:0:
132,168,53432,1,0,0:0:0:0:
121,183,53526,1,0,0:0:0:0:
112,205,53620,1,0,0:0:0:0:
108,228,53713,1,0,0:0:0:0:
111,256,53807,1,0,0:0:0:0:
123,282,53901,1,0,0:0:0:0:
146,306,53995,1,0,0:0:0:0:
177,319,54089,6,0,B|139:296|92:300|61:338|61:338|96:348,1,157.500006008148
186,218,54370,1,0,0:0:0:0:
198,233,54464,2,0,B|236:211|256:168|239:123|239:123|213:148,1,157.500006008148,0|0,3:0|3:0,3:0:0:0:
261,294,54745,2,0,B|260:338|287:377|335:384|335:384|326:349,1,157.500006008148,0|0,3:0|3:0,3:0:0:0:
409,366,55026,6,0,L|397:316,1,52.5,0|0,3:0|3:0,3:0:0:0:
382,49,55214,6,0,B|452:1|470:89|491:119|491:119|458:135|398:202|361:126,1,315
298,64,55589,5,0,0:0:0:0:
252,94,55682,1,0,0:0:0:0:
197,103,55776,1,0,0:0:0:0:
142,93,55870,1,0,0:0:0:0:
66,114,55964,5,0,0:0:0:0:
45,37,56057,1,0,0:0:0:0:
121,17,56151,1,0,0:0:0:0:
142,93,56245,1,0,0:0:0:0:
66,114,56339,5,0,0:0:0:0:
11,99,56432,1,0,0:0:0:0:
26,46,56526,1,0,0:0:0:0:
78,60,56620,1,0,0:0:0:0:
66,114,56714,6,0,P|80:163|62:212,1,105
140,360,56901,2,0,P|125:310|143:261,1,105
218,114,57089,5,0,0:0:0:0:
264,144,57182,1,0,0:0:0:0:
319,153,57276,1,0,0:0:0:0:
374,143,57370,1,0,0:0:0:0:
450,164,57464,5,0,0:0:0:0:
471,87,57557,1,0,0:0:0:0:
395,67,57651,1,0,0:0:0:0:
374,143,57745,1,0,0:0:0:0:
450,164,57839,5,0,0:0:0:0:
505,149,57932,1,0,0:0:0:0:
490,96,58026,1,0,0:0:0:0:
438,110,58120,1,0,0:0:0:0:
450,163,58214,6,0,P|417:184|378:184,1,78.7500030040742
347,355,58401,2,0,P|309:346|281:318,1,78.7500030040742
313,129,58589,5,0,0:0:0:0:
294,180,58682,1,0,0:0:0:0:
308,233,58776,1,0,0:0:0:0:
350,268,58870,1,0,0:0:0:0:
423,296,58964,5,0,0:0:0:0:
350,268,59057,1,0,0:0:0:0:
271,278,59151,1,0,0:0:0:0:
217,336,59245,1,0,0:0:0:0:
138,345,59339,5,0,0:0:0:0:
84,332,59432,1,0,0:0:0:0:
58,282,59526,1,0,0:0:0:0:
70,228,59620,1,0,0:0:0:0:
54,150,59714,5,0,0:0:0:0:
139,187,59807,1,0,0:0:0:0:
231,176,59901,1,0,0:0:0:0:
305,120,59995,1,0,0:0:0:0:
341,34,60089,6,0,B|398:28|398:28|362:60,1,105
305,120,60276,1,0,0:0:0:0:
220,84,60370,1,0,0:0:0:0:
231,176,60464,6,0,P|324:211|395:141,1,210
491,345,60745,2,0,B|428:295|457:221|457:221|520:270|491:345,1,210
371,279,61026,5,0,0:0:0:0:
497,278,61120,1,0,0:0:0:0:
400,359,61214,6,0,P|374:384|347:361,3,78.7500030040742
370,278,61401,6,0,P|319:279|277:309,1,105
181,366,61589,6,0,P|87:367|16:279,1,188.999994232178
23,303,61964,1,0,0:0:0:0:
138,202,62151,5,0,0:0:0:0:
138,202,62245,1,0,0:0:0:0:
138,202,62339,2,0,L|129:277,1,47.2499985580445
267,130,62526,2,0,L|261:83,1,47.2499985580445
256,248,62714,1,0,0:0:0:0:
295,250,62807,1,0,0:0:0:0:
334,252,62901,2,0,L|407:261,1,47.2499985580445
275,384,63089,6,0,P|269:360|266:337,1,47.2499985580445
155,324,63276,2,0,P|162:301|171:279,1,47.2499985580445
256,248,63464,6,0,P|239:230|225:211,1,47.2499985580445
131,149,63651,2,0,P|148:132|167:118,1,47.2499985580445
267,130,63839,5,0,0:0:0:0:
319,156,63932,1,0,0:0:0:0:
377,162,64026,1,0,0:0:0:0:
434,148,64120,1,0,0:0:0:0:
483,115,64214,6,0,L|479:218,1,78.75
361,62,64589,6,0,P|292:18|172:62,1,188.999994232178
192,41,64964,1,0,0:0:0:0:
227,300,65151,5,0,0:0:0:0:
275,314,65245,1,0,0:0:0:0:
325,317,65339,1,0,0:0:0:0:
374,307,65432,1,0,0:0:0:0:
415,278,65526,1,0,0:0:0:0:
439,234,65620,1,0,0:0:0:0:
436,182,65714,2,0,P|434:158|431:135,1,47.2499985580445
192,41,65901,2,0,P|188:64|186:87,1,47.2499985580445
307,210,66089,5,0,0:0:0:0:
310,162,66182,1,0,0:0:0:0:
321,122,66276,1,0,0:0:0:0:
321,122,66370,1,0,0:0:0:0:
321,122,66464,6,0,L|326:32,1,47.2499985580445
202,241,66651,2,0,L|206:150,1,47.2499985580445
397,331,66839,5,0,0:0:0:0:
319,357,66932,1,0,0:0:0:0:
237,364,67026,1,0,0:0:0:0:
157,353,67120,1,0,0:0:0:0:
81,323,67214,6,0,L|90:249,1,52.5
116,60,67589,6,0,B|100:189|100:189|81:132,1,188.999994232178
85,137,67964,1,0,0:0:0:0:
385,159,68151,5,0,0:0:0:0:
385,159,68245,1,0,0:0:0:0:
385,159,68339,2,0,L|381:243,1,47.2499985580445
289,373,68526,2,0,L|286:325,1,47.2499985580445
231,217,68714,2,0,L|315:221,1,47.2499985580445
445,313,68901,2,0,L|397:315,1,47.2499985580445
141,261,69089,6,0,P|134:238|132:214,1,47.2499985580445
267,62,69276,2,0,P|265:85|258:108,1,47.2499985580445
109,117,69464,6,0,L|47:110,1,47.2499985580445
297,217,69651,2,0,L|359:210,1,47.2499985580445
171,288,69839,5,0,0:0:0:0:
129,265,69932,1,0,0:0:0:0:
82,262,70026,1,0,0:0:0:0:
39,280,70120,1,0,0:0:0:0:
6,313,70214,6,0,L|16:212,1,78.75
43,88,70589,6,0,B|61:31|61:31|78:160,1,188.999994232178
77,159,70964,1,0,0:0:0:0:
189,64,71151,5,0,0:0:0:0:
220,66,71244,1,0,0:0:0:0:
251,68,71338,1,0,0:0:0:0:
283,70,71432,1,0,0:0:0:0:
314,72,71526,1,0,0:0:0:0:
346,74,71619,1,0,0:0:0:0:
377,76,71714,6,0,L|373:173,1,78.75
314,320,72089,6,0,B|326:273|326:273|317:227,1,94.499997116089
113,256,72370,6,0,P|173:275|236:273,1,125.999996154785
214,30,72651,6,0,B|229:85|229:85|219:126|219:126|236:182,1,157.500006008148
244,188,72932,1,0,0:0:0:0:
244,188,73026,2,0,L|221:109,1,78.7500030040742
215,306,73214,5,0,0:0:0:0:
282,266,73307,1,0,0:0:0:0:
359,250,73401,1,0,0:0:0:0:
437,257,73495,1,0,0:0:0:0:
509,289,73589,6,0,P|444:201|449:108,1,157.5
359,250,73964,2,0,P|300:231|192:288,1,157.5
143,146,74339,6,0,L|9:159,1,105
247,156,74714,2,0,L|143:146,1,105
351,145,75089,6,0,L|247:156,1,105
455,155,75464,2,0,L|351:145,1,105
141,145,75839,6,0,P|120:246|159:341,1,210
160,342,76589,6,0,P|148:279|51:244,1,157.5
152,128,76964,2,0,P|191:186|296:164,1,157.5
12,115,77339,6,0,L|31:11,1,105
152,128,77714,2,0,L|171:231,1,105
500,115,78089,6,0,L|480:11,1,105
360,128,78464,2,0,L|340:231,1,105
256,352,78839,1,0,0:0:0:0:
256,312,78932,1,0,0:0:0:0:
256,273,79026,1,0,0:0:0:0:
256,233,79120,1,0,0:0:0:0:
256,194,79214,1,0,0:0:0:0:
256,155,79307,1,0,0:0:0:0:
256,115,79401,1,0,0:0:0:0:
256,76,79495,1,0,0:0:0:0:
256,37,79589,5,0,0:0:0:0:
442,194,79776,1,0,0:0:0:0:
256,76,79964,5,0,0:0:0:0:
70,233,80151,1,0,0:0:0:0:
256,115,80339,5,0,0:0:0:0:
442,272,80526,1,0,0:0:0:0:
256,155,80714,5,0,0:0:0:0:
70,312,80901,1,0,0:0:0:0:
256,194,81089,5,0,0:0:0:0:
442,351,81276,1,0,0:0:0:0:
256,233,81464,5,0,0:0:0:0:
70,76,81651,1,0,0:0:0:0:
256,273,81839,5,0,0:0:0:0:
442,116,82026,1,0,0:0:0:0:
256,312,82214,5,0,0:0:0:0:
256,312,82401,1,0,0:0:0:0:
368,180,82589,5,0,0:0:0:0:
97,236,82776,1,0,0:0:0:0:
340,63,82964,5,0,0:0:0:0:
371,352,83151,1,0,0:0:0:0:
262,148,83339,5,0,0:0:0:0:
502,247,83526,1,0,0:0:0:0:
220,336,83714,5,0,0:0:0:0:
235,43,83901,1,0,0:0:0:0:
357,225,84089,5,0,0:0:0:0:
361,234,84182,1,0,0:0:0:0:
365,243,84276,1,0,0:0:0:0:
369,252,84370,1,0,0:0:0:0:
373,261,84464,2,0,L|296:269,1,52.5
169,148,84651,2,0,L|221:153,1,52.5
31,360,84839,5,0,0:0:0:0:
35,255,84932,1,0,0:0:0:0:
40,150,85026,1,0,0:0:0:0:
481,24,85214,6,0,L|470:270,1,236.250009012223
354,281,85589,6,0,B|371:263|371:263|366:235|366:235|345:221|345:221|320:227|320:227|306:252|306:252|328:301,1,146.999995513916
155,42,85870,1,0,0:0:0:0:
150,58,85964,2,0,B|140:97|140:97|109:115|109:115|93:156,1,105
43,325,86151,5,0,0:0:0:0:
178,334,86245,2,0,P|135:285|28:355,1,210
277,200,86526,2,0,B|234:170|166:187,1,105
364,324,86714,2,0,B|422:338|422:338|452:333|474:295,1,105
512,192,86901,2,0,P|478:224|424:212,1,105
326,88,87089,6,0,B|368:147|368:147|439:69,1,146.999995513916
229,303,87370,1,0,0:0:0:0:
240,290,87463,2,0,P|267:241|225:171,1,105
415,277,87651,2,0,B|361:259|361:259|288:251,2,105
166,246,87932,1,0,0:0:0:0:
94,253,88025,1,0,0:0:0:0:
44,305,88119,1,0,0:0:0:0:
23,235,88214,2,0,P|36:192|24:122,1,105
200,42,88401,2,0,B|219:19|219:19|228:193,1,105
313,253,88589,6,0,B|313:220|313:220|351:197|351:197|384:222|384:222|388:300,1,146.999995513916
183,332,88870,1,0,0:0:0:0:
191,317,88964,2,0,P|178:263|191:195,1,105
290,103,89151,1,0,0:0:0:0:
139,90,89245,2,0,P|214:47|321:104,1,210
382,248,89526,2,0,L|341:144,1,105
482,32,89714,2,0,B|408:31|408:31|434:73,1,105
349,340,89901,2,0,P|350:288|428:234,1,105
465,357,90089,6,0,P|438:318|490:345,1,146.999995513916
253,342,90370,1,0,0:0:0:0:
280,190,90464,1,0,0:0:0:0:
219,149,90557,1,0,0:0:0:0:
238,78,90651,1,0,0:0:0:0:
311,75,90745,2,0,B|358:100|358:100|339:161,1,105
178,263,90932,1,0,0:0:0:0:
161,245,91026,2,0,P|133:208|83:163,1,105
159,17,91214,2,0,B|206:73|206:73|297:83,1,105
418,173,91401,2,0,B|339:133|339:133|347:177,1,105
399,16,91589,6,0,P|334:107|350:155,1,146.999995513916
334,350,91870,1,0,0:0:0:0:
336,333,91964,2,0,B|335:303|335:303|358:254|358:254|357:207,1,105
214,96,92151,1,0,0:0:0:0:
210,240,92245,2,0,B|139:159|139:159|221:49,1,210
177,348,92526,2,0,P|134:301|85:336,1,105
110,79,92714,2,0,P|101:131|186:132,1,105
177,350,92901,2,0,B|124:358|124:358|96:298,1,105
101,126,93089,6,0,P|115:206|171:138,1,146.999995513916
331,2,93370,1,0,0:0:0:0:
330,17,93464,2,0,B|296:51|357:87|321:120,1,105
399,280,93651,1,0,0:0:0:0:
253,301,93745,2,0,P|318:247|441:302,1,210
107,110,94026,2,0,P|151:85|204:44,1,105
215,204,94214,2,0,P|243:254|252:325,1,105
85,204,94401,2,0,B|118:142|118:142|99:86,1,105
143,315,94589,6,0,B|162:285|162:285|102:314|49:309,1,146.999995513916
401,306,94870,1,0,0:0:0:0:
385,301,94964,2,0,B|325:284|325:284|250:292,1,105
256,88,95151,2,0,P|331:91|376:76,1,105
186,233,95339,2,0,P|189:202|176:122,1,105
35,110,95526,1,0,0:0:0:0:
107,110,95619,1,0,0:0:0:0:
178,129,95713,1,0,0:0:0:0:
242,165,95807,1,0,0:0:0:0:
295,216,95901,2,0,B|330:264|330:264|359:186,1,105
35,110,96089,6,0,B|32:171|32:171|81:178|90:229,1,146.999995513916
53,360,96370,1,0,0:0:0:0:
43,345,96464,2,0,P|30:315|20:235,1,105
219,63,96651,2,0,B|232:93|232:93|241:172,1,105
425,344,96839,6,0,P|379:238|255:228,1,210
219,63,97120,2,0,B|209:41|239:0|239:0|156:24|151:105|189:168,1,210
135,272,97401,2,0,P|184:268|230:294,1,105
319,91,97589,6,0,B|308:131|275:148|275:148|303:173|293:229,1,146.999995513916
73,348,97870,1,0,0:0:0:0:
85,320,97964,2,0,P|102:252|86:202,1,105
170,77,98151,1,0,0:0:0:0:
52,57,98245,2,0,P|120:18|191:112,1,210
422,227,98526,2,0,B|388:247|388:247|364:307,1,105
152,300,98714,2,0,B|118:280|118:280|94:220,1,105
297,99,98901,2,0,B|240:95|240:95|142:116,1,105
256,287,99089,6,0,B|264:230|254:182|254:182|295:235,1,146.999995513916
434,39,99370,1,0,0:0:0:0:
447,37,99464,2,0,P|397:54|441:73,1,105
345,353,99651,2,0,B|400:338|399:366|478:348,2,105
179,272,99932,1,0,0:0:0:0:
179,156,100026,1,0,0:0:0:0:
279,214,100120,1,0,0:0:0:0:
212,214,100214,2,0,P|144:212|65:218,1,105
3,51,100401,2,0,B|54:69|54:69|8:96,1,105
173,2,100589,6,0,P|108:64|15:55,1,146.999995513916
214,214,100870,1,0,0:0:0:0:
235,191,100964,2,0,P|255:175|364:176,1,105
44,315,101151,1,0,0:0:0:0:
218,331,101245,2,0,B|130:288|130:288|14:323,1,210
126,52,101526,2,0,P|153:90|97:140,1,105
400,234,101714,2,0,B|363:173|363:173|302:152,1,105
44,315,101901,2,0,P|88:281|166:249,1,105
265,98,102089,6,0,P|236:46|217:102,1,146.999995513916
397,230,102370,1,0,0:0:0:0:
310,266,102463,1,0,0:0:0:0:
217,259,102557,1,0,0:0:0:0:
138,209,102651,1,0,0:0:0:0:
135,303,102745,2,0,P|102:344|42:369,1,105
46,337,102932,5,0,0:0:0:0:
64,245,103026,1,0,0:0:0:0:
83,152,103120,1,0,0:0:0:0:
94,60,103214,1,0,0:0:0:0:
182,90,103307,1,0,0:0:0:0:
265,135,103401,2,0,P|314:152|375:166,1,105
482,302,103589,6,0,B|446:260|384:277|384:277|445:306,1,146.999995513916
144,243,103870,1,0,0:0:0:0:
153,227,103964,2,0,P|268:187|295:192,1,105
437,101,104151,1,0,0:0:0:0:
275,68,104245,2,0,P|392:57|469:128,1,210
386,276,104526,2,0,P|401:235|492:233,1,105
186,69,104714,2,0,B|275:68|275:68|241:90,1,105
157,323,104901,2,0,B|121:281|187:281|150:222,1,105
43,110,105089,6,0,B|66:42|66:42|133:83,1,146.999995513916
267,285,105370,1,0,0:0:0:0:
248,260,105464,2,0,B|200:229|200:229|137:225,1,105
445,119,105651,1,0,0:0:0:0:
304,69,105745,2,0,P|418:74|490:165,1,210
295,298,106026,1,0,0:0:0:0:
263,196,106120,1,0,0:0:0:0:
364,166,106214,1,0,0:0:0:0:
395,266,106307,1,0,0:0:0:0:
295,298,106401,2,0,B|221:293|221:293|169:334,1,105
26,314,106589,6,0,B|9:332|9:332|14:360|14:360|35:374|35:374|60:368|60:368|74:343|74:343|52:294,1,146.999995513916
103,113,106870,1,0,0:0:0:0:
133,103,106964,2,0,B|170:98|204:66|204:66|202:109,1,105
384,45,107151,1,0,0:0:0:0:
204,67,107245,2,0,P|295:35|427:69,1,210
308,293,107526,1,0,0:0:0:0:
218,263,107620,1,0,0:0:0:0:
218,169,107714,1,0,0:0:0:0:
308,140,107807,1,0,0:0:0:0:
363,216,107901,2,0,B|408:225|438:253|438:253|423:204,1,105
406,56,108089,6,0,P|371:40|314:60,1,73.4999977569581
256,77,108276,1,0,0:0:0:0:
182,136,108370,1,0,0:0:0:0:
171,229,108463,1,0,0:0:0:0:
230,304,108557,1,0,0:0:0:0:
324,314,108651,1,0,0:0:0:0:
399,256,108745,1,0,0:0:0:0:
324,314,108839,6,0,L|307:265,7,52.5
171,229,109214,2,0,L|202:182,7,52.5
149,105,109589,6,0,P|246:103|280:135,1,138.599999577026
400,153,109964,2,0,P|353:238|308:251,1,138.599999577026
233,346,110339,1,0,0:0:0:0:
184,297,110432,1,0,0:0:0:0:
170,230,110526,1,0,0:0:0:0:
120,276,110620,1,0,0:0:0:0:
53,287,110714,2,0,P|16:284|-20:254,1,69.2999997885132
153,122,110901,2,0,P|124:146|78:150,1,69.2999997885132
63,21,111089,6,0,B|25:77|25:77|14:162,1,138.599999577026
233,346,111464,2,0,B|271:290|271:290|282:205,1,138.599999577026
417,208,111745,2,0,P|402:261|401:293,1,69.2999997885132
376,112,111932,5,0,0:0:0:0:
327,63,112025,1,0,0:0:0:0:
260,56,112119,1,0,0:0:0:0:
199,83,112214,2,0,P|160:123|143:178,1,69.2999997885132
119,282,112401,2,0,P|158:242|175:187,1,69.2999997885132
260,56,112589,6,0,P|262:86|293:55,1,69.2999997885132
348,213,112776,2,0,P|323:220|246:208,1,69.2999997885132
455,170,112964,2,0,P|462:195|450:272,1,69.2999997885132
412,63,113151,2,0,P|437:56|514:68,1,69.2999997885132
348,213,113339,2,0,P|323:220|246:208,3,69.2999997885132
304,374,113714,2,0,P|315:335|317:298,1,69.2999997885132
294,83,113901,2,0,L|310:157,1,69.2999997885132
37,86,114089,6,0,L|182:111,1,138.599999577026
294,83,114370,1,0,0:0:0:0:
57,177,114464,6,0,L|202:202,1,138.599999577026
314,174,114745,2,0,L|289:319,1,138.599999577026
131,322,115026,6,0,P|179:305|225:303,1,69.2999997885132
381,305,115214,2,0,P|431:314|471:335,1,69.2999997885132
127,219,115401,6,0,P|175:202|221:200,1,69.2999997885132
377,202,115589,2,0,B|430:208|466:222|466:222|455:192|466:175,1,138.599999577026
497,54,115964,2,0,P|411:63|366:101,1,138.599999577026
258,215,116339,1,0,0:0:0:0:
196,227,116432,1,0,0:0:0:0:
141,198,116526,1,0,0:0:0:0:
118,140,116620,1,0,0:0:0:0:
137,81,116714,2,0,P|173:56|227:64,1,69.2999997885132
185,20,116901,2,0,P|121:41|82:98,1,138.599999577026
62,207,117276,5,0,0:0:0:0:
61,273,117369,1,0,0:0:0:0:
117,308,117463,1,0,0:0:0:0:
155,251,117557,1,0,0:0:0:0:
219,230,117651,1,0,0:0:0:0:
284,253,117745,1,0,0:0:0:0:
316,315,117839,1,0,0:0:0:0:
377,341,117932,1,0,0:0:0:0:
435,308,118026,1,0,0:0:0:0:
444,242,118120,1,0,0:0:0:0:
389,202,118214,1,0,0:0:0:0:
372,136,118308,1,0,0:0:0:0:
400,74,118401,2,0,P|434:44|484:43,1,69.2999997885132
258,17,118589,6,0,B|252:55|252:55|266:115|266:115|259:153,1,138.599999577026
122,155,118964,2,0,P|156:133|191:127,1,69.2999997885132
402,75,119151,2,0,L|330:67,1,69.2999997885132
203,242,119339,2,0,P|235:256|270:257,1,69.2999997885132
385,304,119526,2,0,P|392:242|371:195,1,69.2999997885132
402,75,119714,1,0,0:0:0:0:
333,67,119807,1,0,0:0:0:0:
264,59,119901,1,0,0:0:0:0:
195,52,119995,1,0,0:0:0:0:
126,44,120089,6,0,P|117:91|81:141,1,69.2999997885132
185,308,120276,2,0,P|194:261|230:211,1,69.2999997885132
293,117,120464,1,0,0:0:0:0:
333,67,120557,1,0,0:0:0:0:
391,49,120651,1,0,0:0:0:0:
452,65,120745,1,0,0:0:0:0:
496,109,120839,1,0,0:0:0:0:
505,171,120932,1,0,0:0:0:0:
481,228,121026,1,0,0:0:0:0:
430,264,121120,1,0,0:0:0:0:
367,266,121214,2,0,P|310:267|246:307,3,69.2999997885132
225,322,121589,6,0,P|209:253|256:195,1,105
289,23,121964,2,0,P|305:92|258:150,1,105
168,111,122339,1,0,0:0:0:0:
52,382,122432,1,0,0:0:0:0:
76,335,122526,1,0,0:0:0:0:
84,283,122619,1,0,0:0:0:0:
66,235,122714,2,0,P|43:176|65:112,1,105
292,121,123089,6,0,B|347:119|347:119|423:150,1,105
168,251,123464,2,0,B|113:253|113:253|37:222,1,105
278,120,123745,1,0,0:0:0:0:
481,175,123932,1,0,0:0:0:0:
438,205,124025,1,0,0:0:0:0:
395,235,124119,1,0,0:0:0:0:
352,265,124214,2,0,L|292:303,1,52.5
123,279,124401,2,0,L|183:241,1,52.5
230,77,124589,6,0,L|131:142,1,105,0|0,2:0|2:0,2:0:0:0:
307,293,124964,2,0,L|405:227,1,105,0|0,2:0|2:0,2:0:0:0:
449,14,125245,1,0,0:0:0:0:
288,35,125432,5,0,0:0:0:0:
300,85,125525,1,0,0:0:0:0:
291,136,125619,1,0,0:0:0:0:
260,178,125714,2,0,P|220:218|192:226,1,52.5
136,248,125901,2,0,P|79:251|52:240,1,52.5
2,222,126089,6,0,L|55:89,1,105
18,32,126370,1,0,0:0:0:0:
136,248,126464,6,0,L|189:115,1,105
152,58,126745,2,0,B|206:63|206:63|285:111,1,105
314,154,127026,2,0,P|340:104|341:78,1,52.5
226,182,127214,2,0,P|256:229|278:243,1,52.5
249,89,127401,2,0,P|192:91|169:103,1,52.5
64,96,127589,6,0,B|54:150|54:150|87:232,1,105
261,326,127964,2,0,B|271:272|271:272|238:190,1,105
198,89,128245,1,0,0:0:0:0:
345,57,128432,5,0,0:0:0:0:
370,102,128525,1,0,0:0:0:0:
378,154,128619,1,0,0:0:0:0:
369,205,128714,2,0,P|350:277|375:328,1,105
506,285,129089,6,0,B|520:271|520:271|406:262,1,105
237,338,129464,2,0,P|246:276|223:206,1,105
198,89,129745,1,0,0:0:0:0:
55,192,129932,1,0,0:0:0:0:
51,188,130026,1,0,0:0:0:0:
55,184,130120,1,0,0:0:0:0:
58,188,130214,2,0,L|75:252,1,52.5
109,247,130401,2,0,L|126:302,1,52.5
206,341,130589,6,0,P|213:272|188:230,1,105
151,143,130964,2,0,P|144:74|169:32,1,105
226,99,131245,1,0,0:0:0:0:
226,99,131432,5,0,0:0:0:0:
253,142,131525,1,0,0:0:0:0:
302,155,131619,1,0,0:0:0:0:
330,112,131714,1,0,0:0:0:0:
379,96,131808,1,0,0:0:0:0:
427,115,131902,1,0,0:0:0:0:
453,159,131996,1,0,0:0:0:0:
444,210,132089,6,0,B|423:263|423:263|351:321,1,105
281,338,132370,1,0,0:0:0:0:
98,202,132464,6,0,P|169:220|210:263,1,105
281,304,132745,1,0,0:0:0:0:
201,93,132839,2,0,P|236:139|244:164,1,52.5
359,29,133026,2,0,P|324:75|316:100,1,52.5
494,91,133214,1,0,0:0:0:0:
494,91,133307,1,0,0:0:0:0:
494,91,133401,2,0,P|442:117|408:162,1,105
256,192,133682,12,0,137714,0:0:0:0:
